Tags
Language
Tags

Charlie Parker - The Complete Live Performances on Savoy 1947-1950 (1998)

Posted By: v3122
Charlie Parker - The Complete Live Performances on Savoy 1947-1950 (1998)

Charlie Parker - The Complete Live Performances on Savoy 1947-1950 (1998)
EAC | Flac(Image) + Cue + Log & MP3 CBR 320Kbps
4CD | Savoy Jazz, SVY-17021-24 | ~ 891 or 651 Mb | Scans(jpg) -> 6.41 Mb
Jazz / Bop

This four-CD set contains a somewhat streamlined presentation of Parker's complete known live broadcasts from New York's Royal Roost, dating during 1948 and 1949, augmented with five of the live September 29, 1947, Carnegie Hall recordings and one lower-quality tape made in Chicago during 1950. The vitality of these performances still radiates off the tapes in whatever format they're reproduced 50-plus years later – the interaction between the bandmembers, which include Miles Davis (or Kenny Dorham) on trumpet and Max Roach at the drums, and Tadd Dameron or Al Haig at the ivories, is spellbinding. The difference between these performances and Parker's studio work of the period is that he was always "on" for the broadcasts, and had already achieved something of a peak that he still missed in his studio work of the era – those along with him rose to the occasion, as witnessed by Kenny Dorham's playing on Miles Davis' "Half Nelson" in December of 1947. On the other hand, nobody could touch Parker when he was at his peak on stage, which he ascends easily on a jam set to Irving Berlin's "White Christmas." The Chicago material, which exists on a separate CD from Savoy (One Night in Chicago), isn't as well recorded – the rhythm section is muted, and the balances are off, but Parker is certainly audible, and hearing his improvisations on material like Rodgers & Hart's "There's a Small Hotel" is worth the price of the disc, even on what amounts to a good audience tape. The source material has been very carefully mastered, striking a good balance between clean playback and fidelity to the original performance, and the dozens of pages of notes represent virtually a separate, free-standing book on Parker during this period in his career.

by Bruce Eder, allmusic
Charlie Parker - The Complete Live Performances on Savoy 1947-1950 (1998):

Charlie Parker - The Complete Live Performances on Savoy 1947-1950 (1998)

Tracklist CD1:

01. 52nd Street Theme (5:22)
02. Koko (2:31)
03. Groovin' High (5:02)
04. Big Foot (4:43)
05. Ornithology (5:43)
06. Slow Boat To China (5:19)
07. Hot House (4:24)
08. Salt Peanuts (3:52)
09. Chasin' The Bird (4:25)
10. Out Of Nowhere (3:19)
11. How High The Moon (2:57)
12. Half Nelson (4:44)
13. White Christmas (5:10)
14. Little Willie Leaps (3:53)
15. Jumpin' with Symphony Sid / BeBop (5:04)
16. Slow Boat To China (4:29)

Converted to Image (CUETools 2.1.4)

EAC extraction logfile from 22. December 2007, 12:09 for CD
Charlie Parker / Complete Live Performances on Savoy (Disc 1) From the Royal Roost (Part 1)

Used drive : LITE-ON DVDRW SHM-165P6S Adapter: 0 ID: 0
Read mode : Secure with NO C2, accurate stream, disable cache
Read offset correction : 6
Overread into Lead-In and Lead-Out : No

Used output format : C:\Programmi\FLAC\flac.exe (User Defined Encoder)
128 kBit/s
Additional command line options : -8 -V -T "ARTIST=%a" -T "TITLE=%t" -T "ALBUM=%g" -T "DATE=%y" -T "TRACKNUMBER=%n" -T "GENRE=%m" -T "COMMENT=EAC Flac 1.1.4 -8" %s

Other options :
Fill up missing offset samples with silence : Yes
Delete leading and trailing silent blocks : No
Native Win32 interface for Win NT & 2000


Track 1
Filename Z:\NewTorrent\Charlie Parker - The Complete live Performances on Savoy (1998) [FLAC]\Complete Live Performances on Savoy (Disc 1) From the Royal Roost (Part 1) (1998)\01 - 52nd Street Theme.wav

Pre-gap length 0:00:02.00

Peak level 95.5 %
Track quality 99.9 %
Test CRC DA3FCAF1
Copy CRC DA3FCAF1
Copy OK

Track 2
Filename Z:\NewTorrent\Charlie Parker - The Complete live Performances on Savoy (1998) [FLAC]\Complete Live Performances on Savoy (Disc 1) From the Royal Roost (Part 1) (1998)\02 - Koko.wav

Peak level 64.0 %
Track quality 100.0 %
Test CRC ABFE8438
Copy CRC ABFE8438
Copy OK

Track 3
Filename Z:\NewTorrent\Charlie Parker - The Complete live Performances on Savoy (1998) [FLAC]\Complete Live Performances on Savoy (Disc 1) From the Royal Roost (Part 1) (1998)\03 - Groovin' High.wav

Peak level 77.0 %
Track quality 100.0 %
Test CRC 9C2E4158
Copy CRC 9C2E4158
Copy OK

Track 4
Filename Z:\NewTorrent\Charlie Parker - The Complete live Performances on Savoy (1998) [FLAC]\Complete Live Performances on Savoy (Disc 1) From the Royal Roost (Part 1) (1998)\04 - Big Foot.wav

Peak level 82.0 %
Track quality 100.0 %
Test CRC 56AEAAB9
Copy CRC 56AEAAB9
Copy OK

Track 5
Filename Z:\NewTorrent\Charlie Parker - The Complete live Performances on Savoy (1998) [FLAC]\Complete Live Performances on Savoy (Disc 1) From the Royal Roost (Part 1) (1998)\05 - Ornithology.wav

Peak level 89.1 %
Track quality 100.0 %
Test CRC D502A8E7
Copy CRC D502A8E7
Copy OK

Track 6
Filename Z:\NewTorrent\Charlie Parker - The Complete live Performances on Savoy (1998) [FLAC]\Complete Live Performances on Savoy (Disc 1) From the Royal Roost (Part 1) (1998)\06 - Slow Boat To China.wav

Peak level 73.6 %
Track quality 100.0 %
Test CRC D92874A4
Copy CRC D92874A4
Copy OK

Track 7
Filename Z:\NewTorrent\Charlie Parker - The Complete live Performances on Savoy (1998) [FLAC]\Complete Live Performances on Savoy (Disc 1) From the Royal Roost (Part 1) (1998)\07 - Hot House.wav

Peak level 78.2 %
Track quality 100.0 %
Test CRC CED74FE5
Copy CRC CED74FE5
Copy OK

Track 8
Filename Z:\NewTorrent\Charlie Parker - The Complete live Performances on Savoy (1998) [FLAC]\Complete Live Performances on Savoy (Disc 1) From the Royal Roost (Part 1) (1998)\08 - Salt Peanuts.wav

Peak level 89.3 %
Track quality 100.0 %
Test CRC 6BB279A1
Copy CRC 6BB279A1
Copy OK

Track 9
Filename Z:\NewTorrent\Charlie Parker - The Complete live Performances on Savoy (1998) [FLAC]\Complete Live Performances on Savoy (Disc 1) From the Royal Roost (Part 1) (1998)\09 - Chasin' The Bird.wav

Peak level 84.1 %
Track quality 100.0 %
Test CRC A600B90D
Copy CRC A600B90D
Copy OK

Track 10
Filename Z:\NewTorrent\Charlie Parker - The Complete live Performances on Savoy (1998) [FLAC]\Complete Live Performances on Savoy (Disc 1) From the Royal Roost (Part 1) (1998)\10 - Out Of Nowhere.wav

Peak level 85.8 %
Track quality 99.9 %
Test CRC 3ACA437A
Copy CRC 3ACA437A
Copy OK

Track 11
Filename Z:\NewTorrent\Charlie Parker - The Complete live Performances on Savoy (1998) [FLAC]\Complete Live Performances on Savoy (Disc 1) From the Royal Roost (Part 1) (1998)\11 - How High The Moon.wav

Peak level 73.7 %
Track quality 100.0 %
Test CRC B1D75AA6
Copy CRC B1D75AA6
Copy OK

Track 12
Filename Z:\NewTorrent\Charlie Parker - The Complete live Performances on Savoy (1998) [FLAC]\Complete Live Performances on Savoy (Disc 1) From the Royal Roost (Part 1) (1998)\12 - Half Nelson.wav

Peak level 69.0 %
Track quality 99.9 %
Test CRC 4FDF7EB1
Copy CRC 4FDF7EB1
Copy OK

Track 13
Filename Z:\NewTorrent\Charlie Parker - The Complete live Performances on Savoy (1998) [FLAC]\Complete Live Performances on Savoy (Disc 1) From the Royal Roost (Part 1) (1998)\13 - White Christmas.wav

Peak level 82.4 %
Track quality 100.0 %
Test CRC E526BE1B
Copy CRC E526BE1B
Copy OK

Track 14
Filename Z:\NewTorrent\Charlie Parker - The Complete live Performances on Savoy (1998) [FLAC]\Complete Live Performances on Savoy (Disc 1) From the Royal Roost (Part 1) (1998)\14 - Little Willie Leaps.wav

Peak level 73.6 %
Track quality 100.0 %
Test CRC 69F4496D
Copy CRC 69F4496D
Copy OK

Track 15
Filename Z:\NewTorrent\Charlie Parker - The Complete live Performances on Savoy (1998) [FLAC]\Complete Live Performances on Savoy (Disc 1) From the Royal Roost (Part 1) (1998)\15 - Jumpin' with Symphony Sid , BeBop.wav

Peak level 78.9 %
Track quality 99.9 %
Test CRC 9441195E
Copy CRC 9441195E
Copy OK

Track 16
Filename Z:\NewTorrent\Charlie Parker - The Complete live Performances on Savoy (1998) [FLAC]\Complete Live Performances on Savoy (Disc 1) From the Royal Roost (Part 1) (1998)\16 - Slow Boat To China.wav

Peak level 82.1 %
Track quality 100.0 %
Test CRC 310EE72D
Copy CRC 310EE72D
Copy OK

No errors occured


End of status report


[CUETools log; Date: 02.05.2018 17:06:44; Version: 2.1.5]
[AccurateRip ID: 0029d730-01f3d314-0710a910] found.
Track [ CRC | V2 ] Status
01 [58633243|46c4e7de] (16+16/34) Accurately ripped
02 [2f3d0aff|23699dd3] (16+16/34) Accurately ripped
03 [776b1978|0959d33d] (16+16/34) Accurately ripped
04 [424c61c8|f1d05020] (16+16/34) Accurately ripped
05 [dbe330b2|a35c3ca6] (16+16/34) Accurately ripped
06 [0a82ed04|d1668dcf] (16+16/34) Accurately ripped
07 [1ee33b93|6ec8bf25] (16+16/34) Accurately ripped
08 [a4bf19ee|45b93ada] (16+16/34) Accurately ripped
09 [5a99b8ca|a34864e8] (16+16/34) Accurately ripped
10 [e819d205|f7436cdd] (16+16/34) Accurately ripped
11 [d26860c2|bd9b74ae] (16+16/34) Accurately ripped
12 [cb4caab2|1dc25770] (16+16/34) Accurately ripped
13 [974f5508|81a8766a] (16+15/33) Accurately ripped
14 [60d9040c|48ab9df0] (16+15/33) Accurately ripped
15 [819e246c|c5fec0de] (16+14/32) Accurately ripped
16 [d729b728|d45aa8b7] (16+13/31) Accurately ripped
Offsetted by 869:
01 [3663cb31] (02/34) Accurately ripped
02 [f3468356] (02/34) Accurately ripped
03 [3ca7e7c5] (02/34) Accurately ripped
04 [a2bd551a] (02/34) Accurately ripped
05 [39b95862] (02/34) Accurately ripped
06 [0c16c2df] (02/34) Accurately ripped
07 [7fc84aef] (02/34) Accurately ripped
08 [ff773fa6] (02/34) Accurately ripped
09 [6dbb70ae] (02/34) Accurately ripped
10 [6b82bc0c] (02/34) Accurately ripped
11 [6dcec83f] (02/34) Accurately ripped
12 [fbff9ef5] (02/34) Accurately ripped
13 [ffd71062] (02/33) Accurately ripped
14 [65292a16] (02/33) Accurately ripped
15 [6e181de5] (02/32) Accurately ripped
16 [322ec70c] (02/31) Accurately ripped

Track Peak [ CRC32 ] [W/O NULL] [ LOG ]
– 95,5 [7EC38498] [9C18EDDA]
01 95,5 [DA3FCAF1] [AAF363F7] CRC32
02 64,0 [ABFE8438] [073FFB20] CRC32
03 77,0 [9C2E4158] [E30F892E] CRC32
04 82,0 [56AEAAB9] [8660610F] CRC32
05 89,1 [D502A8E7] [D9B6EB11] CRC32
06 73,6 [D92874A4] [CA0C9CD9] CRC32
07 78,2 [CED74FE5] [B5F3EF68] CRC32
08 89,2 [6BB279A1] [4342CD5F] CRC32
09 84,1 [A600B90D] [F4F69FFC] CRC32
10 85,8 [3ACA437A] [BE981ED3] CRC32
11 73,7 [B1D75AA6] [D17702F9] CRC32
12 69,0 [4FDF7EB1] [D2BF6B09] CRC32
13 82,4 [E526BE1B] [C56A7346] CRC32
14 73,6 [69F4496D] [C535E4D0] CRC32
15 78,9 [9441195E] [4BB3E429] CRC32
16 82,1 [310EE72D] [DE7B8BEE] CRC32


Charlie Parker - The Complete Live Performances on Savoy 1947-1950 (1998)

Tracklist CD2:

01. Ornithology (4:52)
02. Groovin' High (5:35)
03. East Of The Sun (and West of the Moon) (4:37)
04. Cheryl (4:40)
05. How High The Moon (5:04)
06. Scrapple From The Apple (4:08)
07. Be-Bop (3:31)
08. Hot House (5:06)
09. Oop Bop Sh' Bam (5:05)
10. Scrapple From The Apple (4:38)
11. Salt Peanuts (4:09)
12. Groovin' High (3:44)
13. Scrapple From The Apple (3:28)
14. Barbados (3:51)
15. Salt Peanuts (3:42)
16. Scrapple From The Apple (4:52)

Converted to Image (CUETools 2.1.4)

EAC extraction logfile from 22. December 2007, 13:22 for CD
Charlie Parker / Complete Live Performances on Savoy (Disc 2) From the Royal Roost (Part II)

Used drive : LITE-ON DVDRW SHM-165P6S Adapter: 0 ID: 0
Read mode : Secure with NO C2, accurate stream, disable cache
Read offset correction : 6
Overread into Lead-In and Lead-Out : No

Used output format : C:\Programmi\FLAC\flac.exe (User Defined Encoder)
128 kBit/s
Additional command line options : -8 -V -T "ARTIST=%a" -T "TITLE=%t" -T "ALBUM=%g" -T "DATE=%y" -T "TRACKNUMBER=%n" -T "GENRE=%m" -T "COMMENT=EAC Flac 1.1.4 -8" %s

Other options :
Fill up missing offset samples with silence : Yes
Delete leading and trailing silent blocks : No
Native Win32 interface for Win NT & 2000


Track 1
Filename Z:\NewTorrent\Charlie Parker - The Complete live Performances on Savoy (1998) [FLAC]\Complete Live Performances on Savoy (Disc 2) From the Royal Roost (Part II) (1998)\01 - Ornithology.wav

Pre-gap length 0:00:02.00

Peak level 96.4 %
Track quality 100.0 %
Test CRC 437F7FC7
Copy CRC 437F7FC7
Copy OK

Track 2
Filename Z:\NewTorrent\Charlie Parker - The Complete live Performances on Savoy (1998) [FLAC]\Complete Live Performances on Savoy (Disc 2) From the Royal Roost (Part II) (1998)\02 - Groovin' High.wav

Peak level 100.0 %
Track quality 99.9 %
Test CRC 622F2247
Copy CRC 622F2247
Copy OK

Track 3
Filename Z:\NewTorrent\Charlie Parker - The Complete live Performances on Savoy (1998) [FLAC]\Complete Live Performances on Savoy (Disc 2) From the Royal Roost (Part II) (1998)\03 - East Of The Sun (and West of the Moon).wav

Pre-gap length 0:00:47.37

Peak level 97.1 %
Track quality 100.0 %
Test CRC 4B5FF216
Copy CRC 4B5FF216
Copy OK

Track 4
Filename Z:\NewTorrent\Charlie Parker - The Complete live Performances on Savoy (1998) [FLAC]\Complete Live Performances on Savoy (Disc 2) From the Royal Roost (Part II) (1998)\04 - Cheryl.wav

Peak level 100.0 %
Track quality 100.0 %
Test CRC 632499E1
Copy CRC 632499E1
Copy OK

Track 5
Filename Z:\NewTorrent\Charlie Parker - The Complete live Performances on Savoy (1998) [FLAC]\Complete Live Performances on Savoy (Disc 2) From the Royal Roost (Part II) (1998)\05 - How High The Moon.wav

Peak level 96.7 %
Track quality 100.0 %
Test CRC 2522BED6
Copy CRC 2522BED6
Copy OK

Track 6
Filename Z:\NewTorrent\Charlie Parker - The Complete live Performances on Savoy (1998) [FLAC]\Complete Live Performances on Savoy (Disc 2) From the Royal Roost (Part II) (1998)\06 - Scrapple From The Apple.wav

Peak level 100.0 %
Track quality 100.0 %
Test CRC B4DC5BC4
Copy CRC B4DC5BC4
Copy OK

Track 7
Filename Z:\NewTorrent\Charlie Parker - The Complete live Performances on Savoy (1998) [FLAC]\Complete Live Performances on Savoy (Disc 2) From the Royal Roost (Part II) (1998)\07 - Be-Bop.wav

Peak level 100.0 %
Track quality 100.0 %
Test CRC 92D44C32
Copy CRC 92D44C32
Copy OK

Track 8
Filename Z:\NewTorrent\Charlie Parker - The Complete live Performances on Savoy (1998) [FLAC]\Complete Live Performances on Savoy (Disc 2) From the Royal Roost (Part II) (1998)\08 - Hot House.wav

Peak level 95.4 %
Track quality 100.0 %
Test CRC DE512209
Copy CRC DE512209
Copy OK

Track 9
Filename Z:\NewTorrent\Charlie Parker - The Complete live Performances on Savoy (1998) [FLAC]\Complete Live Performances on Savoy (Disc 2) From the Royal Roost (Part II) (1998)\09 - Oop Bop Sh' Bam.wav

Peak level 95.9 %
Track quality 100.0 %
Test CRC A3BE5801
Copy CRC A3BE5801
Copy OK

Track 10
Filename Z:\NewTorrent\Charlie Parker - The Complete live Performances on Savoy (1998) [FLAC]\Complete Live Performances on Savoy (Disc 2) From the Royal Roost (Part II) (1998)\10 - Scrapple From The Apple.wav

Peak level 100.0 %
Track quality 100.0 %
Test CRC 53FD6B06
Copy CRC 53FD6B06
Copy OK

Track 11
Filename Z:\NewTorrent\Charlie Parker - The Complete live Performances on Savoy (1998) [FLAC]\Complete Live Performances on Savoy (Disc 2) From the Royal Roost (Part II) (1998)\11 - Salt Peanuts.wav

Peak level 89.8 %
Track quality 100.0 %
Test CRC E6E23C5E
Copy CRC E6E23C5E
Copy OK

Track 12
Filename Z:\NewTorrent\Charlie Parker - The Complete live Performances on Savoy (1998) [FLAC]\Complete Live Performances on Savoy (Disc 2) From the Royal Roost (Part II) (1998)\12 - Groovin' High.wav

Peak level 97.1 %
Track quality 100.0 %
Test CRC 500704BF
Copy CRC 500704BF
Copy OK

Track 13
Filename Z:\NewTorrent\Charlie Parker - The Complete live Performances on Savoy (1998) [FLAC]\Complete Live Performances on Savoy (Disc 2) From the Royal Roost (Part II) (1998)\13 - Scrapple From The Apple.wav

Peak level 83.1 %
Track quality 100.0 %
Test CRC EB851049
Copy CRC EB851049
Copy OK

Track 14
Filename Z:\NewTorrent\Charlie Parker - The Complete live Performances on Savoy (1998) [FLAC]\Complete Live Performances on Savoy (Disc 2) From the Royal Roost (Part II) (1998)\14 - Barbados.wav

Peak level 81.2 %
Track quality 100.0 %
Test CRC D8719E79
Copy CRC D8719E79
Copy OK

Track 15
Filename Z:\NewTorrent\Charlie Parker - The Complete live Performances on Savoy (1998) [FLAC]\Complete Live Performances on Savoy (Disc 2) From the Royal Roost (Part II) (1998)\15 - Salt Peanuts.wav

Peak level 92.9 %
Track quality 100.0 %
Test CRC 78972CDA
Copy CRC 78972CDA
Copy OK

Track 16
Filename Z:\NewTorrent\Charlie Parker - The Complete live Performances on Savoy (1998) [FLAC]\Complete Live Performances on Savoy (Disc 2) From the Royal Roost (Part II) (1998)\16 - Scrapple From The Apple.wav

Peak level 99.6 %
Track quality 100.0 %
Test CRC 6A735628
Copy CRC 6A735628
Copy OK

No errors occured


End of status report


[CUETools log; Date: 02.05.2018 17:13:49; Version: 2.1.5]
[AccurateRip ID: 002b3ac8-02008b78-ee10ac10] found.
Track [ CRC | V2 ] Status
01 [67ab2361|99f771a0] (08+08/16) Accurately ripped
02 [08e15c3c|1d577d02] (08+08/16) Accurately ripped
03 [c36c87cc|dfcc969b] (08+08/16) Accurately ripped
04 [78a34839|9a9103d9] (08+08/16) Accurately ripped
05 [74aa2609|51ff7aa2] (08+08/16) Accurately ripped
06 [656749fa|36e68b26] (08+08/16) Accurately ripped
07 [bdf16abe|c8a57695] (08+08/16) Accurately ripped
08 [ff31ef46|864fac7d] (08+08/16) Accurately ripped
09 [ddd9600a|20197e80] (08+08/16) Accurately ripped
10 [5b53e2f2|b3b5cdb3] (08+08/16) Accurately ripped
11 [b9919b1c|d32e43b4] (08+07/15) Accurately ripped
12 [0203127c|737ca0c3] (08+06/14) Accurately ripped
13 [ba5750a4|35b13ddf] (08+07/15) Accurately ripped
14 [11143f94|b83cd3fc] (08+08/16) Accurately ripped
15 [5c7b2b21|8406f01e] (08+08/16) Accurately ripped
16 [ac99d6d6|1b9ab788] (08+07/15) Accurately ripped

Track Peak [ CRC32 ] [W/O NULL] [ LOG ]
– 100,0 [1FB24B44] [61882DD0]
01 96,4 [437F7FC7] [7A124479] CRC32
02 100,0 [622F2247] [D065FE9B] CRC32
03 97,1 [4B5FF216] [B7B66EC6] CRC32
04 100,0 [632499E1] [39FEB817] CRC32
05 96,7 [2522BED6] [2815405F] CRC32
06 100,0 [B4DC5BC4] [25416C2D] CRC32
07 100,0 [92D44C32] [1CE9D4F8] CRC32
08 95,4 [DE512209] [4621E111] CRC32
09 95,9 [A3BE5801] [A7AF8FBB] CRC32
10 100,0 [53FD6B06] [7D6AEEA3] CRC32
11 89,8 [E6E23C5E] [63D45D54] CRC32
12 97,1 [500704BF] [135281AE] CRC32
13 83,1 [EB851049] [339A31AB] CRC32
14 81,2 [D8719E79] [95E13F4C] CRC32
15 92,9 [78972CDA] [83FABAA0] CRC32
16 99,6 [6A735628] [9A00B807] CRC32


Charlie Parker - The Complete Live Performances on Savoy 1947-1950 (1998)

Tracklist CD3:

01. Barbados (3:56)
02. Be-Bop (3:28)
03. Groovin' High (4:47)
04. Confirmation (3:34)
05. Salt Peanuts (3:55)
06. Half-Nelson (3:42)
07. A Night In Tunisia (4:53)
08. Scrapple From The Apple (4:58)
09. Deedle (2:38)
10. What's This? (2:15)
11. Cheryl (3:48)
12. Anthropology (5:50)
13. Hurry Home (2:27)
14. Deedle (2:06)
15. Royal Roost Bop (2:12)
16. Cheryl (3:24)
17. Slow Boat To China (4:41)
18. Chasin' The Bird (6:36)

Converted to Image (CUETools 2.1.4)

EAC extraction logfile from 22. December 2007, 14:38 for CD
Charlie Parker / Complete Live Performances on Savoy (Disc 3) From the Royal Roost (Part III)

Used drive : LITE-ON DVDRW SHM-165P6S Adapter: 0 ID: 0
Read mode : Secure with NO C2, accurate stream, disable cache
Read offset correction : 6
Overread into Lead-In and Lead-Out : No

Used output format : C:\Programmi\FLAC\flac.exe (User Defined Encoder)
128 kBit/s
Additional command line options : -8 -V -T "ARTIST=%a" -T "TITLE=%t" -T "ALBUM=%g" -T "DATE=%y" -T "TRACKNUMBER=%n" -T "GENRE=%m" -T "COMMENT=EAC Flac 1.1.4 -8" %s

Other options :
Fill up missing offset samples with silence : Yes
Delete leading and trailing silent blocks : No
Native Win32 interface for Win NT & 2000


Track 1
Filename Z:\NewTorrent\Charlie Parker - The Complete live Performances on Savoy (1998) [FLAC]\Complete Live Performances on Savoy (Disc 3) From the Royal Roost (Part III) (1998)\01 - Barbados.wav

Pre-gap length 0:00:02.00

Peak level 99.5 %
Track quality 100.0 %
Test CRC 3F6DC9A3
Copy CRC 3F6DC9A3
Copy OK

Track 2
Filename Z:\NewTorrent\Charlie Parker - The Complete live Performances on Savoy (1998) [FLAC]\Complete Live Performances on Savoy (Disc 3) From the Royal Roost (Part III) (1998)\02 - Be-Bop.wav

Peak level 89.5 %
Track quality 99.9 %
Test CRC 0DF380CB
Copy CRC 0DF380CB
Copy OK

Track 3
Filename Z:\NewTorrent\Charlie Parker - The Complete live Performances on Savoy (1998) [FLAC]\Complete Live Performances on Savoy (Disc 3) From the Royal Roost (Part III) (1998)\03 - Groovin' High.wav

Peak level 76.7 %
Track quality 100.0 %
Test CRC 1674AB53
Copy CRC 1674AB53
Copy OK

Track 4
Filename Z:\NewTorrent\Charlie Parker - The Complete live Performances on Savoy (1998) [FLAC]\Complete Live Performances on Savoy (Disc 3) From the Royal Roost (Part III) (1998)\04 - Confirmation.wav

Peak level 83.7 %
Track quality 100.0 %
Test CRC 92A815FC
Copy CRC 92A815FC
Copy OK

Track 5
Filename Z:\NewTorrent\Charlie Parker - The Complete live Performances on Savoy (1998) [FLAC]\Complete Live Performances on Savoy (Disc 3) From the Royal Roost (Part III) (1998)\05 - Salt Peanuts.wav

Peak level 97.1 %
Track quality 99.9 %
Test CRC 7D0F0420
Copy CRC 7D0F0420
Copy OK

Track 6
Filename Z:\NewTorrent\Charlie Parker - The Complete live Performances on Savoy (1998) [FLAC]\Complete Live Performances on Savoy (Disc 3) From the Royal Roost (Part III) (1998)\06 - Half-Nelson.wav

Peak level 85.4 %
Track quality 100.0 %
Test CRC AC1CF405
Copy CRC AC1CF405
Copy OK

Track 7
Filename Z:\NewTorrent\Charlie Parker - The Complete live Performances on Savoy (1998) [FLAC]\Complete Live Performances on Savoy (Disc 3) From the Royal Roost (Part III) (1998)\07 - A Night In Tunisia.wav

Peak level 89.5 %
Track quality 100.0 %
Test CRC 3E40C104
Copy CRC 3E40C104
Copy OK

Track 8
Filename Z:\NewTorrent\Charlie Parker - The Complete live Performances on Savoy (1998) [FLAC]\Complete Live Performances on Savoy (Disc 3) From the Royal Roost (Part III) (1998)\08 - Scrapple From The Apple.wav

Peak level 87.5 %
Track quality 100.0 %
Test CRC 26CF4714
Copy CRC 26CF4714
Copy OK

Track 9
Filename Z:\NewTorrent\Charlie Parker - The Complete live Performances on Savoy (1998) [FLAC]\Complete Live Performances on Savoy (Disc 3) From the Royal Roost (Part III) (1998)\09 - Deedle.wav

Peak level 78.6 %
Track quality 99.9 %
Test CRC E2AED8DB
Copy CRC E2AED8DB
Copy OK

Track 10
Filename Z:\NewTorrent\Charlie Parker - The Complete live Performances on Savoy (1998) [FLAC]\Complete Live Performances on Savoy (Disc 3) From the Royal Roost (Part III) (1998)\10 - What's This .wav

Peak level 85.0 %
Track quality 100.0 %
Test CRC C111D74D
Copy CRC C111D74D
Copy OK

Track 11
Filename Z:\NewTorrent\Charlie Parker - The Complete live Performances on Savoy (1998) [FLAC]\Complete Live Performances on Savoy (Disc 3) From the Royal Roost (Part III) (1998)\11 - Cheryl.wav

Peak level 82.1 %
Track quality 100.0 %
Test CRC 2DF75121
Copy CRC 2DF75121
Copy OK

Track 12
Filename Z:\NewTorrent\Charlie Parker - The Complete live Performances on Savoy (1998) [FLAC]\Complete Live Performances on Savoy (Disc 3) From the Royal Roost (Part III) (1998)\12 - Anthropology.wav

Peak level 85.2 %
Track quality 100.0 %
Test CRC 3E182D3F
Copy CRC 3E182D3F
Copy OK

Track 13
Filename Z:\NewTorrent\Charlie Parker - The Complete live Performances on Savoy (1998) [FLAC]\Complete Live Performances on Savoy (Disc 3) From the Royal Roost (Part III) (1998)\13 - Hurry Home.wav

Peak level 65.1 %
Track quality 99.9 %
Test CRC 098626D7
Copy CRC 098626D7
Copy OK

Track 14
Filename Z:\NewTorrent\Charlie Parker - The Complete live Performances on Savoy (1998) [FLAC]\Complete Live Performances on Savoy (Disc 3) From the Royal Roost (Part III) (1998)\14 - Deedle.wav

Peak level 90.5 %
Track quality 100.0 %
Test CRC CAEDB882
Copy CRC CAEDB882
Copy OK

Track 15
Filename Z:\NewTorrent\Charlie Parker - The Complete live Performances on Savoy (1998) [FLAC]\Complete Live Performances on Savoy (Disc 3) From the Royal Roost (Part III) (1998)\15 - Royal Roost Bop.wav

Peak level 82.6 %
Track quality 100.0 %
Test CRC A2FD156C
Copy CRC A2FD156C
Copy OK

Track 16
Filename Z:\NewTorrent\Charlie Parker - The Complete live Performances on Savoy (1998) [FLAC]\Complete Live Performances on Savoy (Disc 3) From the Royal Roost (Part III) (1998)\16 - Cheryl.wav

Peak level 86.8 %
Track quality 100.0 %
Test CRC B22A637B
Copy CRC B22A637B
Copy OK

Track 17
Filename Z:\NewTorrent\Charlie Parker - The Complete live Performances on Savoy (1998) [FLAC]\Complete Live Performances on Savoy (Disc 3) From the Royal Roost (Part III) (1998)\17 - Slow Boat To China.wav

Peak level 93.0 %
Track quality 100.0 %
Test CRC D6AE3721
Copy CRC D6AE3721
Copy OK

Track 18
Filename Z:\NewTorrent\Charlie Parker - The Complete live Performances on Savoy (1998) [FLAC]\Complete Live Performances on Savoy (Disc 3) From the Royal Roost (Part III) (1998)\18 - Chasin' The Bird.wav

Peak level 85.4 %
Track quality 100.0 %
Test CRC 7709CB8E
Copy CRC 7709CB8E
Copy OK

No errors occured


End of status report


[CUETools log; Date: 02.05.2018 17:14:30; Version: 2.1.5]
[AccurateRip ID: 002cf6b0-0252aa03-0e103c12] found.
Track [ CRC | V2 ] Status
01 [1cd83cdf|566f9870] (16+15/33) Accurately ripped
02 [402e04bb|45104bab] (16+15/33) Accurately ripped
03 [dabf2102|76b05be6] (16+15/33) Accurately ripped
04 [2a550d85|4dd1a18f] (16+15/33) Accurately ripped
05 [ef5ddc21|b7ff8715] (16+15/33) Accurately ripped
06 [e6330828|10fd1fe0] (16+15/33) Accurately ripped
07 [b1a13e2a|7d3de8fe] (16+15/33) Accurately ripped
08 [3030cfb5|984e656e] (16+15/33) Accurately ripped
09 [664a8f9e|626519f0] (16+15/33) Accurately ripped
10 [ab8a3603|e1283609] (15+15/32) Accurately ripped
11 [52ce5bb9|2ce4fe7f] (16+15/33) Accurately ripped
12 [976c1fcc|a6c56667] (16+15/33) Accurately ripped
13 [6ebf45f1|88645eed] (16+15/33) Accurately ripped
14 [08858b19|ab2df8dd] (16+15/33) Accurately ripped
15 [8ff518a8|bfb42e39] (16+15/33) Accurately ripped
16 [4f9e9e81|8ba6075e] (16+15/33) Accurately ripped
17 [6f659e28|2bc991c1] (15+15/32) Accurately ripped
18 [c5bd9e18|208764bd] (16+15/33) Accurately ripped
Offsetted by -30:
01 [61e68389] (02/33) Accurately ripped
02 [5ced7e9b] (02/33) Accurately ripped
03 [f4156ef8] (02/33) Accurately ripped
04 [a71e004b] (02/33) Accurately ripped
05 [66e739c5] (02/33) Accurately ripped
06 [ee87cd30] (02/33) Accurately ripped
07 [1e741614] (02/33) Accurately ripped
08 [511a4135] (02/33) Accurately ripped
09 [882d7992] (02/33) Accurately ripped
10 [c88be331] (02/32) Accurately ripped
11 [2aac54bd] (02/33) Accurately ripped
12 [086afe45] (02/33) Accurately ripped
13 [92a5713a] (02/33) Accurately ripped
14 [4d41ba6d] (02/33) Accurately ripped
15 [fb60de0c] (02/33) Accurately ripped
16 [6ed44785] (02/33) Accurately ripped
17 [f1aab3a0] (02/32) Accurately ripped
18 [a0e13ee8] (02/33) Accurately ripped

Track Peak [ CRC32 ] [W/O NULL] [ LOG ]
– 99,5 [5BC383D3] [3B6B2921]
01 99,5 [3F6DC9A3] [060923F7] CRC32
02 89,5 [0DF380CB] [9E218ED0] CRC32
03 76,7 [1674AB53] [9FBBEED5] CRC32
04 83,7 [92A815FC] [6AC12DC0] CRC32
05 97,1 [7D0F0420] [C065BDDA] CRC32
06 85,4 [AC1CF405] [1BF8528E] CRC32
07 89,5 [3E40C104] [A81A389B] CRC32
08 87,5 [26CF4714] [8FC514E9] CRC32
09 78,6 [E2AED8DB] [09E5E922] CRC32
10 85,0 [C111D74D] [8BDA5279] CRC32
11 82,1 [2DF75121] [980427FD] CRC32
12 85,2 [3E182D3F] [05C9D036] CRC32
13 65,1 [098626D7] [C48A08F6] CRC32
14 90,5 [CAEDB882] [AAAEC36C] CRC32
15 82,6 [A2FD156C] [79FDD49B] CRC32
16 86,8 [B22A637B] [821CE608] CRC32
17 93,0 [D6AE3721] [1B6A2131] CRC32
18 85,4 [7709CB8E] [E6F53F3A] CRC32


Charlie Parker - The Complete Live Performances on Savoy 1947-1950 (1998)

Tracklist CD4:

01. There's A Small Hotel (10:14)
02. These Foolish Things Remind Me Of You (2:06)
03. Keen And Peachy (6:29)
04. Hot House (9:06)
05. Swivel Hips (Bird, Bass and Out) (3:37)
06. Goodbye (3:13)
07. A Night In Tunisia (5:09)
08. Dizzy Atmosphere (4:04)
09. Groovin' High (5:13)
10. Confirmation (5:34)
11. Koko (4:09)

Converted to Image (CUETools 2.1.4)

EAC extraction logfile from 22. December 2007, 19:09 for CD
Charlie Parker / Complete Live Performances on Savoy (Disc 4)

Used drive : LITE-ON DVDRW SHM-165P6S Adapter: 0 ID: 0
Read mode : Secure with NO C2, accurate stream, disable cache
Read offset correction : 6
Overread into Lead-In and Lead-Out : No

Used output format : C:\Programmi\FLAC\flac.exe (User Defined Encoder)
128 kBit/s
Additional command line options : -8 -V -T "ARTIST=%a" -T "TITLE=%t" -T "ALBUM=%g" -T "DATE=%y" -T "TRACKNUMBER=%n" -T "GENRE=%m" -T "COMMENT=EAC Flac 1.1.4 -8" %s

Other options :
Fill up missing offset samples with silence : Yes
Delete leading and trailing silent blocks : No
Native Win32 interface for Win NT & 2000


Track 1
Filename Z:\NewTorrent\Charlie Parker - The Complete live Performances on Savoy (1998) [FLAC]\Complete Live Performances on Savoy (Disc 4) (1998)\01 - There's A Small Hotel.wav

Pre-gap length 0:00:02.00

Peak level 100.0 %
Track quality 100.0 %
Test CRC B45D187F
Copy CRC B45D187F
Copy OK

Track 2
Filename Z:\NewTorrent\Charlie Parker - The Complete live Performances on Savoy (1998) [FLAC]\Complete Live Performances on Savoy (Disc 4) (1998)\02 - These Foolish Things Remind Me Of You.wav

Pre-gap length 0:00:01.02

Peak level 89.8 %
Track quality 99.9 %
Test CRC 3D89AF7E
Copy CRC 3D89AF7E
Copy OK

Track 3
Filename Z:\NewTorrent\Charlie Parker - The Complete live Performances on Savoy (1998) [FLAC]\Complete Live Performances on Savoy (Disc 4) (1998)\03 - Keen And Peachy.wav

Pre-gap length 0:00:01.20

Peak level 100.0 %
Track quality 100.0 %
Test CRC CAAF6688
Copy CRC CAAF6688
Copy OK

Track 4
Filename Z:\NewTorrent\Charlie Parker - The Complete live Performances on Savoy (1998) [FLAC]\Complete Live Performances on Savoy (Disc 4) (1998)\04 - Hot House.wav

Pre-gap length 0:00:01.29

Peak level 95.5 %
Track quality 100.0 %
Test CRC 278606FA
Copy CRC 278606FA
Copy OK

Track 5
Filename Z:\NewTorrent\Charlie Parker - The Complete live Performances on Savoy (1998) [FLAC]\Complete Live Performances on Savoy (Disc 4) (1998)\05 - Swivel Hips (Bird, Bass and Out).wav

Pre-gap length 0:00:01.04

Peak level 100.0 %
Track quality 100.0 %
Test CRC 3579EE47
Copy CRC 3579EE47
Copy OK

Track 6
Filename Z:\NewTorrent\Charlie Parker - The Complete live Performances on Savoy (1998) [FLAC]\Complete Live Performances on Savoy (Disc 4) (1998)\06 - Goodbye.wav

Pre-gap length 0:00:00.50

Peak level 100.0 %
Track quality 100.0 %
Test CRC 10C4217C
Copy CRC 10C4217C
Copy OK

Track 7
Filename Z:\NewTorrent\Charlie Parker - The Complete live Performances on Savoy (1998) [FLAC]\Complete Live Performances on Savoy (Disc 4) (1998)\07 - A Night In Tunisia.wav

Pre-gap length 0:00:02.04

Peak level 78.9 %
Track quality 100.0 %
Test CRC 8B5C1AA7
Copy CRC 8B5C1AA7
Copy OK

Track 8
Filename Z:\NewTorrent\Charlie Parker - The Complete live Performances on Savoy (1998) [FLAC]\Complete Live Performances on Savoy (Disc 4) (1998)\08 - Dizzy Atmosphere.wav

Peak level 84.6 %
Track quality 100.0 %
Test CRC 68EF58CF
Copy CRC 68EF58CF
Copy OK

Track 9
Filename Z:\NewTorrent\Charlie Parker - The Complete live Performances on Savoy (1998) [FLAC]\Complete Live Performances on Savoy (Disc 4) (1998)\09 - Groovin' High.wav

Peak level 79.9 %
Track quality 99.9 %
Test CRC 48D67FE7
Copy CRC 48D67FE7
Copy OK

Track 10
Filename Z:\NewTorrent\Charlie Parker - The Complete live Performances on Savoy (1998) [FLAC]\Complete Live Performances on Savoy (Disc 4) (1998)\10 - Confirmation.wav

Peak level 73.0 %
Track quality 99.9 %
Test CRC 5C1C59DE
Copy CRC 5C1C59DE
Copy OK

Track 11
Filename Z:\NewTorrent\Charlie Parker - The Complete live Performances on Savoy (1998) [FLAC]\Complete Live Performances on Savoy (Disc 4) (1998)\11 - Koko.wav

Peak level 77.7 %
Track quality 100.0 %
Test CRC 7FD90926
Copy CRC 7FD90926
Copy OK

No errors occured


End of status report


[CUETools log; Date: 02.05.2018 17:18:05; Version: 2.1.5]
[AccurateRip ID: 001a44a8-00dd515e-a40dd10b] found.
Track [ CRC | V2 ] Status
01 [fd86e39d|3fb9c079] (15+16/33) Accurately ripped
02 [febcfc9c|094fe4cc] (15+16/33) Accurately ripped
03 [c35b63c2|0983d4de] (14+16/32) Accurately ripped
04 [e4c2ecc1|c16c640d] (15+16/33) Accurately ripped
05 [53220936|326af4f3] (15+16/33) Accurately ripped
06 [6117c148|02cc20d3] (15+16/33) Accurately ripped
07 [bae3774d|9299f73d] (15+16/33) Accurately ripped
08 [cf2e09bd|b8e68504] (15+16/33) Accurately ripped
09 [c3b3ab2c|6dccf9b2] (15+16/31) Accurately ripped
10 [11fd19b9|15e37d56] (15+15/30) Accurately ripped
11 [0ccfdb66|fe744b68] (15+16/33) Accurately ripped
Offsetted by -30:
01 [7aa7fac1] (02/33) Accurately ripped
02 [bfeb3228] (02/33) Accurately ripped
03 [4b0fd5ce] (02/32) Accurately ripped
04 [131ac32f] (02/33) Accurately ripped
05 [ae1883a0] (02/33) Accurately ripped
06 [76e01f9a] (02/33) Accurately ripped
07 [2681b71c] (02/33) Accurately ripped
08 [2a61bce7] (02/33) Accurately ripped
09 [8f720b36] (00/31) No match (V2 was not tested)
10 [27f22231] (00/30) No match (V2 was not tested)
11 [d282d8c1] (02/33) Accurately ripped

Track Peak [ CRC32 ] [W/O NULL] [ LOG ]
– 100,0 [E55811A4] [FE89F871]
01 100,0 [B45D187F] [4125AB15] CRC32
02 89,8 [3D89AF7E] [2F476F85] CRC32
03 100,0 [CAAF6688] [CAFE4139] CRC32
04 95,5 [278606FA] [1D77671C] CRC32
05 100,0 [3579EE47] [844AE51A] CRC32
06 100,0 [10C4217C] [8D63EC7D] CRC32
07 78,9 [8B5C1AA7] [CBE00A43] CRC32
08 84,6 [68EF58CF] [18392F2C] CRC32
09 79,9 [48D67FE7] [FE5CB03F] CRC32
10 73,0 [5C1C59DE] [09D31A79] CRC32
11 77,7 [7FD90926] [9DEB1378] CRC32


Charlie Parker - The Complete Live Performances on Savoy 1947-1950 (1998)

All thanks go to petr_aprel

Download Charlie Parker - The Complete Live Performances on Savoy 1947-1950 (1998):