Tags
Language
Tags
June 2024
Su Mo Tu We Th Fr Sa
26 27 28 29 30 31 1
2 3 4 5 6 7 8
9 10 11 12 13 14 15
16 17 18 19 20 21 22
23 24 25 26 27 28 29
30 1 2 3 4 5 6

Charlie Byrd, Barney Kessel, Herb Ellis - Great Guitars at Charlie's Georgetown (1983) [Reissue 1994]

Posted By: gribovar
Charlie Byrd, Barney Kessel, Herb Ellis - Great Guitars at Charlie's Georgetown (1983) [Reissue 1994]

Charlie Byrd, Barney Kessel, Herb Ellis - Great Guitars at Charlie's Georgetown (1983) [Reissue 1994]
EAC Rip | FLAC (tracks+.cue+log) - 254 MB | MP3 CBR 320 kbps (LAME 3.93) - 115 MB | Covers - 12 MB
Genre: Jazz, Bop, Guitar Jazz | RAR 3% Rec. | Label: Concord Jazz (CCD-4209)

The Great Guitars' fifth and final recording with their original three guitarists (Charlie Byrd, Herb Ellis and Barney Kessel) is another excellent effort, although a bit lazier than their previous records. Bassist Joe Byrd and drummer Chuck Redd contribute tasteful support. Other than "Get Happy," most of the selections (which include "Where or When," "Opus One," "Old Folks" and even a soulful "When the Saints Go Marching In") are taken at slow to medium tempos, but the interplay between the guitarists is always impressive and swinging.
Tracklist:
01. Where or When
02. New Orleans
03. When the Saints Go Marching In
04. Change Partners
05. Pensive
06. Opus One
07. Old Folks
08. Get Happy
09. Danielle
10. Trouble in Mind

Total time: 48:59

Exact Audio Copy V1.6 from 23. October 2020

EAC extraction logfile from 12. May 2024, 2:03

Great Guitars / Great Guitars At Charlie's Georgetown

Used drive : HL-DT-STBD-RE WH16NS40 Adapter: 1 ID: 0

Read mode : Secure
Utilize accurate stream : Yes
Defeat audio cache : Yes
Make use of C2 pointers : No

Read offset correction : 6
Overread into Lead-In and Lead-Out : No
Fill up missing offset samples with silence : Yes
Delete leading and trailing silent blocks : No
Null samples used in CRC calculations : Yes
Used interface : Native Win32 interface for Win NT & 2000
Gap handling : Appended to previous track

Used output format : User Defined Encoder
Selected bitrate : 1024 kBit/s
Quality : High
Add ID3 tag : No
Command line compressor : C:\Program Files (x86)\Exact Audio Copy\FLAC\FLAC.EXE
Additional command line options : -8 -V -T "ARTIST=%artist%" -T "TITLE=%title%" -T "ALBUM=%albumtitle%" -T "DATE=%year%" -T "TRACKNUMBER=%tracknr%" -T "GENRE=%genre%" -T "PERFORMER=%albuminterpret%" -T "COMPOSER=%composer%" %haslyrics%–tag-from-file=LYRICS="%lyricsfile%"%haslyrics% -T "ALBUMARTIST=%albumartist%" -T "DISCNUMBER=%cdnumber%" -T "TOTALDISCS=%totalcds%" -T "TOTALTRACKS=%numtracks%" -T "COMMENT=%comment%" %source% -o %dest%


TOC of the extracted CD

Track | Start | Length | Start sector | End sector
––––––––––––––––––––––––––––-
1 | 0:00.00 | 4:37.35 | 0 | 20809
2 | 4:37.35 | 6:46.52 | 20810 | 51311
3 | 11:24.12 | 3:13.50 | 51312 | 65836
4 | 14:37.62 | 3:58.48 | 65837 | 83734
5 | 18:36.35 | 5:48.57 | 83735 | 109891
6 | 24:25.17 | 4:27.53 | 109892 | 129969
7 | 28:52.70 | 4:25.60 | 129970 | 149904
8 | 33:18.55 | 5:55.12 | 149905 | 176541
9 | 39:13.67 | 3:45.73 | 176542 | 193489
10 | 42:59.65 | 5:59.32 | 193490 | 220446


Track 1

Filename C:\EAC Rips\Charlie Byrd, Barney Kessel, Herb Ellis - Great Guitars At Charlie's Georgetown (1983) [FLAC] {CCD-4209}\01 - Where Or When.wav

Pre-gap length 0:00:02.00

Peak level 90.2 %
Extraction speed 4.7 X
Track quality 100.0 %
Test CRC 4A24AF30
Copy CRC 4A24AF30
Accurately ripped (confidence 3) [E426A186] (AR v2)
Copy OK

Track 2

Filename C:\EAC Rips\Charlie Byrd, Barney Kessel, Herb Ellis - Great Guitars At Charlie's Georgetown (1983) [FLAC] {CCD-4209}\02 - New Orleans.wav

Peak level 99.9 %
Extraction speed 4.9 X
Track quality 99.9 %
Test CRC 90AE63FB
Copy CRC 90AE63FB
Accurately ripped (confidence 3) [6373EC82] (AR v2)
Copy OK

Track 3

Filename C:\EAC Rips\Charlie Byrd, Barney Kessel, Herb Ellis - Great Guitars At Charlie's Georgetown (1983) [FLAC] {CCD-4209}\03 - When The Saints Go Marching In.wav

Peak level 99.8 %
Extraction speed 5.6 X
Track quality 100.0 %
Test CRC 544C3E35
Copy CRC 544C3E35
Accurately ripped (confidence 3) [2503BCA1] (AR v2)
Copy OK

Track 4

Filename C:\EAC Rips\Charlie Byrd, Barney Kessel, Herb Ellis - Great Guitars At Charlie's Georgetown (1983) [FLAC] {CCD-4209}\04 - Change Partners.wav

Peak level 75.7 %
Extraction speed 6.1 X
Track quality 100.0 %
Test CRC 3660FC00
Copy CRC 3660FC00
Accurately ripped (confidence 3) [E9DA4C66] (AR v2)
Copy OK

Track 5

Filename C:\EAC Rips\Charlie Byrd, Barney Kessel, Herb Ellis - Great Guitars At Charlie's Georgetown (1983) [FLAC] {CCD-4209}\05 - Pensive.wav

Peak level 77.0 %
Extraction speed 6.8 X
Track quality 100.0 %
Test CRC B7D6D828
Copy CRC B7D6D828
Accurately ripped (confidence 3) [95E940A8] (AR v2)
Copy OK

Track 6

Filename C:\EAC Rips\Charlie Byrd, Barney Kessel, Herb Ellis - Great Guitars At Charlie's Georgetown (1983) [FLAC] {CCD-4209}\06 - Opus One.wav

Peak level 100.0 %
Extraction speed 7.1 X
Track quality 100.0 %
Test CRC 6B72DD0E
Copy CRC 6B72DD0E
Accurately ripped (confidence 3) [F6962C70] (AR v2)
Copy OK

Track 7

Filename C:\EAC Rips\Charlie Byrd, Barney Kessel, Herb Ellis - Great Guitars At Charlie's Georgetown (1983) [FLAC] {CCD-4209}\07 - Old Folks.wav

Peak level 72.0 %
Extraction speed 7.5 X
Track quality 100.0 %
Test CRC DE3F19BC
Copy CRC DE3F19BC
Accurately ripped (confidence 3) [8DDD5DC5] (AR v2)
Copy OK

Track 8

Filename C:\EAC Rips\Charlie Byrd, Barney Kessel, Herb Ellis - Great Guitars At Charlie's Georgetown (1983) [FLAC] {CCD-4209}\08 - Get Happy.wav

Peak level 99.8 %
Extraction speed 8.0 X
Track quality 100.0 %
Test CRC 04CA3A18
Copy CRC 04CA3A18
Accurately ripped (confidence 3) [2233A981] (AR v2)
Copy OK

Track 9

Filename C:\EAC Rips\Charlie Byrd, Barney Kessel, Herb Ellis - Great Guitars At Charlie's Georgetown (1983) [FLAC] {CCD-4209}\09 - Danielle.wav

Peak level 63.2 %
Extraction speed 8.0 X
Track quality 100.0 %
Test CRC 493E706F
Copy CRC 493E706F
Accurately ripped (confidence 3) [D569CFC8] (AR v2)
Copy OK

Track 10

Filename C:\EAC Rips\Charlie Byrd, Barney Kessel, Herb Ellis - Great Guitars At Charlie's Georgetown (1983) [FLAC] {CCD-4209}\10 - Trouble In Mind.wav

Peak level 100.0 %
Extraction speed 8.6 X
Track quality 100.0 %
Test CRC F0AED5F7
Copy CRC F0AED5F7
Accurately ripped (confidence 3) [21C64F29] (AR v2)
Copy OK


All tracks accurately ripped

No errors occurred

End of status report

–– CUETools DB Plugin V2.1.6

[CTDB TOCID: WTxGBcez50oQQHXek6CBPM9tTxA-] found
Submit result: WTxGBcez50oQQHXek6CBPM9tTxA- has been confirmed
Track | CTDB Status
1 | (30/30) Accurately ripped
2 | (30/30) Accurately ripped
3 | (30/30) Accurately ripped
4 | (30/30) Accurately ripped
5 | (30/30) Accurately ripped
6 | (30/30) Accurately ripped
7 | (30/30) Accurately ripped
8 | (30/30) Accurately ripped
9 | (30/30) Accurately ripped
10 | (29/30) Accurately ripped


==== Log checksum 739F5565D952248D17EDC9C87AB96F66BE7E74235031DD14EE22B2057387DED6 ====

[CUETools log; Date: 17.05.2024 13:38:07; Version: 2.1.4]
[CTDB TOCID: WTxGBcez50oQQHXek6CBPM9tTxA-] found.
Track | CTDB Status
1 | (31/31) Accurately ripped
2 | (31/31) Accurately ripped
3 | (31/31) Accurately ripped
4 | (31/31) Accurately ripped
5 | (31/31) Accurately ripped
6 | (31/31) Accurately ripped
7 | (31/31) Accurately ripped
8 | (31/31) Accurately ripped
9 | (31/31) Accurately ripped
10 | (30/31) Accurately ripped
[AccurateRip ID: 00125714-00926721-8d0b7b0a] found.
Track [ CRC | V2 ] Status
01 [cd68c800|e426a186] (02+03/30) Accurately ripped
02 [57126cdf|6373ec82] (02+03/31) Accurately ripped
03 [e671b812|2503bca1] (02+03/31) Accurately ripped
04 [3cb36d0f|e9da4c66] (02+03/31) Accurately ripped
05 [5086a114|95e940a8] (02+03/31) Accurately ripped
06 [a074f82f|f6962c70] (02+03/31) Accurately ripped
07 [bcfd0439|8ddd5dc5] (02+03/31) Accurately ripped
08 [a3b0c8c0|2233a981] (02+03/31) Accurately ripped
09 [dd1450d5|d569cfc8] (02+03/31) Accurately ripped
10 [ba045fef|21c64f29] (02+03/31) Accurately ripped
Offsetted by 2212:
01 [ffb5cbf7] (04/30) Accurately ripped
02 [dbe1f273] (05/31) Accurately ripped
03 [79e1cd2a] (05/31) Accurately ripped
04 [56c2045e] (05/31) Accurately ripped
05 [f6c40368] (05/31) Accurately ripped
06 [0572ed7b] (05/31) Accurately ripped
07 [3b460951] (05/31) Accurately ripped
08 [2ddb896f] (05/31) Accurately ripped
09 [1dbdc094] (05/31) Accurately ripped
10 [4dcd5243] (05/31) Accurately ripped
Offsetted by 2590:
01 [6b037384] (00/30) No match (V2 was not tested)
02 [286ed296] (00/31) No match (V2 was not tested)
03 [c429ebd1] (00/31) No match (V2 was not tested)
04 [9564f2d6] (00/31) No match (V2 was not tested)
05 [784dd89e] (00/31) No match (V2 was not tested)
06 [07935804] (00/31) No match (V2 was not tested)
07 [3868ff9f] (00/31) No match (V2 was not tested)
08 [4963e651] (00/31) No match (V2 was not tested)
09 [1e064d4e] (00/31) No match (V2 was not tested)
10 [b73f022d] (00/31) No match (V2 was not tested)

Track Peak [ CRC32 ] [W/O NULL] [ LOG ]
– 100,0 [F15593B7] [D763E591]
01 90,2 [4A24AF30] [506604D7] CRC32
02 99,9 [90AE63FB] [76E2CAA0] CRC32
03 99,8 [544C3E35] [442AE2F0] CRC32
04 75,7 [3660FC00] [F9F5946F] CRC32
05 77,0 [B7D6D828] [DDA959FE] CRC32
06 100,0 [6B72DD0E] [20D59EBA] CRC32
07 72,0 [DE3F19BC] [8621ABF2] CRC32
08 99,8 [04CA3A18] [8304D2D5] CRC32
09 63,2 [493E706F] [A9A2E28D] CRC32
10 100,0 [F0AED5F7] [317EBCC6] CRC32

Thanks to AudioCloth

See also: