Tags
Language
Tags
June 2024
Su Mo Tu We Th Fr Sa
26 27 28 29 30 31 1
2 3 4 5 6 7 8
9 10 11 12 13 14 15
16 17 18 19 20 21 22
23 24 25 26 27 28 29
30 1 2 3 4 5 6

Chet Baker - 3 Essential Albums (1958-1977) [3CD Box Set] (2017)

Posted By: gribovar
Chet Baker - 3 Essential Albums (1958-1977) [3CD Box Set] (2017)

Chet Baker - 3 Essential Albums (1958-1977) [3CD Box Set] (2017)
EAC Rip | FLAC (tracks+.cue+log) - 907 MB | MP3 CBR 320 kbps (LAME 3.93) - 368 MB | Covers - 9 MB
Genre: Jazz, Bop, Cool Jazz, Vocal Jazz, Fusion | RAR 3% Rec. | Label: Universal Music/Verve (0600753764824)

This three-album collection explores the jazz icon's broad range of interests: "Stan Meets Chet" (1958) is a wholly instrumental collaboration with Stan Getz; "Baby Breeze" (1965) features Chet's vocals and flugelhorn backed by a large ensemble; and "You Can't Go Home Again" (1977) is a fusion classic featuring Michael Brecker, John Scofield, Paul Desmond and some unforgettable performances by drummer Tony Williams.
CD 1 Tracklist (Stan Getz & Chet Baker - Stan Meets Chet (1958)):
01. I'll Remember April
02. Ballad Medley
Autumn In New York
Embraceable You
What's New?
03. Jordu
04. Half-Breed Apache

Total time: 50:19

CD 2 Tracklist (Chet Baker - Baby Breeze (1965)):
01. Baby Breeze
02. Born To Be Blue
03. This Is The Thing
04. I Wish You Love
05. Everything Depends On You
06. One With One
07. Pamela's Passion
08. The Touch Of Your Lips
09. Comin' Down
10. You're Mine, You
11. Sweet Sue, Just You
12. A Taste Of Honey
13. Think Beautiful
14. I Wish You Love (Alt. take)
15. Think Beautiful (Alt. take)

Total time: 01:04:40

CD 3 Tracklist (Chet Baker - You Can't Go Home Again (1977)):
01. Love For Sale
02. Un Poco Loco
03. You Can't Go Home Again
04. El Morro

Total time: 41:51

Exact Audio Copy V1.3 from 2. September 2016

EAC extraction logfile from 21. December 2020, 23:16

Chet Baker / 3 Essential Albums - CD1

Used drive : TSSTcorpCDDVDW SH-224FB Adapter: 1 ID: 0

Read mode : Secure
Utilize accurate stream : Yes
Defeat audio cache : Yes
Make use of C2 pointers : No

Read offset correction : 6
Overread into Lead-In and Lead-Out : No
Fill up missing offset samples with silence : Yes
Delete leading and trailing silent blocks : No
Null samples used in CRC calculations : Yes
Used interface : Native Win32 interface for Win NT & 2000
Gap handling : Appended to previous track

Used output format : User Defined Encoder
Selected bitrate : 128 kBit/s
Quality : High
Add ID3 tag : No
Command line compressor : C:\Program Files (x86)\Exact Audio Copy\Flac\flac.exe
Additional command line options : -V -8 -T "Genre=%genre%" -T "Artist=%artist%" -T "Title=%title%" -T "Album=%albumtitle%" -T "Date=%year%" -T "Tracknumber=%tracknr%" -T "Comment=%comment%" %source%


TOC of the extracted CD

Track | Start | Length | Start sector | End sector
––––––––––––––––––––––––––––-
1 | 0:00.00 | 12:24.12 | 0 | 55811
2 | 12:24.12 | 14:34.33 | 55812 | 121394
3 | 26:58.45 | 8:31.22 | 121395 | 159741
4 | 35:29.67 | 14:49.48 | 159742 | 226464


Track 1

Filename C:\ssagwebster\Chet Baker - 3 Essential Albums (3CD, 2017)\CD1 - Stan Meets Chet\01. I'll Remember April.wav

Pre-gap length 0:00:02.00

Peak level 100.0 %
Extraction speed 2.1 X
Track quality 100.0 %
Test CRC 094100CC
Copy CRC 094100CC
Accurately ripped (confidence 29) [77B64AF4] (AR v2)
Copy OK

Track 2

Filename C:\ssagwebster\Chet Baker - 3 Essential Albums (3CD, 2017)\CD1 - Stan Meets Chet\02. Ballad Medley- Autumn In New York - Embraceable You - What's New.wav

Pre-gap length 0:00:03.55

Peak level 83.9 %
Extraction speed 2.7 X
Track quality 100.0 %
Test CRC 87808F59
Copy CRC 87808F59
Accurately ripped (confidence 29) [7971AA0B] (AR v2)
Copy OK

Track 3

Filename C:\ssagwebster\Chet Baker - 3 Essential Albums (3CD, 2017)\CD1 - Stan Meets Chet\03. Jordu.wav

Pre-gap length 0:00:04.38

Peak level 91.7 %
Extraction speed 2.7 X
Track quality 99.9 %
Test CRC 943E528E
Copy CRC 943E528E
Accurately ripped (confidence 29) [2F8F34B9] (AR v2)
Copy OK

Track 4

Filename C:\ssagwebster\Chet Baker - 3 Essential Albums (3CD, 2017)\CD1 - Stan Meets Chet\04. Half-Breed Apache.wav

Pre-gap length 0:00:03.25

Peak level 90.6 %
Extraction speed 3.5 X
Track quality 100.0 %
Test CRC 14268C4B
Copy CRC 14268C4B
Accurately ripped (confidence 29) [A5A73782] (AR v2)
Copy OK


All tracks accurately ripped

No errors occurred

End of status report

–– CUETools DB Plugin V2.1.6

[CTDB TOCID: zWBZ0Qo55_P7dTd2JnggI0KzUrI-] found
Submit result: zWBZ0Qo55_P7dTd2JnggI0KzUrI- has been confirmed
Track | CTDB Status
1 | (173/173) Accurately ripped
2 | (171/173) Accurately ripped
3 | (172/173) Accurately ripped
4 | (170/173) Accurately ripped


==== Log checksum F293BD16182651A086F51787A01EBF88866B0601CAE085D8A6B296A26878A4D2 ====

[CUETools log; Date: 01.04.2023 19:40:28; Version: 2.1.4]
[CTDB TOCID: zWBZ0Qo55_P7dTd2JnggI0KzUrI-] found.
Track | CTDB Status
1 | (243/243) Accurately ripped
2 | (241/243) Accurately ripped
3 | (242/243) Accurately ripped
4 | (238/243) Accurately ripped
[AccurateRip ID: 000898d6-002249bf-230bcb04] found.
Track [ CRC | V2 ] Status
01 [7f8afb9c|77b64af4] (000+051/106) Accurately ripped
02 [305e346f|7971aa0b] (000+051/104) Accurately ripped
03 [c31abf0a|2f8f34b9] (000+051/106) Accurately ripped
04 [ce38d2fd|a5a73782] (000+051/104) Accurately ripped
Offsetted by -1273:
01 [d1c7a565] (006/106) Accurately ripped
02 [b846f6cc] (006/104) Accurately ripped
03 [b31c289a] (006/106) Accurately ripped
04 [4a68389a] (006/104) Accurately ripped
Offsetted by -1265:
01 [71232add] (008/106) Accurately ripped
02 [6b684aa4] (008/104) Accurately ripped
03 [9308d81a] (008/106) Accurately ripped
04 [c4b32272] (008/104) Accurately ripped
Offsetted by 93:
01 [dc12eb2f] (000/106) No match (V2 was not tested)
02 [f2c1a31e] (000/104) No match (V2 was not tested)
03 [4e3a373a] (000/106) No match (V2 was not tested)
04 [dbdfb16c] (000/104) No match (V2 was not tested)
Offsetted by 664:
01 [2a374184] (000/106) No match (V2 was not tested)
02 [442c6377] (000/104) No match (V2 was not tested)
03 [5cd7a58a] (000/106) No match (V2 was not tested)
04 [7482a405] (000/104) No match (V2 was not tested)

Track Peak [ CRC32 ] [W/O NULL] [ LOG ]
– 100,0 [708ABF95] [610BB867]
01 100,0 [094100CC] [0D1B90DC] CRC32
02 83,9 [87808F59] [42715626] CRC32
03 91,7 [943E528E] [C4D39D51] CRC32
04 90,6 [14268C4B] [6BC4A119] CRC32

Exact Audio Copy V1.3 from 2. September 2016

EAC extraction logfile from 22. December 2020, 19:23

Chet Baker / 3 Essential Albums - CD2

Used drive : TSSTcorpCDDVDW SH-224FB Adapter: 1 ID: 0

Read mode : Secure
Utilize accurate stream : Yes
Defeat audio cache : Yes
Make use of C2 pointers : No

Read offset correction : 6
Overread into Lead-In and Lead-Out : No
Fill up missing offset samples with silence : Yes
Delete leading and trailing silent blocks : No
Null samples used in CRC calculations : Yes
Used interface : Native Win32 interface for Win NT & 2000
Gap handling : Appended to previous track

Used output format : User Defined Encoder
Selected bitrate : 128 kBit/s
Quality : High
Add ID3 tag : No
Command line compressor : C:\Program Files (x86)\Exact Audio Copy\Flac\flac.exe
Additional command line options : -V -8 -T "Genre=%genre%" -T "Artist=%artist%" -T "Title=%title%" -T "Album=%albumtitle%" -T "Date=%year%" -T "Tracknumber=%tracknr%" -T "Comment=%comment%" %source%


TOC of the extracted CD

Track | Start | Length | Start sector | End sector
––––––––––––––––––––––––––––-
1 | 0:00.00 | 3:09.56 | 0 | 14230
2 | 3:09.56 | 4:08.20 | 14231 | 32850
3 | 7:18.01 | 4:57.28 | 32851 | 55153
4 | 12:15.29 | 3:14.67 | 55154 | 69770
5 | 15:30.21 | 3:23.52 | 69771 | 85047
6 | 18:53.73 | 3:47.00 | 85048 | 102072
7 | 22:40.73 | 5:23.30 | 102073 | 126327
8 | 28:04.28 | 2:41.67 | 126328 | 138469
9 | 30:46.20 | 4:30.37 | 138470 | 158756
10 | 35:16.57 | 3:12.24 | 158757 | 173180
11 | 38:29.06 | 2:18.49 | 173181 | 183579
12 | 40:47.55 | 3:01.58 | 183580 | 197212
13 | 43:49.38 | 4:40.17 | 197213 | 218229
14 | 48:29.55 | 3:42.60 | 218230 | 234939
15 | 52:12.40 | 12:27.44 | 234940 | 291008


Track 1

Filename C:\ssagwebster\Chet Baker - 3 Essential Albums (3CD, 2017)\CD2 - Baby Breeze\01. Baby Breeze.wav

Pre-gap length 0:00:02.00

Peak level 99.9 %
Extraction speed 1.7 X
Track quality 100.0 %
Test CRC 278CA825
Copy CRC 278CA825
Accurately ripped (confidence 3) [9DE75813] (AR v2)
Copy OK

Track 2

Filename C:\ssagwebster\Chet Baker - 3 Essential Albums (3CD, 2017)\CD2 - Baby Breeze\02. Born To Be Blue.wav

Peak level 100.0 %
Extraction speed 2.0 X
Track quality 100.0 %
Test CRC F6A02D81
Copy CRC F6A02D81
Accurately ripped (confidence 3) [4AF24602] (AR v2)
Copy OK

Track 3

Filename C:\ssagwebster\Chet Baker - 3 Essential Albums (3CD, 2017)\CD2 - Baby Breeze\03. This Is The Thing.wav

Peak level 99.9 %
Extraction speed 2.2 X
Track quality 100.0 %
Test CRC 5AB2AD5B
Copy CRC 5AB2AD5B
Accurately ripped (confidence 3) [B9FED149] (AR v2)
Copy OK

Track 4

Filename C:\ssagwebster\Chet Baker - 3 Essential Albums (3CD, 2017)\CD2 - Baby Breeze\04. I Wish You Love.wav

Peak level 94.4 %
Extraction speed 1.8 X
Track quality 99.9 %
Test CRC F64CC824
Copy CRC F64CC824
Accurately ripped (confidence 3) [22C2362B] (AR v2)
Copy OK

Track 5

Filename C:\ssagwebster\Chet Baker - 3 Essential Albums (3CD, 2017)\CD2 - Baby Breeze\05. Everything Depends On You.wav

Peak level 91.2 %
Extraction speed 2.4 X
Track quality 100.0 %
Test CRC 9126CAE1
Copy CRC 9126CAE1
Accurately ripped (confidence 3) [89143253] (AR v2)
Copy OK

Track 6

Filename C:\ssagwebster\Chet Baker - 3 Essential Albums (3CD, 2017)\CD2 - Baby Breeze\06. One With One.wav

Peak level 95.6 %
Extraction speed 2.5 X
Track quality 100.0 %
Test CRC 3DE20E76
Copy CRC 3DE20E76
Accurately ripped (confidence 3) [28A4B95F] (AR v2)
Copy OK

Track 7

Filename C:\ssagwebster\Chet Baker - 3 Essential Albums (3CD, 2017)\CD2 - Baby Breeze\07. Pamela's Passion.wav

Peak level 99.9 %
Extraction speed 2.8 X
Track quality 100.0 %
Test CRC 37B4B5E7
Copy CRC 37B4B5E7
Accurately ripped (confidence 3) [582AA735] (AR v2)
Copy OK

Track 8

Filename C:\ssagwebster\Chet Baker - 3 Essential Albums (3CD, 2017)\CD2 - Baby Breeze\08. The Touch Of Your Lips.wav

Peak level 100.0 %
Extraction speed 2.7 X
Track quality 100.0 %
Test CRC 76AD84D0
Copy CRC 76AD84D0
Accurately ripped (confidence 3) [8CE46947] (AR v2)
Copy OK

Track 9

Filename C:\ssagwebster\Chet Baker - 3 Essential Albums (3CD, 2017)\CD2 - Baby Breeze\09. Comin' Down.wav

Peak level 99.9 %
Extraction speed 3.0 X
Track quality 100.0 %
Test CRC 2093D9A0
Copy CRC 2093D9A0
Accurately ripped (confidence 3) [EFE52F82] (AR v2)
Copy OK

Track 10

Filename C:\ssagwebster\Chet Baker - 3 Essential Albums (3CD, 2017)\CD2 - Baby Breeze\10. You're Mine, You.wav

Peak level 100.0 %
Extraction speed 3.0 X
Track quality 100.0 %
Test CRC 06318A25
Copy CRC 06318A25
Accurately ripped (confidence 3) [F3AD551B] (AR v2)
Copy OK

Track 11

Filename C:\ssagwebster\Chet Baker - 3 Essential Albums (3CD, 2017)\CD2 - Baby Breeze\11. Sweet Sue, Just You.wav

Peak level 100.0 %
Extraction speed 2.9 X
Track quality 100.0 %
Test CRC A4B4DE6B
Copy CRC A4B4DE6B
Accurately ripped (confidence 3) [CE1FA02A] (AR v2)
Copy OK

Track 12

Filename C:\ssagwebster\Chet Baker - 3 Essential Albums (3CD, 2017)\CD2 - Baby Breeze\12. A Taste Of Honey.wav

Peak level 98.6 %
Extraction speed 3.1 X
Track quality 100.0 %
Test CRC 225E57E7
Copy CRC 225E57E7
Accurately ripped (confidence 3) [E5DE5BD6] (AR v2)
Copy OK

Track 13

Filename C:\ssagwebster\Chet Baker - 3 Essential Albums (3CD, 2017)\CD2 - Baby Breeze\13. Think Beautiful.wav

Peak level 92.1 %
Extraction speed 3.4 X
Track quality 100.0 %
Test CRC DD5F301E
Copy CRC DD5F301E
Accurately ripped (confidence 3) [EAC5B668] (AR v2)
Copy OK

Track 14

Filename C:\ssagwebster\Chet Baker - 3 Essential Albums (3CD, 2017)\CD2 - Baby Breeze\14. I Wish You Love.wav

Peak level 82.4 %
Extraction speed 3.4 X
Track quality 100.0 %
Test CRC BA912294
Copy CRC BA912294
Accurately ripped (confidence 3) [66AFB6C9] (AR v2)
Copy OK

Track 15

Filename C:\ssagwebster\Chet Baker - 3 Essential Albums (3CD, 2017)\CD2 - Baby Breeze\15. Think Beautiful.wav

Peak level 91.1 %
Extraction speed 4.0 X
Track quality 100.0 %
Test CRC 326930F0
Copy CRC 326930F0
Accurately ripped (confidence 3) [36B8643E] (AR v2)
Copy OK


All tracks accurately ripped

No errors occurred

End of status report

–– CUETools DB Plugin V2.1.6

[CTDB TOCID: 8mh0lfD.RJUnjmVnwP0uS13gONI-] found
Submit result: 8mh0lfD.RJUnjmVnwP0uS13gONI- has been confirmed
Track | CTDB Status
1 | (18/18) Accurately ripped
2 | (18/18) Accurately ripped
3 | (18/18) Accurately ripped
4 | (18/18) Accurately ripped
5 | (18/18) Accurately ripped
6 | (18/18) Accurately ripped
7 | (18/18) Accurately ripped
8 | (18/18) Accurately ripped
9 | (18/18) Accurately ripped
10 | (18/18) Accurately ripped
11 | (18/18) Accurately ripped
12 | (18/18) Accurately ripped
13 | (18/18) Accurately ripped
14 | (18/18) Accurately ripped
15 | (18/18) Accurately ripped


==== Log checksum 17786DD4E39749E5BB7F48641084581486B338B77196388ACA5694FB37C3545E ====

[CUETools log; Date: 01.04.2023 19:41:33; Version: 2.1.4]
[CTDB TOCID: 8mh0lfD.RJUnjmVnwP0uS13gONI-] found.
Track | CTDB Status
1 | (29/29) Accurately ripped
2 | (29/29) Accurately ripped
3 | (29/29) Accurately ripped
4 | (29/29) Accurately ripped
5 | (29/29) Accurately ripped
6 | (29/29) Accurately ripped
7 | (29/29) Accurately ripped
8 | (29/29) Accurately ripped
9 | (29/29) Accurately ripped
10 | (29/29) Accurately ripped
11 | (29/29) Accurately ripped
12 | (29/29) Accurately ripped
13 | (29/29) Accurately ripped
14 | (29/29) Accurately ripped
15 | (29/29) Accurately ripped
[AccurateRip ID: 001fc044-0169383e-be0f280f] found.
Track [ CRC | V2 ] Status
01 [a711a68c|9de75813] (0+7/7) Accurately ripped
02 [6837bf8c|4af24602] (0+7/7) Accurately ripped
03 [e499d5e3|b9fed149] (0+7/7) Accurately ripped
04 [09cf37b0|22c2362b] (0+7/7) Accurately ripped
05 [ff956e4a|89143253] (0+7/7) Accurately ripped
06 [bd23c348|28a4b95f] (0+7/7) Accurately ripped
07 [3fc71d92|582aa735] (0+7/7) Accurately ripped
08 [dfe8598f|8ce46947] (0+7/7) Accurately ripped
09 [5c9fedca|efe52f82] (0+7/7) Accurately ripped
10 [fda9e3bf|f3ad551b] (0+7/7) Accurately ripped
11 [72e16ba8|ce1fa02a] (0+7/7) Accurately ripped
12 [28cf1d08|e5de5bd6] (0+7/7) Accurately ripped
13 [8fcb2f9e|eac5b668] (0+7/7) Accurately ripped
14 [ee01cac4|66afb6c9] (0+7/7) Accurately ripped
15 [9dcc3623|36b8643e] (0+7/7) Accurately ripped

Track Peak [ CRC32 ] [W/O NULL] [ LOG ]
– 99,9 [AAF661FF] [8F8C2052]
01 99,9 [278CA825] [1B12D923] CRC32
02 99,9 [F6A02D81] [BFE3A9F2] CRC32
03 99,9 [5AB2AD5B] [24AC07B1] CRC32
04 94,4 [F64CC824] [D600CB1E] CRC32
05 91,2 [9126CAE1] [D86634DF] CRC32
06 95,6 [3DE20E76] [9D7939D7] CRC32
07 99,9 [37B4B5E7] [A9636280] CRC32
08 99,9 [76AD84D0] [7EE433EB] CRC32
09 99,9 [2093D9A0] [D9C055FD] CRC32
10 99,9 [06318A25] [5EF84987] CRC32
11 99,9 [A4B4DE6B] [E5B4ADF6] CRC32
12 98,6 [225E57E7] [6C41A819] CRC32
13 92,1 [DD5F301E] [3493DCB6] CRC32
14 82,4 [BA912294] [83578E16] CRC32
15 91,1 [326930F0] [99C6A67B] CRC32

Exact Audio Copy V1.3 from 2. September 2016

EAC extraction logfile from 22. December 2020, 21:19

Chet Baker / 3 Essential Albums - CD3

Used drive : TSSTcorpCDDVDW SH-224FB Adapter: 1 ID: 0

Read mode : Secure
Utilize accurate stream : Yes
Defeat audio cache : Yes
Make use of C2 pointers : No

Read offset correction : 6
Overread into Lead-In and Lead-Out : No
Fill up missing offset samples with silence : Yes
Delete leading and trailing silent blocks : No
Null samples used in CRC calculations : Yes
Used interface : Native Win32 interface for Win NT & 2000
Gap handling : Appended to previous track

Used output format : User Defined Encoder
Selected bitrate : 128 kBit/s
Quality : High
Add ID3 tag : No
Command line compressor : C:\Program Files (x86)\Exact Audio Copy\Flac\flac.exe
Additional command line options : -V -8 -T "Genre=%genre%" -T "Artist=%artist%" -T "Title=%title%" -T "Album=%albumtitle%" -T "Date=%year%" -T "Tracknumber=%tracknr%" -T "Comment=%comment%" %source%


TOC of the extracted CD

Track | Start | Length | Start sector | End sector
––––––––––––––––––––––––––––-
1 | 0:00.00 | 13:01.18 | 0 | 58592
2 | 13:01.18 | 9:23.53 | 58593 | 100870
3 | 22:24.71 | 5:47.18 | 100871 | 126913
4 | 28:12.14 | 13:38.62 | 126914 | 188325


Track 1

Filename C:\ssagwebster\Chet Baker - 3 Essential Albums (3CD, 2017)\CD3 - You Can't Go Home Again\01. Love For Sale.wav

Pre-gap length 0:00:02.00

Peak level 93.0 %
Extraction speed 2.1 X
Track quality 100.0 %
Test CRC C01F38DC
Copy CRC C01F38DC
Accurately ripped (confidence 3) [8308FC72] (AR v2)
Copy OK

Track 2

Filename C:\ssagwebster\Chet Baker - 3 Essential Albums (3CD, 2017)\CD3 - You Can't Go Home Again\02. Un Poco Loco.wav

Pre-gap length 0:00:01.74

Peak level 86.8 %
Extraction speed 2.4 X
Track quality 99.9 %
Test CRC 66F9A757
Copy CRC 66F9A757
Accurately ripped (confidence 3) [BD544DD8] (AR v2)
Copy OK

Track 3

Filename C:\ssagwebster\Chet Baker - 3 Essential Albums (3CD, 2017)\CD3 - You Can't Go Home Again\03. You Can't Go Home Again.wav

Pre-gap length 0:00:01.74

Peak level 77.7 %
Extraction speed 2.3 X
Track quality 99.9 %
Test CRC 287CC163
Copy CRC 287CC163
Accurately ripped (confidence 3) [3E21656B] (AR v2)
Copy OK

Track 4

Filename C:\ssagwebster\Chet Baker - 3 Essential Albums (3CD, 2017)\CD3 - You Can't Go Home Again\04. El Morro.wav

Pre-gap length 0:00:01.74

Peak level 83.6 %
Extraction speed 3.2 X
Track quality 100.0 %
Test CRC 6BDE3E00
Copy CRC 6BDE3E00
Accurately ripped (confidence 3) [EB9F5D97] (AR v2)
Copy OK


All tracks accurately ripped

No errors occurred

End of status report

–– CUETools DB Plugin V2.1.6

[CTDB TOCID: hs9WeShUac8Ja54xLoxnpCuw0Fc-] found
Submit result: hs9WeShUac8Ja54xLoxnpCuw0Fc- has been confirmed
Track | CTDB Status
1 | (17/17) Accurately ripped
2 | (17/17) Accurately ripped
3 | (17/17) Accurately ripped
4 | (17/17) Accurately ripped


==== Log checksum C9C61A0E776B27F9B740C0C98069C0993D3791B5BCFF884919F323D9997AFBAD ====

[CUETools log; Date: 01.04.2023 19:42:26; Version: 2.1.4]
[CTDB TOCID: hs9WeShUac8Ja54xLoxnpCuw0Fc-] found.
Track | CTDB Status
1 | (28/28) Accurately ripped
2 | (28/28) Accurately ripped
3 | (28/28) Accurately ripped
4 | (28/28) Accurately ripped
[AccurateRip ID: 00073e50-001c851e-3609cf04] found.
Track [ CRC | V2 ] Status
01 [0324968d|8308fc72] (0+7/7) Accurately ripped
02 [a3269b61|bd544dd8] (0+7/7) Accurately ripped
03 [9240a698|3e21656b] (0+7/7) Accurately ripped
04 [df93e8b0|eb9f5d97] (0+7/7) Accurately ripped

Track Peak [ CRC32 ] [W/O NULL] [ LOG ]
– 93,0 [2484B071] [C33D8CE7]
01 93,0 [C01F38DC] [3EF803A3] CRC32
02 86,8 [66F9A757] [20865626] CRC32
03 77,7 [287CC163] [45031610] CRC32
04 83,6 [6BDE3E00] [2A03259F] CRC32

Thanks to ssagwebster