Tags
Language
Tags

Chiara Banchini, Ensemble 415, Amandine Beyer, Gli Incogniti - Italiane Baroque: Sonatas & Concertos (7CD) (2012)

Posted By: tirexiss
Chiara Banchini, Ensemble 415, Amandine Beyer, Gli Incogniti - Italiane Baroque: Sonatas & Concertos (7CD) (2012)

Chiara Banchini, Ensemble 415, Amandine Beyer, Gli Incogniti - Italiane Baroque: Sonatas & Concertos (7CD) (2012)
EAC | FLAC (image+.cue, log) | Covers Included | 07:19:22 | 2.6 Gb
Genre: Classical | Label: Zig Zag Territoires | Catalog: 316

This set brings together recordings of Italian music by Chiara Banchini and Amandine Beyer. It is symbolic of a filiation between the two artists, Amandine Beyer having succeeded Chiara Banchini as professor of Baroque violin at the Schola Cantorum in Basle, Switzerland. The release follows Amandine Beyer s recording of Bach s Sonatas for solo violin as well as Chiara Banchini s recording of his Sonatas for violin and keyboard, both of which received a Diapason d Or. The set includes the re-release of Vivaldi s Four Seasons by Amandine Beyer.

Chiara Banchini, Ensemble 415, Amandine Beyer, Gli Incogniti - Italiane Baroque: Sonatas & Concertos (7CD) (2012)

Track List:

CD 1:
Giuseppe Valentini (1681-1753):
Concerto No. 11 for 4 violins in A minor, Op. 7
Concerto Grosso No. 7 in G major, Op. 7
Concerto Grosso No. 2 in D minor, Op. 7
Concerto Grosso No. 3 in D minor, Op. 7
Concerto Grosso No. 1 in A major, Op. 7
Concerto Grosso No. 10 in A minor, Op. 7

CD 2:
Francesco Geminiani (1687-1762):
Concerto Grosso (after Op. 5 Sonatas of Corelli)- No. 1 in D Major
Concerto Grosso (after Op. 5 Sonatas of Corelli)- No. 2 in B flat Major
Concerto Grosso (after Op. 5 Sonatas of Corelli)- No. 3 in C Major
Concerto Grosso (after Op. 5 Sonatas of Corelli)- No. 4 in F Major
Concerto Grosso (after Op. 5 Sonatas of Corelli)- No. 5 in G minor
Concerto Grosso (after Op. 5 Sonatas of Corelli)- No. 6 in A Major

CD 3:
Francesco Geminiani (1687-1762):
Concerto Grosso (after Op. 5 Sonatas of Corelli)- No. 7 in D minor
Concerto Grosso (after Op. 5 Sonatas of Corelli)- No. 8 in E minor
Concerto Grosso (after Op. 5 Sonatas of Corelli)- No. 9 in A Major
Concerto Grosso (after Op. 5 Sonatas of Corelli)- No. 10 in F Major
Concerto Grosso (after Op. 5 Sonatas of Corelli)- No. 11 in E Major
Concerto Grosso (after Op. 5 Sonatas of Corelli)- No. 12 in D minor

CD 4:
Nicola Fiorenza (17??-1764):
Concerto for cello, violins & continuo in F major
Nicola Porpora (1686-1768):
Concerto for cello, strings & continuo in G
Leonardo Leo (1694-1744):
Cello Concerto in A major
Nicola Fiorenza (17??-1764):
Concerto for cello, violins & continuo in A minor
Nicola Sabatino (1705-1796):
Solo for cello with 2 violins & continuo in G major

CD 5:
Antonio Vivaldi (1678-1741):
Concerto for 4 violins, cello, strings & continuo in B minor Op. 3/10, RV 580
Concerto for 4 violins, cello, strings & continuo in F major Op. 3/7, RV 567
Concerto for 4 violins, strings & continuo in B flat major, RV 553
Concerto for 3 violins, strings & continuo in F major, RV 551
Concerto for 4 violins, strings & continuo in D major Op. 3/1, RV 549
Concerto for 4 violins, strings & continuo in E minor Op. 3/4

CD 6:
Antonio Vivaldi (1678-1741):
Concerto for 2 violins, cello, strings & continuo in G minor Op. 3-2, RV 578
Violin Concerto, for violin, strings & continuo in B flat major, RV 372
The Four Seasons concerto for violin, strings & continuo Op. 8-1 in E major
The Four Seasons concerto for violin, strings & continuo Op. 8-1 in G minor
The Four Seasons concerto for violin, strings & continuo Op. 8-1 in F major
The Four Seasons concerto for violin, strings & continuo Op. 8-1 in F minor
Violin Concerto, for violin, strings & continuo in B minor, RV 390

CD 7:
Tomaso Albinoni (1671-1751):
Sonata (Sinfonie) à cinque, for violin, 2 violas & continuo No. 2 in C major, Op. 2-3
Sonata (Sinfonie) à cinque, for violin, 2 violas & continuo No. 6 in G minor, Op. 2-11
Sonata (Sinfonie) à cinque, for violin, 2 violas & continuo No. 4 in C minor, Op. 2-7
Sonata (Sinfonie) à cinque, for violin, 2 violas & continuo No. 5 in B flat major, Op. 2-9
Sonata (Sinfonie) à cinque, for violin, 2 violas & continuo No. 1 in G major, Op. 2-1
Sonata (Sinfonie) à cinque, for violin, 2 violas & continuo No. 3 in A major, Op. 2-5

Performers:
Chiara Banchini - violin
Amandine Beyer - violin
Ensemble 415 [on period instruments]
Gli Incogniti [on period instruments]

Exact Audio Copy V1.0 beta 3 from 29. August 2011

EAC extraction logfile from 16. December 2013, 13:06

Chiara Banchini / Various composers - Italiane Baroque - Chiara Banchini, Amandine Beyer (Disc 1)

Used drive : TSSTcorpCDDVDW SH-222BB Adapter: 2 ID: 1

Read mode : Secure
Utilize accurate stream : Yes
Defeat audio cache : Yes
Make use of C2 pointers : No

Read offset correction : 6
Overread into Lead-In and Lead-Out : No
Fill up missing offset samples with silence : Yes
Delete leading and trailing silent blocks : No
Null samples used in CRC calculations : Yes
Used interface : Native Win32 interface for Win NT & 2000

Used output format : User Defined Encoder
Selected bitrate : 1024 kBit/s
Quality : High
Add ID3 tag : No
Command line compressor : C:\Program Files\Exact Audio Copy\Flac\flac.exe
Additional command line options : -8 -V -T "TITLE=%title%" -T "ARTIST=%artist%" -T "ALBUMARTIST=%albumartist%" -T "ALBUM=%albumtitle%" -T "DATE=%year%" -T "TRACKNUMBER=%tracknr%" -T "TRACKTOTAL=%numtracks%" -T "GENRE=%genre%" -T "COMMENT=%comment%" -T "PERFORMER=%albuminterpret%" -T "COMPOSER=%composer%" %source% -o %dest%


TOC of the extracted CD

Track | Start | Length | Start sector | End sector
––––––––––––––––––––––––––––-
1 | 0:00.00 | 3:21.32 | 0 | 15106
2 | 3:21.32 | 5:45.38 | 15107 | 41019
3 | 9:06.70 | 0:45.40 | 41020 | 44434
4 | 9:52.35 | 3:20.10 | 44435 | 59444
5 | 13:12.45 | 1:22.52 | 59445 | 65646
6 | 14:35.22 | 3:09.70 | 65647 | 79891
7 | 17:45.17 | 1:38.48 | 79892 | 87289
8 | 19:23.65 | 2:07.20 | 87290 | 96834
9 | 21:31.10 | 1:53.37 | 96835 | 105346
10 | 23:24.47 | 1:13.70 | 105347 | 110891
11 | 24:38.42 | 1:02.08 | 110892 | 115549
12 | 25:40.50 | 1:37.04 | 115550 | 122828
13 | 27:17.54 | 2:53.48 | 122829 | 135851
14 | 30:11.27 | 0:43.30 | 135852 | 139106
15 | 30:54.57 | 4:26.35 | 139107 | 159091
16 | 35:21.17 | 1:18.05 | 159092 | 164946
17 | 36:39.22 | 2:22.50 | 164947 | 175646
18 | 39:01.72 | 1:46.18 | 175647 | 183614
19 | 40:48.15 | 1:51.42 | 183615 | 191981
20 | 42:39.57 | 1:52.40 | 191982 | 200421
21 | 44:32.22 | 2:11.40 | 200422 | 210286
22 | 46:43.62 | 2:20.47 | 210287 | 220833
23 | 49:04.34 | 3:05.13 | 220834 | 234721
24 | 52:09.47 | 4:18.65 | 234722 | 254136
25 | 56:28.37 | 3:25.60 | 254137 | 269571
26 | 59:54.22 | 1:42.60 | 269572 | 277281
27 | 61:37.07 | 3:34.45 | 277282 | 293376
28 | 65:11.52 | 3:32.33 | 293377 | 309309
29 | 68:44.10 | 2:32.27 | 309310 | 320736
30 | 71:16.37 | 2:03.70 | 320737 | 330031
31 | 73:20.32 | 1:59.25 | 330032 | 338981


Range status and errors

Selected range

Filename G:\Ripped general\[8276] Various composers – Italiane Baroque – Chiara Banchini, Amandine Beyer\cd1\Various composers - Italiane Baroque - Chiara Banchini, Amandine Beyer (Disc 1).wav

Peak level 98.8 %
Extraction speed 8.0 X
Range quality 100.0 %
Test CRC C7C4BB7B
Copy CRC C7C4BB7B
Copy OK

No errors occurred


AccurateRip summary

Track 1 accurately ripped (confidence 2) [10707C02] (AR v2)
Track 2 accurately ripped (confidence 2) [48DEBA49] (AR v2)
Track 3 accurately ripped (confidence 2) [70277381] (AR v2)
Track 4 accurately ripped (confidence 2) [9A3B751C] (AR v2)
Track 5 accurately ripped (confidence 2) [C77BA99B] (AR v2)
Track 6 accurately ripped (confidence 2) [5E6B25B8] (AR v2)
Track 7 accurately ripped (confidence 2) [A561B8B0] (AR v2)
Track 8 accurately ripped (confidence 2) [1E432EB9] (AR v2)
Track 9 accurately ripped (confidence 2) [BD24B0C4] (AR v2)
Track 10 accurately ripped (confidence 2) [32EDC788] (AR v2)
Track 11 accurately ripped (confidence 2) [09B37657] (AR v2)
Track 12 accurately ripped (confidence 2) [1C798306] (AR v2)
Track 13 accurately ripped (confidence 2) [AC11E30A] (AR v2)
Track 14 accurately ripped (confidence 2) [A3A8AF54] (AR v2)
Track 15 accurately ripped (confidence 2) [00A30099] (AR v2)
Track 16 accurately ripped (confidence 2) [8E531B89] (AR v2)
Track 17 accurately ripped (confidence 2) [6D600336] (AR v2)
Track 18 accurately ripped (confidence 2) [963AC428] (AR v2)
Track 19 accurately ripped (confidence 2) [DDBCA090] (AR v2)
Track 20 accurately ripped (confidence 2) [155F44F1] (AR v2)
Track 21 accurately ripped (confidence 2) [094F1C3D] (AR v2)
Track 22 accurately ripped (confidence 2) [B9993BB1] (AR v2)
Track 23 accurately ripped (confidence 2) [AAFA0654] (AR v2)
Track 24 accurately ripped (confidence 2) [4BBEC856] (AR v2)
Track 25 accurately ripped (confidence 2) [73AF9796] (AR v2)
Track 26 accurately ripped (confidence 2) [37C374E0] (AR v2)
Track 27 accurately ripped (confidence 2) [B8A3E025] (AR v2)
Track 28 accurately ripped (confidence 2) [C79C6F8A] (AR v2)
Track 29 accurately ripped (confidence 2) [272E08C5] (AR v2)
Track 30 accurately ripped (confidence 2) [84A0FB05] (AR v2)
Track 31 accurately ripped (confidence 2) [06FE483B] (AR v2)

All tracks accurately ripped

End of status report

Exact Audio Copy V1.0 beta 3 from 29. August 2011

EAC extraction logfile from 16. December 2013, 14:07

Ensemble 415 / Various composers - Italiane Baroque - Chiara Banchini, Amandine Beyer (Disc 2)

Used drive : TSSTcorpCDDVDW SH-222BB Adapter: 2 ID: 1

Read mode : Secure
Utilize accurate stream : Yes
Defeat audio cache : Yes
Make use of C2 pointers : No

Read offset correction : 6
Overread into Lead-In and Lead-Out : No
Fill up missing offset samples with silence : Yes
Delete leading and trailing silent blocks : No
Null samples used in CRC calculations : Yes
Used interface : Native Win32 interface for Win NT & 2000

Used output format : User Defined Encoder
Selected bitrate : 1024 kBit/s
Quality : High
Add ID3 tag : No
Command line compressor : C:\Program Files\Exact Audio Copy\Flac\flac.exe
Additional command line options : -8 -V -T "TITLE=%title%" -T "ARTIST=%artist%" -T "ALBUMARTIST=%albumartist%" -T "ALBUM=%albumtitle%" -T "DATE=%year%" -T "TRACKNUMBER=%tracknr%" -T "TRACKTOTAL=%numtracks%" -T "GENRE=%genre%" -T "COMMENT=%comment%" -T "PERFORMER=%albuminterpret%" -T "COMPOSER=%composer%" %source% -o %dest%


TOC of the extracted CD

Track | Start | Length | Start sector | End sector
––––––––––––––––––––––––––––-
1 | 0:00.00 | 3:18.58 | 0 | 14907
2 | 3:18.58 | 2:17.36 | 14908 | 25218
3 | 5:36.19 | 2:30.13 | 25219 | 36481
4 | 8:06.32 | 1:31.49 | 36482 | 43355
5 | 9:38.06 | 2:25.00 | 43356 | 54230
6 | 12:03.06 | 2:07.13 | 54231 | 63768
7 | 14:10.19 | 1:21.65 | 63769 | 69908
8 | 15:32.09 | 2:33.28 | 69909 | 81411
9 | 18:05.37 | 1:13.17 | 81412 | 86903
10 | 19:18.54 | 2:36.63 | 86904 | 98666
11 | 21:55.42 | 1:56.66 | 98667 | 107432
12 | 23:52.33 | 2:55.21 | 107433 | 120578
13 | 26:47.54 | 2:09.72 | 120579 | 130325
14 | 28:57.51 | 2:25.26 | 130326 | 141226
15 | 31:23.02 | 2:12.12 | 141227 | 151138
16 | 33:35.14 | 1:06.57 | 151139 | 156145
17 | 34:41.71 | 2:27.08 | 156146 | 167178
18 | 37:09.04 | 2:15.26 | 167179 | 177329
19 | 39:24.30 | 3:06.68 | 177330 | 191347
20 | 42:31.23 | 1:48.07 | 191348 | 199454
21 | 44:19.30 | 2:20.51 | 199455 | 210005
22 | 46:40.06 | 1:31.45 | 210006 | 216875
23 | 48:11.51 | 2:35.69 | 216876 | 228569
24 | 50:47.45 | 2:00.57 | 228570 | 237626
25 | 52:48.27 | 2:14.20 | 237627 | 247696
26 | 55:02.47 | 2:04.09 | 247697 | 257005


Range status and errors

Selected range

Filename G:\Ripped general\[8276] Various composers – Italiane Baroque – Chiara Banchini, Amandine Beyer\cd2\Various composers - Italiane Baroque - Chiara Banchini, Amandine Beyer (Disc 2).wav

Peak level 100.0 %
Extraction speed 6.9 X
Range quality 100.0 %
Test CRC 30E2D514
Copy CRC 30E2D514
Copy OK

No errors occurred


AccurateRip summary

Track 1 accurately ripped (confidence 2) [A9016C3A] (AR v2)
Track 2 accurately ripped (confidence 2) [5D4E767D] (AR v2)
Track 3 accurately ripped (confidence 2) [75850713] (AR v2)
Track 4 accurately ripped (confidence 2) [DBA56E3B] (AR v2)
Track 5 accurately ripped (confidence 2) [DDD0E79E] (AR v2)
Track 6 accurately ripped (confidence 2) [92DE2F64] (AR v2)
Track 7 accurately ripped (confidence 2) [424BC146] (AR v2)
Track 8 accurately ripped (confidence 2) [ED342A00] (AR v2)
Track 9 accurately ripped (confidence 2) [5A8B01AD] (AR v2)
Track 10 accurately ripped (confidence 2) [DA47A214] (AR v2)
Track 11 accurately ripped (confidence 2) [43D5006F] (AR v2)
Track 12 accurately ripped (confidence 2) [91702A5F] (AR v2)
Track 13 accurately ripped (confidence 2) [F7957DDF] (AR v2)
Track 14 accurately ripped (confidence 2) [A0D2D299] (AR v2)
Track 15 accurately ripped (confidence 2) [41D3B3E7] (AR v2)
Track 16 accurately ripped (confidence 2) [B57B8059] (AR v2)
Track 17 accurately ripped (confidence 2) [63220029] (AR v2)
Track 18 accurately ripped (confidence 2) [B94056CD] (AR v2)
Track 19 accurately ripped (confidence 2) [E103F5F3] (AR v2)
Track 20 accurately ripped (confidence 2) [6B1C1992] (AR v2)
Track 21 accurately ripped (confidence 2) [86D6BC10] (AR v2)
Track 22 accurately ripped (confidence 2) [87A3EF9B] (AR v2)
Track 23 accurately ripped (confidence 2) [9957CD11] (AR v2)
Track 24 accurately ripped (confidence 2) [D2BBEDED] (AR v2)
Track 25 accurately ripped (confidence 2) [10A8C69E] (AR v2)
Track 26 accurately ripped (confidence 2) [A633709F] (AR v2)

All tracks accurately ripped

End of status report

Exact Audio Copy V1.0 beta 3 from 29. August 2011

EAC extraction logfile from 16. December 2013, 15:52

Ensemble 415 / Various composers - Italiane Baroque - Chiara Banchini, Amandine Beyer (Disc 3)

Used drive : TSSTcorpCDDVDW SH-222BB Adapter: 2 ID: 1

Read mode : Secure
Utilize accurate stream : Yes
Defeat audio cache : Yes
Make use of C2 pointers : No

Read offset correction : 6
Overread into Lead-In and Lead-Out : No
Fill up missing offset samples with silence : Yes
Delete leading and trailing silent blocks : No
Null samples used in CRC calculations : Yes
Used interface : Native Win32 interface for Win NT & 2000

Used output format : User Defined Encoder
Selected bitrate : 1024 kBit/s
Quality : High
Add ID3 tag : No
Command line compressor : C:\Program Files\Exact Audio Copy\Flac\flac.exe
Additional command line options : -8 -V -T "TITLE=%title%" -T "ARTIST=%artist%" -T "ALBUMARTIST=%albumartist%" -T "ALBUM=%albumtitle%" -T "DATE=%year%" -T "TRACKNUMBER=%tracknr%" -T "TRACKTOTAL=%numtracks%" -T "GENRE=%genre%" -T "COMMENT=%comment%" -T "PERFORMER=%albuminterpret%" -T "COMPOSER=%composer%" %source% -o %dest%


TOC of the extracted CD

Track | Start | Length | Start sector | End sector
––––––––––––––––––––––––––––-
1 | 0:00.00 | 2:00.47 | 0 | 9046
2 | 2:00.47 | 2:20.30 | 9047 | 19576
3 | 4:21.02 | 2:03.23 | 19577 | 28824
4 | 6:24.25 | 2:14.65 | 28825 | 38939
5 | 8:39.15 | 3:59.60 | 38940 | 56924
6 | 12:39.00 | 1:53.37 | 56925 | 65436
7 | 14:32.37 | 2:47.03 | 65437 | 77964
8 | 17:19.40 | 2:00.27 | 77965 | 86991
9 | 19:19.67 | 4:11.18 | 86992 | 105834
10 | 23:31.10 | 2:49.65 | 105835 | 118574
11 | 26:21.00 | 0:37.70 | 118575 | 121419
12 | 26:58.70 | 2:26.15 | 121420 | 132384
13 | 29:25.10 | 2:24.17 | 132385 | 143201
14 | 31:49.27 | 2:10.50 | 143202 | 153001
15 | 34:00.02 | 2:33.10 | 153002 | 164486
16 | 36:33.12 | 0:34.63 | 164487 | 167099
17 | 37:08.00 | 2:20.70 | 167100 | 177669
18 | 39:28.70 | 1:57.27 | 177670 | 186471
19 | 41:26.22 | 2:31.15 | 186472 | 197811
20 | 43:57.37 | 0:37.15 | 197812 | 200601
21 | 44:34.52 | 2:04.70 | 200602 | 209971
22 | 46:39.47 | 0:42.48 | 209972 | 213169
23 | 47:22.20 | 11:55.40 | 213170 | 266834


Range status and errors

Selected range

Filename G:\Ripped general\[8276] Various composers – Italiane Baroque – Chiara Banchini, Amandine Beyer\cd3\Various composers - Italiane Baroque - Chiara Banchini, Amandine Beyer (Disc 3).wav

Peak level 99.2 %
Extraction speed 6.8 X
Range quality 100.0 %
Test CRC DD8EF245
Copy CRC DD8EF245
Copy OK

No errors occurred


AccurateRip summary

Track 1 accurately ripped (confidence 2) [B80A09CB] (AR v2)
Track 2 accurately ripped (confidence 2) [379AE25B] (AR v2)
Track 3 accurately ripped (confidence 2) [FFFCB667] (AR v2)
Track 4 accurately ripped (confidence 2) [1B1FF426] (AR v2)
Track 5 accurately ripped (confidence 2) [9E28F8DB] (AR v2)
Track 6 accurately ripped (confidence 2) [AD0AA7A2] (AR v2)
Track 7 accurately ripped (confidence 2) [F4F628F3] (AR v2)
Track 8 accurately ripped (confidence 2) [99155004] (AR v2)
Track 9 accurately ripped (confidence 2) [4AE5791C] (AR v2)
Track 10 accurately ripped (confidence 2) [E57ED061] (AR v2)
Track 11 accurately ripped (confidence 2) [53F91B3D] (AR v2)
Track 12 accurately ripped (confidence 2) [B5639183] (AR v2)
Track 13 accurately ripped (confidence 2) [CF83643A] (AR v2)
Track 14 accurately ripped (confidence 2) [12301EB4] (AR v2)
Track 15 accurately ripped (confidence 2) [9F7C60C2] (AR v2)
Track 16 accurately ripped (confidence 2) [C5106491] (AR v2)
Track 17 accurately ripped (confidence 2) [88EDCC0A] (AR v2)
Track 18 accurately ripped (confidence 2) [E8BA5B54] (AR v2)
Track 19 accurately ripped (confidence 2) [9A474960] (AR v2)
Track 20 accurately ripped (confidence 2) [17CC5ADE] (AR v2)
Track 21 accurately ripped (confidence 2) [755FDF8A] (AR v2)
Track 22 accurately ripped (confidence 2) [40B306D6] (AR v2)
Track 23 accurately ripped (confidence 2) [E267B5A8] (AR v2)

All tracks accurately ripped

End of status report

Exact Audio Copy V1.0 beta 3 from 29. August 2011

EAC extraction logfile from 16. December 2013, 16:19

Gaetano Nasillo / Various composers - Italiane Baroque - Chiara Banchini, Amandine Beyer (Disc 4)

Used drive : TSSTcorpCDDVDW SH-222BB Adapter: 2 ID: 1

Read mode : Secure
Utilize accurate stream : Yes
Defeat audio cache : Yes
Make use of C2 pointers : No

Read offset correction : 6
Overread into Lead-In and Lead-Out : No
Fill up missing offset samples with silence : Yes
Delete leading and trailing silent blocks : No
Null samples used in CRC calculations : Yes
Used interface : Native Win32 interface for Win NT & 2000

Used output format : User Defined Encoder
Selected bitrate : 1024 kBit/s
Quality : High
Add ID3 tag : No
Command line compressor : C:\Program Files\Exact Audio Copy\Flac\flac.exe
Additional command line options : -8 -V -T "TITLE=%title%" -T "ARTIST=%artist%" -T "ALBUMARTIST=%albumartist%" -T "ALBUM=%albumtitle%" -T "DATE=%year%" -T "TRACKNUMBER=%tracknr%" -T "TRACKTOTAL=%numtracks%" -T "GENRE=%genre%" -T "COMMENT=%comment%" -T "PERFORMER=%albuminterpret%" -T "COMPOSER=%composer%" %source% -o %dest%


TOC of the extracted CD

Track | Start | Length | Start sector | End sector
––––––––––––––––––––––––––––-
1 | 0:00.00 | 4:47.29 | 0 | 21553
2 | 4:47.29 | 3:17.55 | 21554 | 36383
3 | 8:05.09 | 2:43.66 | 36384 | 48674
4 | 10:49.00 | 4:30.29 | 48675 | 68953
5 | 15:19.29 | 4:37.07 | 68954 | 89735
6 | 19:56.36 | 5:23.17 | 89736 | 113977
7 | 25:19.53 | 4:05.08 | 113978 | 132360
8 | 29:24.61 | 4:25.32 | 132361 | 152267
9 | 33:50.18 | 3:08.12 | 152268 | 166379
10 | 36:58.30 | 2:57.48 | 166380 | 179702
11 | 39:56.03 | 3:40.31 | 179703 | 196233
12 | 43:36.34 | 2:53.17 | 196234 | 209225
13 | 46:29.51 | 2:34.47 | 209226 | 220822
14 | 49:04.23 | 3:13.34 | 220823 | 235331
15 | 52:17.57 | 1:24.71 | 235332 | 241702
16 | 53:42.53 | 2:42.66 | 241703 | 253918
17 | 56:25.44 | 4:07.37 | 253919 | 272480
18 | 60:33.06 | 3:32.43 | 272481 | 288423
19 | 64:05.49 | 3:02.69 | 288424 | 302142
20 | 67:08.43 | 2:54.49 | 302143 | 315241


Range status and errors

Selected range

Filename G:\Ripped general\[8276] Various composers – Italiane Baroque – Chiara Banchini, Amandine Beyer\cd4\Various composers - Italiane Baroque - Chiara Banchini, Amandine Beyer (Disc 4).wav

Peak level 99.2 %
Extraction speed 8.0 X
Range quality 100.0 %
Test CRC 5C7FDDFF
Copy CRC 5C7FDDFF
Copy OK

No errors occurred


AccurateRip summary

Track 1 accurately ripped (confidence 2) [599736F6] (AR v2)
Track 2 accurately ripped (confidence 1) [41FD9942] (AR v2)
Track 3 accurately ripped (confidence 2) [64DE7154] (AR v2)
Track 4 accurately ripped (confidence 1) [A05B9046] (AR v2)
Track 5 accurately ripped (confidence 2) [0CDC3456] (AR v2)
Track 6 accurately ripped (confidence 2) [11CC02BE] (AR v2)
Track 7 accurately ripped (confidence 2) [50CA96AD] (AR v2)
Track 8 accurately ripped (confidence 2) [3BA8EC62] (AR v2)
Track 9 accurately ripped (confidence 1) [80507B27] (AR v2)
Track 10 accurately ripped (confidence 2) [32B780AC] (AR v2)
Track 11 accurately ripped (confidence 2) [0F5D7C10] (AR v2)
Track 12 accurately ripped (confidence 2) [EC745A36] (AR v2)
Track 13 accurately ripped (confidence 2) [4B48F972] (AR v2)
Track 14 accurately ripped (confidence 1) [30AE0E7B] (AR v2)
Track 15 accurately ripped (confidence 2) [CF32E9BF] (AR v2)
Track 16 accurately ripped (confidence 1) [661D5253] (AR v2)
Track 17 accurately ripped (confidence 1) [7772CEBA] (AR v2)
Track 18 accurately ripped (confidence 2) [1C10E60F] (AR v2)
Track 19 accurately ripped (confidence 2) [EA8DB154] (AR v2)
Track 20 accurately ripped (confidence 1) [59B2BD0C] (AR v2)

All tracks accurately ripped

End of status report

Exact Audio Copy V1.0 beta 3 from 29. August 2011

EAC extraction logfile from 16. December 2013, 16:40

Chiara Banchini / Various composers - Italiane Baroque - Chiara Banchini, Amandine Beyer (Disc 5)

Used drive : TSSTcorpCDDVDW SH-222BB Adapter: 2 ID: 1

Read mode : Secure
Utilize accurate stream : Yes
Defeat audio cache : Yes
Make use of C2 pointers : No

Read offset correction : 6
Overread into Lead-In and Lead-Out : No
Fill up missing offset samples with silence : Yes
Delete leading and trailing silent blocks : No
Null samples used in CRC calculations : Yes
Used interface : Native Win32 interface for Win NT & 2000

Used output format : User Defined Encoder
Selected bitrate : 1024 kBit/s
Quality : High
Add ID3 tag : No
Command line compressor : C:\Program Files\Exact Audio Copy\Flac\flac.exe
Additional command line options : -8 -V -T "TITLE=%title%" -T "ARTIST=%artist%" -T "ALBUMARTIST=%albumartist%" -T "ALBUM=%albumtitle%" -T "DATE=%year%" -T "TRACKNUMBER=%tracknr%" -T "TRACKTOTAL=%numtracks%" -T "GENRE=%genre%" -T "COMMENT=%comment%" -T "PERFORMER=%albuminterpret%" -T "COMPOSER=%composer%" %source% -o %dest%


TOC of the extracted CD

Track | Start | Length | Start sector | End sector
––––––––––––––––––––––––––––-
1 | 0:00.00 | 3:38.46 | 0 | 16395
2 | 3:38.46 | 2:23.64 | 16396 | 27184
3 | 6:02.35 | 3:21.37 | 27185 | 42296
4 | 9:23.72 | 2:35.08 | 42297 | 53929
5 | 11:59.05 | 1:12.11 | 53930 | 59340
6 | 13:11.16 | 2:30.74 | 59341 | 70664
7 | 15:42.15 | 2:07.69 | 70665 | 80258
8 | 17:50.09 | 3:35.01 | 80259 | 96384
9 | 21:25.10 | 2:51.63 | 96385 | 109272
10 | 24:16.73 | 3:48.08 | 109273 | 126380
11 | 28:05.06 | 4:44.09 | 126381 | 147689
12 | 32:49.15 | 2:28.02 | 147690 | 158791
13 | 35:17.17 | 3:01.11 | 158792 | 172377
14 | 38:18.28 | 2:58.37 | 172378 | 185764
15 | 41:16.65 | 2:20.00 | 185765 | 196264
16 | 43:36.65 | 2:27.40 | 196265 | 207329
17 | 46:04.30 | 2:43.46 | 207330 | 219600
18 | 48:48.01 | 2:21.34 | 219601 | 230209
19 | 51:09.35 | 0:36.29 | 230210 | 232938
20 | 51:45.64 | 2:13.30 | 232939 | 242943


Range status and errors

Selected range

Filename G:\Ripped general\[8276] Various composers – Italiane Baroque – Chiara Banchini, Amandine Beyer\cd5\Various composers - Italiane Baroque - Chiara Banchini, Amandine Beyer (Disc 5).wav

Peak level 100.0 %
Extraction speed 6.9 X
Range quality 100.0 %
Test CRC F44D1F92
Copy CRC F44D1F92
Copy OK

No errors occurred


AccurateRip summary

Track 1 accurately ripped (confidence 2) [1C1D706A] (AR v2)
Track 2 accurately ripped (confidence 2) [B730C55B] (AR v2)
Track 3 accurately ripped (confidence 2) [E4032F36] (AR v2)
Track 4 accurately ripped (confidence 2) [737F5FC3] (AR v2)
Track 5 accurately ripped (confidence 2) [16181112] (AR v2)
Track 6 accurately ripped (confidence 2) [273F9416] (AR v2)
Track 7 accurately ripped (confidence 2) [14D0DAA9] (AR v2)
Track 8 accurately ripped (confidence 2) [E1AF40DF] (AR v2)
Track 9 accurately ripped (confidence 2) [1C01E9AE] (AR v2)
Track 10 accurately ripped (confidence 2) [486A8AEC] (AR v2)
Track 11 accurately ripped (confidence 2) [F6137EB0] (AR v2)
Track 12 accurately ripped (confidence 2) [DA4529E2] (AR v2)
Track 13 accurately ripped (confidence 2) [711FA7C0] (AR v2)
Track 14 accurately ripped (confidence 2) [2034EE2E] (AR v2)
Track 15 accurately ripped (confidence 2) [60959DF6] (AR v2)
Track 16 accurately ripped (confidence 2) [29D60D05] (AR v2)
Track 17 accurately ripped (confidence 2) [612EF7CC] (AR v2)
Track 18 accurately ripped (confidence 2) [58B7ED0F] (AR v2)
Track 19 accurately ripped (confidence 2) [B8BAA2DA] (AR v2)
Track 20 accurately ripped (confidence 2) [278C48C1] (AR v2)

All tracks accurately ripped

End of status report

Exact Audio Copy V1.0 beta 3 from 29. August 2011

EAC extraction logfile from 16. December 2013, 17:06

Amandine Beyer / Various composers - Italiane Baroque - Chiara Banchini, Amandine Beyer (Disc 6)

Used drive : TSSTcorpCDDVDW SH-222BB Adapter: 2 ID: 1

Read mode : Secure
Utilize accurate stream : Yes
Defeat audio cache : Yes
Make use of C2 pointers : No

Read offset correction : 6
Overread into Lead-In and Lead-Out : No
Fill up missing offset samples with silence : Yes
Delete leading and trailing silent blocks : No
Null samples used in CRC calculations : Yes
Used interface : Native Win32 interface for Win NT & 2000

Used output format : User Defined Encoder
Selected bitrate : 1024 kBit/s
Quality : High
Add ID3 tag : No
Command line compressor : C:\Program Files\Exact Audio Copy\Flac\flac.exe
Additional command line options : -8 -V -T "TITLE=%title%" -T "ARTIST=%artist%" -T "ALBUMARTIST=%albumartist%" -T "ALBUM=%albumtitle%" -T "DATE=%year%" -T "TRACKNUMBER=%tracknr%" -T "TRACKTOTAL=%numtracks%" -T "GENRE=%genre%" -T "COMMENT=%comment%" -T "PERFORMER=%albuminterpret%" -T "COMPOSER=%composer%" %source% -o %dest%


TOC of the extracted CD

Track | Start | Length | Start sector | End sector
––––––––––––––––––––––––––––-
1 | 0:00.00 | 1:24.74 | 0 | 6373
2 | 1:24.74 | 2:21.31 | 6374 | 16979
3 | 3:46.30 | 2:45.23 | 16980 | 29377
4 | 6:31.53 | 1:57.05 | 29378 | 38157
5 | 8:28.58 | 5:09.09 | 38158 | 61341
6 | 13:37.67 | 3:04.07 | 61342 | 75148
7 | 16:41.74 | 4:13.46 | 75149 | 94169
8 | 20:55.45 | 3:17.74 | 94170 | 109018
9 | 24:13.44 | 2:15.00 | 109019 | 119143
10 | 26:28.44 | 3:34.40 | 119144 | 135233
11 | 30:03.09 | 4:44.28 | 135234 | 156561
12 | 34:47.37 | 1:59.69 | 156562 | 165555
13 | 36:47.31 | 2:41.12 | 165556 | 177642
14 | 39:28.43 | 4:39.08 | 177643 | 198575
15 | 44:07.51 | 3:20.47 | 198576 | 213622
16 | 47:28.23 | 3:01.63 | 213623 | 227260
17 | 50:30.11 | 3:08.55 | 227261 | 241415
18 | 53:38.66 | 1:42.12 | 241416 | 249077
19 | 55:21.03 | 3:01.33 | 249078 | 262685
20 | 58:22.36 | 1:00.29 | 262686 | 267214
21 | 59:22.65 | 5:11.48 | 267215 | 290587
22 | 64:34.38 | 2:27.44 | 290588 | 301656
23 | 67:02.07 | 3:54.42 | 301657 | 319248


Range status and errors

Selected range

Filename G:\Ripped general\[8276] Various composers – Italiane Baroque – Chiara Banchini, Amandine Beyer\cd6\Various composers - Italiane Baroque - Chiara Banchini, Amandine Beyer (Disc 6).wav

Peak level 100.0 %
Extraction speed 8.0 X
Range quality 100.0 %
Test CRC 077FE539
Copy CRC 077FE539
Copy OK

No errors occurred


AccurateRip summary

Track 1 accurately ripped (confidence 2) [BCD5FCDF] (AR v2)
Track 2 accurately ripped (confidence 2) [16676238] (AR v2)
Track 3 accurately ripped (confidence 2) [7E3CD139] (AR v2)
Track 4 accurately ripped (confidence 2) [3090D6EE] (AR v2)
Track 5 accurately ripped (confidence 2) [53C27FF4] (AR v2)
Track 6 accurately ripped (confidence 2) [AC1C6CF0] (AR v2)
Track 7 accurately ripped (confidence 2) [E0E32D6A] (AR v2)
Track 8 accurately ripped (confidence 2) [C2288A2D] (AR v2)
Track 9 accurately ripped (confidence 2) [67DA52C0] (AR v2)
Track 10 accurately ripped (confidence 2) [4CC2586D] (AR v2)
Track 11 accurately ripped (confidence 2) [C948E6CA] (AR v2)
Track 12 accurately ripped (confidence 2) [16233F60] (AR v2)
Track 13 accurately ripped (confidence 2) [F78AC469] (AR v2)
Track 14 accurately ripped (confidence 2) [AECCF546] (AR v2)
Track 15 accurately ripped (confidence 2) [D2B53A1F] (AR v2)
Track 16 accurately ripped (confidence 2) [2A70F4C0] (AR v2)
Track 17 accurately ripped (confidence 2) [E2C155C7] (AR v2)
Track 18 accurately ripped (confidence 2) [CEF7D44F] (AR v2)
Track 19 accurately ripped (confidence 2) [4A8648B2] (AR v2)
Track 20 accurately ripped (confidence 2) [2E576F6C] (AR v2)
Track 21 accurately ripped (confidence 2) [4B81BD6B] (AR v2)
Track 22 accurately ripped (confidence 2) [4CAE77FE] (AR v2)
Track 23 accurately ripped (confidence 2) [D85B1B2B] (AR v2)

All tracks accurately ripped

End of status report

Exact Audio Copy V1.0 beta 3 from 29. August 2011

EAC extraction logfile from 16. December 2013, 17:26

Ensemble 415 / Various composers - Italiane Baroque - Chiara Banchini, Amandine Beyer (Disc 7)

Used drive : TSSTcorpCDDVDW SH-222BB Adapter: 2 ID: 1

Read mode : Secure
Utilize accurate stream : Yes
Defeat audio cache : Yes
Make use of C2 pointers : No

Read offset correction : 6
Overread into Lead-In and Lead-Out : No
Fill up missing offset samples with silence : Yes
Delete leading and trailing silent blocks : No
Null samples used in CRC calculations : Yes
Used interface : Native Win32 interface for Win NT & 2000

Used output format : User Defined Encoder
Selected bitrate : 1024 kBit/s
Quality : High
Add ID3 tag : No
Command line compressor : C:\Program Files\Exact Audio Copy\Flac\flac.exe
Additional command line options : -8 -V -T "TITLE=%title%" -T "ARTIST=%artist%" -T "ALBUMARTIST=%albumartist%" -T "ALBUM=%albumtitle%" -T "DATE=%year%" -T "TRACKNUMBER=%tracknr%" -T "TRACKTOTAL=%numtracks%" -T "GENRE=%genre%" -T "COMMENT=%comment%" -T "PERFORMER=%albuminterpret%" -T "COMPOSER=%composer%" %source% -o %dest%


TOC of the extracted CD

Track | Start | Length | Start sector | End sector
––––––––––––––––––––––––––––-
1 | 0:00.00 | 3:31.15 | 0 | 15839
2 | 3:31.15 | 2:41.53 | 15840 | 27967
3 | 6:12.68 | 2:26.37 | 27968 | 38954
4 | 8:39.30 | 2:12.54 | 38955 | 48908
5 | 10:52.09 | 1:57.68 | 48909 | 57751
6 | 12:50.02 | 2:32.60 | 57752 | 69211
7 | 15:22.62 | 2:07.59 | 69212 | 78795
8 | 17:30.46 | 2:05.32 | 78796 | 88202
9 | 19:36.03 | 2:14.24 | 88203 | 98276
10 | 21:50.27 | 2:05.59 | 98277 | 107710
11 | 23:56.11 | 2:02.01 | 107711 | 116861
12 | 25:58.12 | 2:06.07 | 116862 | 126318
13 | 28:04.19 | 2:38.44 | 126319 | 138212
14 | 30:42.63 | 2:15.16 | 138213 | 148353
15 | 32:58.04 | 1:49.22 | 148354 | 156550
16 | 34:47.26 | 1:49.48 | 156551 | 164773
17 | 36:36.74 | 1:26.22 | 164774 | 171245
18 | 38:03.21 | 2:33.07 | 171246 | 182727
19 | 40:36.28 | 2:17.14 | 182728 | 193016
20 | 42:53.42 | 1:58.68 | 193017 | 201934
21 | 44:52.35 | 2:31.05 | 201935 | 213264
22 | 47:23.40 | 2:13.21 | 213265 | 223260
23 | 49:36.61 | 1:49.65 | 223261 | 231500
24 | 51:26.51 | 2:44.60 | 231501 | 243860


Range status and errors

Selected range

Filename G:\Ripped general\[8276] Various composers – Italiane Baroque – Chiara Banchini, Amandine Beyer\cd7\Various composers - Italiane Baroque - Chiara Banchini, Amandine Beyer (Disc 7).wav

Peak level 95.8 %
Extraction speed 6.8 X
Range quality 100.0 %
Test CRC 22D065C7
Copy CRC 22D065C7
Copy OK

No errors occurred


AccurateRip summary

Track 1 accurately ripped (confidence 2) [942B8BAE] (AR v2)
Track 2 accurately ripped (confidence 2) [E2B70A2D] (AR v2)
Track 3 accurately ripped (confidence 2) [1F1673B0] (AR v2)
Track 4 accurately ripped (confidence 2) [46060DC0] (AR v2)
Track 5 accurately ripped (confidence 2) [95A09D39] (AR v2)
Track 6 accurately ripped (confidence 2) [7F70C203] (AR v2)
Track 7 accurately ripped (confidence 2) [69192F1D] (AR v2)
Track 8 accurately ripped (confidence 2) [A582378E] (AR v2)
Track 9 accurately ripped (confidence 2) [4AB43D0A] (AR v2)
Track 10 accurately ripped (confidence 2) [4840A338] (AR v2)
Track 11 accurately ripped (confidence 2) [CACFE920] (AR v2)
Track 12 accurately ripped (confidence 2) [2F1AB16C] (AR v2)
Track 13 accurately ripped (confidence 2) [0718603C] (AR v2)
Track 14 accurately ripped (confidence 2) [17BC7F42] (AR v2)
Track 15 accurately ripped (confidence 2) [6CE1F98A] (AR v2)
Track 16 accurately ripped (confidence 2) [E4BB7046] (AR v2)
Track 17 accurately ripped (confidence 2) [2DCE630A] (AR v2)
Track 18 accurately ripped (confidence 2) [36E4E802] (AR v2)
Track 19 accurately ripped (confidence 2) [9556FB3B] (AR v2)
Track 20 accurately ripped (confidence 2) [CE8C3717] (AR v2)
Track 21 accurately ripped (confidence 2) [857F67D7] (AR v2)
Track 22 accurately ripped (confidence 2) [10D1FF0E] (AR v2)
Track 23 accurately ripped (confidence 2) [868EEBB8] (AR v2)
Track 24 accurately ripped (confidence 2) [ED4EDEE0] (AR v2)

All tracks accurately ripped

End of status report

Thanks to the Original ripper (unknown)!

Welcome to my blog!

Download: