Subcategories

Chick Corea, Christian McBride, Brian Blade - Trilogy 2 (2018)

Posted By: gribovar
Chick Corea, Christian McBride, Brian Blade - Trilogy 2 (2018)

Chick Corea, Christian McBride, Brian Blade - Trilogy 2 (2018)
EAC Rip | FLAC (tracks+.cue+log) - 732 MB | Covers - 28 MB
Genre: Jazz | RAR 3% Rec. | Label: Concord Jazz (CJA00183), 2019

2013's Trilogy showcased the engaging collaboration between pianist Chick Corea, bassist Christian McBride and drummer Brian Blade. Virtuoso leaders in their own right, Corea, McBride, and Blade found common ground as a trio, exploring a mix of sophisticated standards as well as originals culled from Corea's extensive book. The album cracked the Top Ten of the Billboard Jazz Albums chart and earned two Grammys, including for Best Jazz Instrumental Album. The super-trio's follow-up, 2018's Trilogy 2, features further in-concert performances captured during their various tours between 2010 and 2016 in places like Ottawa, Bologna, Zurich, and St. Louis. Once again, the performances reveal yet more layers to their intuitive, almost psychic interplay. Part of what makes Corea, McBride, and Blade's work together so compelling is how rhythmically kinetic it is. McBride and Blade are both immensely rhythmic, muscular performers who punctuate every phrase and accent with deft articulation. They are a perfect match for Corea, who balances his deeply layered chordal harmonies with ear-popping rhythmic motifs and architectural lines that dance and spin right along with his bandmates. It's a tactile sound that elevates standards like their opening take on "How Deep Is the Ocean" and their swaggeringly loping rendition of Thelonious Monk's "Crepuscule with Nellie." Elsewhere, they offer similarly bewitching versions of Corea's 1968 classic "Now He Sings, Now He Sobs" and an expansive rendition of his 1973 Return to Forever Latin fusion number "500 Miles High." We also get a propulsive reading of Steve Swallow's "Eiderdown," an equally brisk take on Miles Davis' "All Blues," and a vibrant closing interpretation of Billy Strayhorn's "Lotus Blossom."
CD 1 Tracklist:
01. How Deep Is the Ocean
02. 500 Miles High
03. Crepuscule with Nellie
04. Work
05. But Beautiful
06. La Fiesta

Total time: 51:38

CD 2 Tracklist:
01. Eiderdown
02. All Blues
03. Pastime Paradise
04. Now He Sings, Now He Sobs
05. Serenity
06. Lotus Blossom

Total time: 01:05:20

Exact Audio Copy V1.3 from 2. September 2016

EAC extraction logfile from 18. November 2019, 8:45

Chick Corea, Christian McBride & Brian Blade / Trilogy 2

Used drive : PLEXTOR PX-891SAF Adapter: 1 ID: 0

Read mode : Secure
Utilize accurate stream : Yes
Defeat audio cache : Yes
Make use of C2 pointers : No

Read offset correction : 6
Overread into Lead-In and Lead-Out : No
Fill up missing offset samples with silence : Yes
Delete leading and trailing silent blocks : No
Null samples used in CRC calculations : Yes
Used interface : Native Win32 interface for Win NT & 2000
Gap handling : Appended to previous track

Used output format : User Defined Encoder
Selected bitrate : 1024 kBit/s
Quality : High
Add ID3 tag : No
Command line compressor : C:\Program Files (x86)\Exact Audio Copy\Flac\flac.exe
Additional command line options : -8 -V -T "ARTIST=%artist%" -T "TITLE=%title%" -T "ALBUM=%albumtitle%" -T "DATE=%year%" -T "TRACKNUMBER=%tracknr%" -T "GENRE=%genre%" -T "PERFORMER=%albuminterpret%" -T "COMPOSER=%composer%" %haslyrics%–tag-from-file=LYRICS="%lyricsfile%"%haslyrics% -T "ALBUMARTIST=%albumartist%" -T "DISCNUMBER=%cdnumber%" -T "TOTALDISCS=%totalcds%" -T "TOTALTRACKS=%numtracks%" -T "COMMENT=%comment%" %source% -o %dest%


TOC of the extracted CD

Track | Start | Length | Start sector | End sector
––––––––––––––––––––––––––––-
1 | 0:00.00 | 12:48.67 | 0 | 57666
2 | 12:48.67 | 11:02.05 | 57667 | 107321
3 | 23:50.72 | 6:40.29 | 107322 | 137350
4 | 30:31.26 | 4:54.11 | 137351 | 159411
5 | 35:25.37 | 9:01.65 | 159412 | 200051
6 | 44:27.27 | 7:10.44 | 200052 | 232345


Track 1

Filename D:\#EAC new\#wav+flac\Chick Corea, Christian McBride & Brian Blade - Trilogy 2\cd 1\01. Chick Corea, Christian McBride & Brian Blade - How Deep Is The Ocean.wav

Pre-gap length 0:00:02.00

Peak level 100.0 %
Extraction speed 5.8 X
Track quality 99.9 %
Test CRC 12017A51
Copy CRC 12017A51
Track not present in AccurateRip database
Copy OK

Track 2

Filename D:\#EAC new\#wav+flac\Chick Corea, Christian McBride & Brian Blade - Trilogy 2\cd 1\02. Chick Corea, Christian McBride & Brian Blade - 500 Miles High.wav

Peak level 100.0 %
Extraction speed 7.5 X
Track quality 100.0 %
Test CRC 3726A697
Copy CRC 3726A697
Track not present in AccurateRip database
Copy OK

Track 3

Filename D:\#EAC new\#wav+flac\Chick Corea, Christian McBride & Brian Blade - Trilogy 2\cd 1\03. Chick Corea, Christian McBride & Brian Blade - Crepuscule With Nellie.wav

Peak level 100.0 %
Extraction speed 7.1 X
Track quality 99.9 %
Test CRC 3BDA0273
Copy CRC 3BDA0273
Track not present in AccurateRip database
Copy OK

Track 4

Filename D:\#EAC new\#wav+flac\Chick Corea, Christian McBride & Brian Blade - Trilogy 2\cd 1\04. Chick Corea, Christian McBride & Brian Blade - Work.wav

Peak level 100.0 %
Extraction speed 7.0 X
Track quality 99.9 %
Test CRC 46DEF41A
Copy CRC 46DEF41A
Track not present in AccurateRip database
Copy OK

Track 5

Filename D:\#EAC new\#wav+flac\Chick Corea, Christian McBride & Brian Blade - Trilogy 2\cd 1\05. Chick Corea, Christian McBride & Brian Blade - But Beautiful.wav

Peak level 100.0 %
Extraction speed 9.3 X
Track quality 100.0 %
Test CRC A33D6482
Copy CRC A33D6482
Track not present in AccurateRip database
Copy OK

Track 6

Filename D:\#EAC new\#wav+flac\Chick Corea, Christian McBride & Brian Blade - Trilogy 2\cd 1\06. Chick Corea, Christian McBride & Brian Blade - La Fiesta.wav

Peak level 100.0 %
Extraction speed 8.6 X
Track quality 99.9 %
Test CRC 6F47443A
Copy CRC 6F47443A
Track not present in AccurateRip database
Copy OK


None of the tracks are present in the AccurateRip database

No errors occurred

End of status report

–– CUETools DB Plugin V2.1.6

[CTDB TOCID: _35ZdYVm13FXxApVJyjUDiRFz9s-] found
Submit result: _35ZdYVm13FXxApVJyjUDiRFz9s- has been confirmed
Track | CTDB Status
1 | (14/14) Accurately ripped
2 | (14/14) Accurately ripped
3 | (14/14) Accurately ripped
4 | (14/14) Accurately ripped
5 | (14/14) Accurately ripped
6 | (14/14) Accurately ripped


==== Log checksum 55A1929C634DCA662F6CDAD92576AD250467AC34DBA6146FE9F039799D48DC99 ====

[CUETools log; Date: 19.11.2019 0:19:08; Version: 2.1.4]
[CTDB TOCID: _35ZdYVm13FXxApVJyjUDiRFz9s-] found.
Track | CTDB Status
1 | (15/15) Accurately ripped
2 | (15/15) Accurately ripped
3 | (15/15) Accurately ripped
4 | (15/15) Accurately ripped
5 | (15/15) Accurately ripped
6 | (15/15) Accurately ripped
[AccurateRip ID: 000da4c6-004659c3-4c0c1906] disk not present in database.

Track Peak [ CRC32 ] [W/O NULL] [ LOG ]
– 100,0 [91749D64] [0BCF92E0]
01 100,0 [12017A51] [7FAA6304] CRC32
02 100,0 [3726A697] [8EEADEEC] CRC32
03 100,0 [3BDA0273] [62AAC0F7] CRC32
04 100,0 [46DEF41A] [8E13F588] CRC32
05 100,0 [A33D6482] [824A9C33] CRC32
06 100,0 [6F47443A] [BAFF3B6E] CRC32

Exact Audio Copy V1.3 from 2. September 2016

EAC extraction logfile from 18. November 2019, 9:03

Chick Corea, Christian McBride & Brian Blade / Trilogy 2

Used drive : PLEXTOR PX-891SAF Adapter: 1 ID: 0

Read mode : Secure
Utilize accurate stream : Yes
Defeat audio cache : Yes
Make use of C2 pointers : No

Read offset correction : 6
Overread into Lead-In and Lead-Out : No
Fill up missing offset samples with silence : Yes
Delete leading and trailing silent blocks : No
Null samples used in CRC calculations : Yes
Used interface : Native Win32 interface for Win NT & 2000
Gap handling : Appended to previous track

Used output format : User Defined Encoder
Selected bitrate : 1024 kBit/s
Quality : High
Add ID3 tag : No
Command line compressor : C:\Program Files (x86)\Exact Audio Copy\Flac\flac.exe
Additional command line options : -8 -V -T "ARTIST=%artist%" -T "TITLE=%title%" -T "ALBUM=%albumtitle%" -T "DATE=%year%" -T "TRACKNUMBER=%tracknr%" -T "GENRE=%genre%" -T "PERFORMER=%albuminterpret%" -T "COMPOSER=%composer%" %haslyrics%–tag-from-file=LYRICS="%lyricsfile%"%haslyrics% -T "ALBUMARTIST=%albumartist%" -T "DISCNUMBER=%cdnumber%" -T "TOTALDISCS=%totalcds%" -T "TOTALTRACKS=%numtracks%" -T "COMMENT=%comment%" %source% -o %dest%


TOC of the extracted CD

Track | Start | Length | Start sector | End sector
––––––––––––––––––––––––––––-
1 | 0:00.00 | 11:07.71 | 0 | 50095
2 | 11:07.71 | 11:35.09 | 50096 | 102229
3 | 22:43.05 | 8:26.48 | 102230 | 140227
4 | 31:09.53 | 16:18.22 | 140228 | 213599
5 | 47:28.00 | 7:39.56 | 213600 | 248080
6 | 55:07.56 | 10:12.65 | 248081 | 294045


Track 1

Filename D:\#EAC new\#wav+flac\Chick Corea, Christian McBride & Brian Blade - Trilogy 2\cd 2\01. Chick Corea, Christian McBride & Brian Blade - Eiderdown.wav

Pre-gap length 0:00:02.00

Peak level 100.0 %
Extraction speed 5.9 X
Track quality 99.9 %
Test CRC AF7B11B1
Copy CRC AF7B11B1
Accurately ripped (confidence 7) [ED3F59C1] (AR v2)
Copy OK

Track 2

Filename D:\#EAC new\#wav+flac\Chick Corea, Christian McBride & Brian Blade - Trilogy 2\cd 2\02. Chick Corea, Christian McBride & Brian Blade - All Blues.wav

Peak level 100.0 %
Extraction speed 7.7 X
Track quality 100.0 %
Test CRC 84B7E7E4
Copy CRC 84B7E7E4
Accurately ripped (confidence 7) [3EF7178F] (AR v2)
Copy OK

Track 3

Filename D:\#EAC new\#wav+flac\Chick Corea, Christian McBride & Brian Blade - Trilogy 2\cd 2\03. Chick Corea, Christian McBride & Brian Blade - Pastime Paradise.wav

Peak level 100.0 %
Extraction speed 7.6 X
Track quality 99.9 %
Test CRC 1E8BC477
Copy CRC 1E8BC477
Accurately ripped (confidence 7) [B26EE529] (AR v2)
Copy OK

Track 4

Filename D:\#EAC new\#wav+flac\Chick Corea, Christian McBride & Brian Blade - Trilogy 2\cd 2\04. Chick Corea, Christian McBride & Brian Blade - Now He Sings, Now He Sobs.wav

Peak level 100.0 %
Extraction speed 10.0 X
Track quality 100.0 %
Test CRC FC2A9A54
Copy CRC FC2A9A54
Accurately ripped (confidence 7) [40C82876] (AR v2)
Copy OK

Track 5

Filename D:\#EAC new\#wav+flac\Chick Corea, Christian McBride & Brian Blade - Trilogy 2\cd 2\05. Chick Corea, Christian McBride & Brian Blade - Serenity.wav

Peak level 100.0 %
Extraction speed 10.3 X
Track quality 100.0 %
Test CRC F213B436
Copy CRC F213B436
Accurately ripped (confidence 7) [00866505] (AR v2)
Copy OK

Track 6

Filename D:\#EAC new\#wav+flac\Chick Corea, Christian McBride & Brian Blade - Trilogy 2\cd 2\06. Chick Corea, Christian McBride & Brian Blade - Lotus Blossom.wav

Peak level 100.0 %
Extraction speed 9.7 X
Track quality 99.9 %
Test CRC C02AABCD
Copy CRC C02AABCD
Accurately ripped (confidence 7) [5A1D7579] (AR v2)
Copy OK


All tracks accurately ripped

No errors occurred

End of status report

–– CUETools DB Plugin V2.1.6

[CTDB TOCID: 0nmuLIcIcUKcgDzuXiAaxCOp4Sw-] found
Submit result: 0nmuLIcIcUKcgDzuXiAaxCOp4Sw- has been confirmed
Track | CTDB Status
1 | (44/44) Accurately ripped
2 | (44/44) Accurately ripped
3 | (44/44) Accurately ripped
4 | (43/44) Accurately ripped
5 | (43/44) Accurately ripped
6 | (43/44) Accurately ripped


==== Log checksum B5660874B7712B112689DAFD424B41F7055E7FBCC45E27D554839AD31D3B5C44 ====

[CUETools log; Date: 19.11.2019 0:19:51; Version: 2.1.4]
[CTDB TOCID: 0nmuLIcIcUKcgDzuXiAaxCOp4Sw-] found.
Track | CTDB Status
1 | (45/45) Accurately ripped
2 | (45/45) Accurately ripped
3 | (45/45) Accurately ripped
4 | (44/45) Accurately ripped
5 | (44/45) Accurately ripped
6 | (44/45) Accurately ripped
[AccurateRip ID: 000ffed9-00552f0b-550f5006] found.
Track [ CRC | V2 ] Status
01 [345d4295|ed3f59c1] (0+7/7) Accurately ripped
02 [39492b25|3ef7178f] (0+7/7) Accurately ripped
03 [225262f9|b26ee529] (0+7/7) Accurately ripped
04 [b3d6e388|40c82876] (0+7/7) Accurately ripped
05 [159122a9|00866505] (0+7/7) Accurately ripped
06 [51164964|5a1d7579] (0+7/7) Accurately ripped

Track Peak [ CRC32 ] [W/O NULL] [ LOG ]
– 100,0 [C8F5E3A2] [1F102940]
01 100,0 [AF7B11B1] [82E0EBBE] CRC32
02 100,0 [84B7E7E4] [F3A2AFFD] CRC32
03 100,0 [1E8BC477] [F4BC85F1] CRC32
04 100,0 [FC2A9A54] [0018A420] CRC32
05 100,0 [F213B436] [BD091642] CRC32
06 100,0 [C02AABCD] [E3BD2487] CRC32

Thanks to the original releaser

See also: