Tags
Language
Tags

Chris Isaak: CD Colection (1987 - 2002)

Posted By: v3122
Chris Isaak: CD Colection (1987 - 2002)

Chris Isaak: CD Colection (1987 - 2002)
EAC | Flac(Image) + Cue + Log & MP3 CBR 320Kbps
4CD | Label: Various | ~ 1041 or 375 Mb | Scans & Covers
Blues Rock / Southern Rock / Pop Rock

~ Chris Isaak 1987, Silvertone 1987, Baja Sessions 1996 & Always Got Tonight 2002. ~

Songwriter Chris Isaak clearly loves the reverb-laden rockabilly and country of Sun Studios. In particular, he transfers the sweeping melancholy of Roy Orbison's classic Monument singles ("Crying," "Oh, Pretty Woman," "In Dreams") to the more stripped-down, rootsy sound of Sun, resulting in a stylized take on '50s and '60s rock & roll that made him into a star in the early '90s, propelled to a great degree by the hit single "Wicked Game."

Isaak began performing after he graduated from college, forming the rockabilly band Silvertone. The group, which featured guitarist James Calvin Wilsey, bassist Rowland Salley, and drummer Kenney Dale Johnson, would become the singer/guitarist's permanent supporting band. Isaak released his first album, Silvertone, on Warner Bros. in 1985. It was critically well received yet failed to sell well. Two years later, he released the self-titled Chris Isaak, which managed to scrape into the Top 200 album charts. After its release, the singer began an acting career with a bit part in Jonathan Demme's 1988 film Married to the Mob; he would later have parts in Wild at Heart, The Silence of the Lambs, and A Dirty Shame, as well as starring in his own situation comedy series for the Showtime cable network.

Released in 1989, Heart Shaped World initially sold more than Chris Isaak, yet it didn't manage to break big until late 1990, when the single "Wicked Game" was featured in David Lynch's Wild at Heart. Soon, the single became a Top Ten hit; the album also made it into the Top Ten and sold over a million copies. Both 1993's San Francisco Days and 1995's Forever Blue mined essentially the same vein as Heart Shaped World, yet both went gold and spawned a handful of hits. In 1996, Isaak released The Baja Sessions; Speak of the Devil followed two years later.

Isaak's busy touring schedule and growing visibility as an actor kept him out of the recording studio until 2002, when he released Always Got Tonight, though in 2004 he did find time to cut his first seasonal album, Chris Isaak Christmas, which featured five new Yuletide tunes along with a batch of holiday favorites.

The musician once again flexed his TV muscles in 2009 with The Chris Isaak Hour, whose debut on the Biography Channel was promoted in part by Mr. Lucky, his first album of original material in seven years. A year later he released the concert album Live at the Fillmore. In 2011, Isaak paid tribute to the classic '50s rockabilly and country music produced by the legendary Sam Phillips at Memphis' Sun Records with his album Beyond the Sun. Recorded at Sun Studios, Isaak delivered cuts originally recorded by such artists as Elvis Presley, Johnny Cash, Jerry Lee Lewis, Carl Perkins, and others.

In 2015, Isaak signed on as a judge on the seventh season of The X Factor Australia. Also that year, he returned with his 13th full-length album, First Comes the Night. Recorded in Nashville with longtime producer Mark Needham, the album also included production from Paul Worley (Dixie Chicks, Lady Antebellum) and Dave Cobb (Jason Isbell).

by Stephen Thomas Erlewine, allmusic
Chris Isaak: CD Colection (1987 - 2002):

Chris Isaak: CD Colection (1987 - 2002)

Tracklist CD1 - 1987 - Chris Isaak:
Warner Bros., 9 25536-2

1. "You Owe Me Some Kind of Love" – 3:51
2. "Heart Full of Soul" – 3:20
3. "Blue Hotel" – 3:10
4. "Lie to Me" – 4:12
5. "Fade Away" – 4:15
6. "Wild Love" – 2:57
7. "This Love Will Last" – 2:45
8. "You Took My Heart" – 2:31
9. "Cryin'" – 2:30
10. "Lovers Game" – 2:55
11. "Waiting for the Rain to Fall" – 3:39

Exact Audio Copy V0.99 prebeta 4 from 23. January 2008

Отчёт EAC об извлечении, выполненном 10. июня 2008, 16:55

Chris Isaak / Chris Isaak

Дисковод: _NEC DVD_RW ND-4550A Adapter: 3 ID: 0

Режим чтения : Достоверность
Использование точного потока : Да
Отключение кэша аудио : Да
Использование указателей C2 : Нет

Коррекция смещения при чтении : 48
Способность читать области Lead-in и Lead-out : Нет
Заполнение пропущенных сэмплов тишиной : Да
Удаление блоков с тишиной в начале и конце : Нет
При вычислениях CRC использовались нулевые сэмплы : Да
Интерфейс : Встроенный Win32-интерфейс для Win NT/2000

Выходной формат : Monkey's Audio (без потерь)
Выбранный битрейт : Normal Lossless Compression
Качество : Высокий
Добавление ID3-тэга : Нет
Утилита сжатия : C:\Program Files\Monkey's Audio\MAC.exe
Дополнительные параметры : -v
Смещение при сжатии : 0


TOC извлечённого CD

Трек | Старт | Длительность | Начальный сектор | Конечный сектор
––––––––––––––––––––––––––––––––––-
1 | 0:00.00 | 3:54.07 | 0 | 17556
2 | 3:54.07 | 3:21.28 | 17557 | 32659
3 | 7:15.35 | 3:13.50 | 32660 | 47184
4 | 10:29.10 | 4:14.70 | 47185 | 66304
5 | 14:44.05 | 4:17.02 | 66305 | 85581
6 | 19:01.07 | 2:56.42 | 85582 | 98823
7 | 21:57.49 | 2:46.57 | 98824 | 111330
8 | 24:44.31 | 2:32.22 | 111331 | 122752
9 | 27:16.53 | 2:32.18 | 122753 | 134170
10 | 29:48.71 | 2:55.43 | 134171 | 147338
11 | 32:44.39 | 3:39.43 | 147339 | 163806


Характеристики диапазона извлечения и сообщения об ошибках

Выбранный диапазон

Имя файла E:\Моя Музыка\EAC.ape\Chris Isaak[torrents.ru]\Chris Isaak - Chris Isaak.wav

Пиковый уровень 97.7 %
Качество диапазона 100.0 %
CRC копии 7E0ADBC5
Копирование… OK

Ошибок не произошло

Конец отчёта


[CUETools log; Date: 15.01.2018 11:50:17; Version: 2.1.5]
Truncated 4608 extra samples in some input files.
[AccurateRip ID: 000fadba-00860158-9e08880b] disk not present in database.

Track Peak [ CRC32 ] [W/O NULL] [ LOG ]
– 97,7 [7E0ADBC5] [A463E01C] CRC32
01 97,7 [A3A93CA7] [39A94378]
02 97,7 [5A2A1847] [F671735F]
03 96,4 [09AB05D8] [B00BA689]
04 97,7 [C4632FEE] [6AF957BC]
05 97,7 [4DD16666] [EE62FFB0]
06 90,8 [CD7AC838] [425DAD27]
07 91,5 [5732618F] [08677088]
08 89,7 [C5436193] [ABCD4171]
09 97,6 [6C70C08F] [5DE893AB]
10 97,7 [DA64AB2A] [5753B640]
11 67,3 [798B343D] [AB652288]


Chris Isaak: CD Colection (1987 - 2002)

Tracklist CD2 - 1987 - Silvertone:
Warner Bros., 7599-25156-2

1. Dancin' 3:45
2. Talk To Me 3:08
3. Livin' For Your Lover 2:56
4. Back On Your Side 3:15
5. Voodoo 2:41
6. Funeral In The Rain 3:23
7. The Lonely Ones 3:15
8. Unhappiness 3:09
9. Tears 2:47
10. Gone Ridin' 2:38
11. Pretty Girls Don't Cry 2:25
12. Western Stars 3:11

Exact Audio Copy V0.99 prebeta 4 from 23. January 2008

EAC extraction logfile from 15. March 2008, 13:39

Chris Isaak / Silvertone

Used drive : PIONEER DVD-RW DVR-112D Adapter: 0 ID: 1

Read mode : Secure
Utilize accurate stream : Yes
Defeat audio cache : Yes
Make use of C2 pointers : No

Read offset correction : 48
Overread into Lead-In and Lead-Out : No
Fill up missing offset samples with silence : Yes
Delete leading and trailing silent blocks : No
Null samples used in CRC calculations : Yes
Used interface : Installed external ASPI interface
Gap handling : Appended to previous track

Used output format : User Defined Encoder
Selected bitrate : 128 kBit/s
Quality : High
Add ID3 tag : No
Command line compressor : C:\Program Files\FLAC\flac.exe
Additional command line options : -8 -V -T "ARTIST=%a" -T "TITLE=%t" -T "ALBUM=%g" -T "DATE=%y" -T "TRACKNUMBER=%n" -T "GENRE=%m" -T "COMMENT=EAC FLAC -8" %s


TOC of the extracted CD

Track | Start | Length | Start sector | End sector
––––––––––––––––––––––––––––-
1 | 0:00.00 | 3:45.50 | 0 | 16924
2 | 3:45.50 | 3:08.67 | 16925 | 31091
3 | 6:54.42 | 2:56.58 | 31092 | 44349
4 | 9:51.25 | 3:15.72 | 44350 | 59046
5 | 13:07.22 | 2:41.68 | 59047 | 71189
6 | 15:49.15 | 3:23.25 | 71190 | 86439
7 | 19:12.40 | 3:15.15 | 86440 | 101079
8 | 22:27.55 | 3:09.22 | 101080 | 115276
9 | 25:37.02 | 2:47.43 | 115277 | 127844
10 | 28:24.45 | 2:38.70 | 127845 | 139764
11 | 31:03.40 | 2:25.72 | 139765 | 150711
12 | 33:29.37 | 3:11.33 | 150712 | 165069


Track 1

Filename R:\01 - Dancin'.wav

Pre-gap length 0:00:02.00

Peak level 76.9 %
Track quality 100.0 %
Test CRC ABB54D58
Copy CRC ABB54D58
Accurately ripped (confidence 5) [023517C0]
Copy OK

Track 2

Filename R:\02 - Talk To Me.wav

Pre-gap length 0:00:01.46

Peak level 77.9 %
Track quality 100.0 %
Test CRC A0F68B20
Copy CRC A0F68B20
Accurately ripped (confidence 5) [EC2D141B]
Copy OK

Track 3

Filename R:\03 - Livin' For Your Lover.wav

Pre-gap length 0:00:01.57

Peak level 77.6 %
Track quality 100.0 %
Test CRC D6B47635
Copy CRC D6B47635
Accurately ripped (confidence 5) [4DF8FAD6]
Copy OK

Track 4

Filename R:\04 - Back On Your Side.wav

Pre-gap length 0:00:03.05

Peak level 72.0 %
Track quality 100.0 %
Test CRC 27AA8A9D
Copy CRC 27AA8A9D
Accurately ripped (confidence 5) [CCCFBBD2]
Copy OK

Track 5

Filename R:\05 - Voodoo.wav

Pre-gap length 0:00:01.82

Peak level 69.9 %
Track quality 100.0 %
Test CRC 57B47B87
Copy CRC 57B47B87
Accurately ripped (confidence 5) [EAC0B1A4]
Copy OK

Track 6

Filename R:\06 - Funeral In The Rain.wav

Pre-gap length 0:00:01.20

Peak level 59.7 %
Track quality 100.0 %
Test CRC A416F0CF
Copy CRC A416F0CF
Accurately ripped (confidence 5) [0589F587]
Copy OK

Track 7

Filename R:\07 - The Lonely Ones.wav

Pre-gap length 0:00:02.84

Peak level 72.8 %
Track quality 100.0 %
Test CRC B6D2CAC8
Copy CRC B6D2CAC8
Accurately ripped (confidence 5) [E5B5D03D]
Copy OK

Track 8

Filename R:\08 - Unhappiness.wav

Pre-gap length 0:00:02.92

Peak level 70.9 %
Track quality 100.0 %
Test CRC 0F259B21
Copy CRC 0F259B21
Accurately ripped (confidence 5) [14324236]
Copy OK

Track 9

Filename R:\09 - Tears.wav

Pre-gap length 0:00:01.88

Peak level 61.7 %
Track quality 100.0 %
Test CRC E485F22E
Copy CRC E485F22E
Accurately ripped (confidence 5) [603ED04A]
Copy OK

Track 10

Filename R:\10 - Gone Ridin'.wav

Pre-gap length 0:00:02.72

Peak level 73.4 %
Track quality 100.0 %
Test CRC BBC02ECD
Copy CRC BBC02ECD
Accurately ripped (confidence 5) [83EABA12]
Copy OK

Track 11

Filename R:\11 - Pretty Girls Don't Cry.wav

Pre-gap length 0:00:01.32

Peak level 73.7 %
Track quality 100.0 %
Test CRC 0B3CA089
Copy CRC 0B3CA089
Accurately ripped (confidence 5) [41C31925]
Copy OK

Track 12

Filename R:\12 - Western Stars.wav

Pre-gap length 0:00:01.48

Peak level 71.0 %
Track quality 100.0 %
Test CRC 39E2B432
Copy CRC 39E2B432
Accurately ripped (confidence 5) [D9C344B1]
Copy OK


All tracks accurately ripped

No errors occurred

End of status report


[CUETools log; Date: 15.01.2018 11:48:10; Version: 2.1.5]
[AccurateRip ID: 0010eb39-009c60f2-a408980c] found.
Track [ CRC | V2 ] Status
01 [023517c0|daf7cc57] (022+042/145) Accurately ripped
02 [ec2d141b|3da01a55] (023+042/146) Accurately ripped
03 [4df8fad6|b31457cf] (023+043/146) Accurately ripped
04 [cccfbbd2|8eb39cdc] (023+042/147) Accurately ripped
05 [eac0b1a4|d19d136b] (023+043/146) Accurately ripped
06 [0589f587|9f5fe4f8] (023+043/145) Accurately ripped
07 [e5b5d03d|f04b06b9] (022+043/145) Accurately ripped
08 [14324236|f99745af] (023+042/145) Accurately ripped
09 [603ed04a|0f735d56] (023+041/143) Accurately ripped
10 [83eaba12|ba864307] (023+041/144) Accurately ripped
11 [41c31925|8b2ef321] (023+042/144) Accurately ripped
12 [d9c344b1|ee4c90ed] (022+043/145) Accurately ripped
Offsetted by -167:
01 [f1df0af1] (005/145) Accurately ripped
02 [5d909203] (005/146) Accurately ripped
03 [47bd811f] (005/146) Accurately ripped
04 [28853037] (005/147) Accurately ripped
05 [2ba3c3fd] (005/146) Accurately ripped
06 [d487b902] (005/145) Accurately ripped
07 [5989b622] (005/145) Accurately ripped
08 [9f5df32d] (005/145) Accurately ripped
09 [8324a64c] (005/143) Accurately ripped
10 [f829dac8] (005/144) Accurately ripped
11 [f0267ed6] (005/144) Accurately ripped
12 [2e42d811] (005/145) Accurately ripped
Offsetted by 497:
01 [53be810c] (029/145) Accurately ripped
02 [186d39c3] (029/146) Accurately ripped
03 [f2262637] (029/146) Accurately ripped
04 [2a40beef] (030/147) Accurately ripped
05 [bb464e95] (028/146) Accurately ripped
06 [ebb3df4a] (028/145) Accurately ripped
07 [13e648da] (029/145) Accurately ripped
08 [38b34c15] (029/145) Accurately ripped
09 [4e3b6efc] (028/143) Accurately ripped
10 [85f00158] (029/144) Accurately ripped
11 [223f4fae] (029/144) Accurately ripped
12 [f08a801a] (029/145) Accurately ripped

Track Peak [ CRC32 ] [W/O NULL] [ LOG ]
– 77,9 [01FE6944] [731414EA]
01 76,9 [ABB54D58] [59FEE95D] CRC32
02 77,9 [A0F68B20] [0610D965] CRC32
03 77,6 [D6B47635] [A800E829] CRC32
04 72,0 [27AA8A9D] [FAAA8622] CRC32
05 69,9 [57B47B87] [B58D575C] CRC32
06 59,7 [A416F0CF] [04536A91] CRC32
07 72,8 [B6D2CAC8] [EB43B295] CRC32
08 70,9 [0F259B21] [F771A639] CRC32
09 61,7 [E485F22E] [5AA660C9] CRC32
10 73,4 [BBC02ECD] [6D36BAD0] CRC32
11 73,7 [0B3CA089] [0FA1A9A8] CRC32
12 71,0 [39E2B432] [223F070D] CRC32


Chris Isaak: CD Colection (1987 - 2002)

Tracklist CD3 - 1996 - Baja Sessions:
Warner Music, 9362-46325-2

1. Pretty Girls Don't Cry 3:08
2. Back On Your Side 3:03
3. Only The Lonely 2:53
4. South Of The Border ( Down Mexico Way ) 3:10
5. I Wonder 2:55
6. Wrong To Love You 3:55
7. Waiting For My Lucky Day 2:38
8. Yellow Bird 2:29
9. Two Hearts 3:19
10. Return To Me 2:17
11. Dancin' 3:57
12. Sweet Leilani 2:16
13. Think Of Tomorrow 2:58

Exact Audio Copy V0.99 prebeta 1 from 25. May 2007

Отчёт EAC об извлечении, выполненном 22. мая 2010, 15:01

Chris Isaak / Baja Sessions

Дисковод: hp DVDRAM GT20L Adapter: 1 ID: 0

Режим чтения : Достоверность
Использование точного потока : Да
Отключение кэша аудио : Да
Использование указателей C2 : Нет

Коррекция смещения при чтении : 667
Способность читать области Lead-in и Lead-out : Нет
Заполнение пропущенных сэмплов тишиной : Да
Удаление блоков с тишиной в начале и конце : Нет
Интерфейс : Встроенный Win32-интерфейс для Win NT/2000

Выходной формат : Пользовательский кодировщик
Выбранный битрейт : 768 kBit/s
Качество : Высокий
Добавление ID3-тэга : Нет
Утилита сжатия : C:\Program Files (x86)\Exact Audio Copy\FLAC\FLAC.EXE
Дополнительные параметры : -6 -V -T "ARTIST=%a" -T "TITLE=%t" -T "ALBUM=%g" -T "DATE=%y" -T "TRACKNUMBER=%n" -T "GENRE=%m" -T "COMMENT=%e" %s -o %d


TOC извлечённого CD

Трек | Старт | Длительность | Начальный сектор | Конечный сектор
––––––––––––––––––––––––––––––––––-
1 | 0:00.00 | 3:09.45 | 0 | 14219
2 | 3:09.45 | 3:03.62 | 14220 | 28006
3 | 6:13.32 | 2:53.43 | 28007 | 41024
4 | 9:07.00 | 3:10.12 | 41025 | 55286
5 | 12:17.12 | 2:55.55 | 55287 | 68466
6 | 15:12.67 | 3:55.03 | 68467 | 86094
7 | 19:07.70 | 2:38.17 | 86095 | 97961
8 | 21:46.12 | 2:29.20 | 97962 | 109156
9 | 24:15.32 | 3:19.03 | 109157 | 124084
10 | 27:34.35 | 2:17.17 | 124085 | 134376
11 | 29:51.52 | 3:57.13 | 134377 | 152164
12 | 33:48.65 | 2:16.65 | 152165 | 162429
13 | 36:05.55 | 2:57.52 | 162430 | 175756


Характеристики диапазона извлечения и сообщения об ошибках

Выбранный диапазон

Имя файла C:\Users\Дружинина Наталья\Downloads\Chris Isaak - Baja Sessions - 1996\Chris Isaak - Baja Sessions.wav

Пиковый уровень 98.8 %
Качество диапазона 99.9 %
CRC теста A19CD398
CRC копии A19CD398
Копирование… OK


AccurateRip: сводка

Трек 1 точное извлечение (доверие 39) [11996B35]
Трек 2 точное извлечение (доверие 39) [D8486E8F]
Трек 3 точное извлечение (доверие 39) [93727A40]
Трек 4 точное извлечение (доверие 38) [4E7D5621]
Трек 5 точное извлечение (доверие 38) [C9F732F1]
Трек 6 точное извлечение (доверие 39) [FFC98E1E]
Трек 7 точное извлечение (доверие 39) [ADBF4791]
Трек 8 точное извлечение (доверие 39) [0D5F2A1D]
Трек 9 точное извлечение (доверие 39) [5F1D41F1]
Трек 10 точное извлечение (доверие 39) [0E39CAE5]
Трек 11 точное извлечение (доверие 38) [9ECFAF85]
Трек 12 точное извлечение (доверие 39) [AF922597]
Трек 13 точное извлечение (доверие 39) [837BBD28]

Ошибок не произошло

Конец отчёта


[CUETools log; Date: 15.01.2018 13:13:17; Version: 2.1.5]
HDCD: peak extend: none, transient filter: none, gain: -4,0dB..0,0dB
[CTDB TOCID: T32WWO.yYwsaYUzMYgInFmg9Yhc-] found.
Track | CTDB Status
1 | (113/114) Accurately ripped
2 | (111/114) Accurately ripped
3 | (112/114) Accurately ripped
4 | (113/114) Accurately ripped
5 | (113/114) Accurately ripped
6 | (112/114) Accurately ripped
7 | (112/114) Accurately ripped
8 | (113/114) Accurately ripped
9 | (112/114) Accurately ripped
10 | (113/114) Accurately ripped
11 | (113/114) Accurately ripped
12 | (113/114) Accurately ripped
13 | (113/114) Accurately ripped
[AccurateRip ID: 00130f0a-00bdf7ca-b609270d] found.
Track [ CRC | V2 ] Status
01 [11996b35|696cb6c2] (061+079/142) Accurately ripped
02 [d8486e8f|267141de] (061+080/143) Accurately ripped
03 [93727a40|7930950d] (061+080/143) Accurately ripped
04 [4e7d5621|324cf1cf] (060+080/142) Accurately ripped
05 [c9f732f1|60f518f0] (060+081/143) Accurately ripped
06 [ffc98e1e|b081d1c5] (061+080/143) Accurately ripped
07 [adbf4791|f8f62988] (061+080/143) Accurately ripped
08 [0d5f2a1d|71ebee06] (061+080/143) Accurately ripped
09 [5f1d41f1|e9e59aa3] (061+079/142) Accurately ripped
10 [0e39cae5|6bf44d23] (061+079/142) Accurately ripped
11 [9ecfaf85|a294f070] (060+080/142) Accurately ripped
12 [af922597|1e7e8982] (061+078/141) Accurately ripped
13 [837bbd28|2b5b8ede] (061+079/142) Accurately ripped
Offsetted by 30:
01 [e277c20f] (000/142) No match (V2 was not tested)
02 [c6547c2c] (000/143) No match (V2 was not tested)
03 [92c628ed] (000/143) No match (V2 was not tested)
04 [7554d1b2] (000/142) No match (V2 was not tested)
05 [9d67a82b] (000/143) No match (V2 was not tested)
06 [fbf9af42] (000/143) No match (V2 was not tested)
07 [8880d69e] (000/143) No match (V2 was not tested)
08 [14164c04] (000/143) No match (V2 was not tested)
09 [9305e61c] (000/142) No match (V2 was not tested)
10 [aa87ac72] (000/142) No match (V2 was not tested)
11 [fafbd193] (000/142) No match (V2 was not tested)
12 [bee52997] (000/141) No match (V2 was not tested)
13 [538959a9] (000/142) No match (V2 was not tested)

Track Peak [ CRC32 ] [W/O NULL] [ LOG ]
– 98,8 [A19CD398] [3E45627E] CRC32
01 97,7 [72108BD2] [D561DA3B]
02 97,7 [92F7BFC7] [52273E45]
03 97,7 [4E53EAA9] [7D0F511A]
04 95,5 [EEC1A2F5] [44124B78]
05 97,7 [0019997E] [9685C0C7]
06 97,7 [28C676E2] [4A05F2E9]
07 97,7 [83E458AE] [D981257F]
08 97,7 [804DFD33] [6FA577A4]
09 97,7 [A7BAA21D] [4B7B49FE]
10 87,1 [DA3B2FEB] [205179CA]
11 97,7 [6139F31F] [688A7A5B]
12 87,1 [A6B5B0BD] [F16FD79A]
13 98,8 [46751865] [352202BE]


Chris Isaak: CD Colection (1987 - 2002)

Tracklist CD4 - 2002 - Always Got Tonight:
Reprise, 9 48016-2

01. One Day
02. Let Me Down Easy
03. Worked It Out Wrong
04. Courthouse
05. Life Will Go On
06. Always Got Tonight
07. Cool Love
08. Notice The Ring
09. I See You Everywhere
10. American Boy
11. Somebody To Love
12. Nothing To Say

Exact Audio Copy V0.99 prebeta 5 from 4. May 2009

EAC extraction logfile from 20. July 2009, 20:36

Chris Isaak / Always Got Tonight

Used drive : ASUS DRW-1608P Adapter: 2 ID: 0

Read mode : Secure
Utilize accurate stream : Yes
Defeat audio cache : Yes
Make use of C2 pointers : No

Read offset correction : 48
Overread into Lead-In and Lead-Out : No
Fill up missing offset samples with silence : Yes
Delete leading and trailing silent blocks : No
Null samples used in CRC calculations : Yes
Used interface : Installed external ASPI interface

Used output format : User Defined Encoder
Selected bitrate : 1024 kBit/s
Quality : High
Add ID3 tag : No
Command line compressor : C:\Program Files (x86)\Exact Audio Copy\Flac\flac.exe
Additional command line options : -5 -V -T "ARTIST=%a" -T "TITLE=%t" -T "ALBUM=%g" -T "DATE=%y" -T "TRACKNUMBER=%n" -T "GENRE=%m" -T "COMMENT=EAC FLAC -5" %s


TOC of the extracted CD

Track | Start | Length | Start sector | End sector
––––––––––––––––––––––––––––-
1 | 0:00.00 | 4:26.65 | 0 | 20014
2 | 4:26.65 | 4:08.72 | 20015 | 38686
3 | 8:35.62 | 3:48.65 | 38687 | 55851
4 | 12:24.52 | 3:21.25 | 55852 | 70951
5 | 15:46.02 | 3:07.73 | 70952 | 85049
6 | 18:54.00 | 3:50.30 | 85050 | 102329
7 | 22:44.30 | 3:45.32 | 102330 | 119236
8 | 26:29.62 | 3:47.70 | 119237 | 136331
9 | 30:17.57 | 3:23.05 | 136332 | 151561
10 | 33:40.62 | 2:51.55 | 151562 | 164441
11 | 36:32.42 | 2:36.48 | 164442 | 176189
12 | 39:09.15 | 4:41.62 | 176190 | 197326


Range status and errors

Selected range

Filename F:\Chris Isaak - Always Got Tonight\Chris Isaak - Always Got Tonight.wav

Peak level 100.0 %
Range quality 100.0 %
Test CRC 46CED0F8
Copy CRC 46CED0F8
Copy OK

No errors occurred


AccurateRip summary

Track 1 accurately ripped (confidence 59) [F76F2352]
Track 2 accurately ripped (confidence 59) [98EBE76E]
Track 3 accurately ripped (confidence 60) [B7645DA3]
Track 4 accurately ripped (confidence 59) [C2F03050]
Track 5 accurately ripped (confidence 60) [5F37FF09]
Track 6 accurately ripped (confidence 60) [F62BE84E]
Track 7 accurately ripped (confidence 58) [B4666A13]
Track 8 accurately ripped (confidence 60) [59584AA4]
Track 9 accurately ripped (confidence 60) [5BC9F70F]
Track 10 accurately ripped (confidence 60) [CA7AC51E]
Track 11 accurately ripped (confidence 60) [7F437BBA]
Track 12 accurately ripped (confidence 59) [3D528D1D]

All tracks accurately ripped

End of status report


[CUETools log; Date: 15.01.2018 13:13:39; Version: 2.1.5]
[CTDB TOCID: t5J.fF0l4weckf7tw82_gdh54Mw-] found.
Track | CTDB Status
1 | (225/225) Accurately ripped
2 | (224/225) Accurately ripped
3 | (222/225) Accurately ripped
4 | (223/225) Accurately ripped
5 | (224/225) Accurately ripped
6 | (224/225) Accurately ripped
7 | (225/225) Accurately ripped
8 | (224/225) Accurately ripped
9 | (224/225) Accurately ripped
10 | (224/225) Accurately ripped
11 | (224/225) Accurately ripped
12 | (223/225) Accurately ripped
[AccurateRip ID: 00141c58-00b95467-a40a470c] found.
Track [ CRC | V2 ] Status
01 [f76f2352|ad32a6ac] (109+099/330) Accurately ripped
02 [98ebe76e|1adf5540] (110+098/330) Accurately ripped
03 [b7645da3|6f509fcc] (109+098/326) Accurately ripped
04 [c2f03050|3fa18639] (110+099/329) Accurately ripped
05 [5f37ff09|73e4a653] (112+098/331) Accurately ripped
06 [f62be84e|beb8f6f0] (110+099/329) Accurately ripped
07 [b4666a13|fb87185c] (108+098/326) Accurately ripped
08 [59584aa4|f93ad86f] (111+099/330) Accurately ripped
09 [5bc9f70f|d657deab] (111+098/330) Accurately ripped
10 [ca7ac51e|f52d94c7] (114+099/333) Accurately ripped
11 [7f437bba|101c357a] (112+099/332) Accurately ripped
12 [3d528d1d|b7c1875a] (111+095/326) Accurately ripped
Offsetted by -819:
01 [df3e4e53] (007/330) Accurately ripped
02 [a1b721a0] (007/330) Accurately ripped
03 [4305b2b7] (007/326) Accurately ripped
04 [bd5ec617] (007/329) Accurately ripped
05 [39c6deee] (007/331) Accurately ripped
06 [900bfab2] (007/329) Accurately ripped
07 [1694ed25] (007/326) Accurately ripped
08 [444cbc4e] (007/330) Accurately ripped
09 [1402b26e] (007/330) Accurately ripped
10 [66227e04] (007/333) Accurately ripped
11 [bc6e6137] (007/332) Accurately ripped
12 [1a2741f7] (007/326) Accurately ripped
Offsetted by -98:
01 [73b48669] (002/330) Accurately ripped
02 [fd11d0e7] (002/330) Accurately ripped
03 [f1ab3542] (002/326) Accurately ripped
04 [b18555a6] (002/329) Accurately ripped
05 [ab6747ef] (002/331) Accurately ripped
06 [d184b442] (002/329) Accurately ripped
07 [e06a18a6] (002/326) Accurately ripped
08 [b6a47c30] (002/330) Accurately ripped
09 [2f943089] (002/330) Accurately ripped
10 [7e14e6d9] (002/333) Accurately ripped
11 [f797974c] (002/332) Accurately ripped
12 [e39604bb] (002/326) Accurately ripped
Offsetted by 1551:
01 [452cb01d] (009/330) Accurately ripped
02 [f4e2a7aa] (009/330) Accurately ripped
03 [69b65602] (009/326) Accurately ripped
04 [df46659a] (009/329) Accurately ripped
05 [a1495739] (009/331) Accurately ripped
06 [0bc2010b] (009/329) Accurately ripped
07 [e0c3bcc3] (009/326) Accurately ripped
08 [3aaa0b3e] (009/330) Accurately ripped
09 [9e919774] (009/330) Accurately ripped
10 [4020f7d5] (009/333) Accurately ripped
11 [fa618bdc] (009/332) Accurately ripped
12 [03c72f16] (009/326) Accurately ripped
Offsetted by -68:
01 [154ede6a] (000/330) No match (V2 was not tested)
02 [b3876a60] (000/330) No match (V2 was not tested)
03 [01600c1b] (000/326) No match (V2 was not tested)
04 [ddc7488f] (000/329) No match (V2 was not tested)
05 [e410ac44] (000/331) No match (V2 was not tested)
06 [818637d1] (000/329) No match (V2 was not tested)
07 [0e64af3b] (000/326) No match (V2 was not tested)
08 [6981e6d9] (000/330) No match (V2 was not tested)
09 [06379e13] (000/330) No match (V2 was not tested)
10 [9dca144c] (000/333) No match
11 [f000d33c] (000/332) No match
12 [47c21114] (000/326) No match
Offsetted by -28:
01 [9da0104e] (000/330) No match (V2 was not tested)
02 [719306b4] (000/330) No match (V2 was not tested)
03 [0fef314a] (000/326) No match (V2 was not tested)
04 [788a4a92] (000/329) No match (V2 was not tested)
05 [d7b4bc16] (000/331) No match (V2 was not tested)
06 [50408b8f] (000/329) No match (V2 was not tested)
07 [0c1ae636] (000/326) No match (V2 was not tested)
08 [dae1f1f0] (000/330) No match (V2 was not tested)
09 [0d615f9a] (000/330) No match (V2 was not tested)
10 [5ed22faf] (000/333) No match (V2 was not tested)
11 [9831da1e] (000/332) No match (V2 was not tested)
12 [0f1fefee] (000/326) No match (V2 was not tested)
Offsetted by 1159:
01 [fef538bc] (000/330) No match (V2 was not tested)
02 [882d9732] (000/330) No match (V2 was not tested)
03 [1c0246cc] (000/326) No match
04 [79ce979a] (000/329) No match
05 [e5d3a6e0] (000/331) No match
06 [fe8c1de3] (000/329) No match
07 [fe8740ba] (000/326) No match
08 [2926e6e1] (000/330) No match
09 [0d4c9b80] (000/330) No match
10 [e94bf3a1] (000/333) No match
11 [729400ed] (000/332) No match
12 [807f70be] (000/326) No match
Offsetted by 1853:
01 [945c1dd6] (040/330) Accurately ripped
02 [e610feb9] (040/330) Accurately ripped
03 [8f29eafd] (039/326) Accurately ripped
04 [efe2cbe3] (039/329) Accurately ripped
05 [5d60ce55] (039/331) Accurately ripped
06 [8635895f] (039/329) Accurately ripped
07 [e703c06f] (038/326) Accurately ripped
08 [309fbc4e] (039/330) Accurately ripped
09 [aca2c68d] (039/330) Accurately ripped
10 [f1f1aeda] (039/333) Accurately ripped
11 [53b79f0d] (039/332) Accurately ripped
12 [43d95abf] (000/326) No match (V2 was not tested)

Track Peak [ CRC32 ] [W/O NULL] [ LOG ]
– 100,0 [46CED0F8] [7864AC03] CRC32
01 100,0 [AA995031] [33179738]
02 100,0 [E7C11D23] [A7338107]
03 94,1 [4A2F90D3] [AB1F0718]
04 100,0 [513F1787] [5C7480DD]
05 100,0 [BCE4876D] [9C3D7F3C]
06 100,0 [8FC1C23C] [BB73F2EF]
07 100,0 [6E2C9699] [4A760D96]
08 100,0 [0D1D508B] [AB61E8C8]
09 100,0 [4DBCB9CA] [746A4CF7]
10 100,0 [57BB5F61] [47E67145]
11 100,0 [0634D9EB] [5B663314]
12 100,0 [495E5F7C] [7C1A0304]


All thanks go to the original releasers

Chris Isaak in my Blog

Download Chris Isaak: CD Colection (1987 - 2002):