Subcategories
Tags
Language
Tags

Chris Rea - The Best (2018)

Posted By: Pisulik
Chris Rea - The Best (2018)

Chris Rea - The Best (2018)
EAC Rip | FLAC (Tracks) +cue, log, scans - 514 MB | 01:19:08
Rock, Soft Rock | Label: earMUSIC

Without a doubt, Chris Rea is one of the most important and influential blues and rock musicians of the last 40 years. A freethinking all-rounder with a career spanning more than 30 million records sold, Chris Rea has been at times much of an artist and painter, classical composer, filmmaker and car fanatic, but always uncompromising himself. He created a path through his undisputed talent that never led away from the authenticity that made Chris Rea to who he still is. He has always been modest and has always managed to succeed beyond the mainstream and fashion trends. Born in Middlesbrough in England, the gifted Slide guitarist also found his motivation always in private. Reas career began with his first album, Whatever Happened To Benny Santini.

TRACKLIST

01. The Road to Hell, Pt.1 & 2
02. Josephine
03. On The Beach
04. Stainsby Girls
05. Let's Dance
06. Fool (If You Think It's Over)
07. Girl in a Sports Car
08. I Will Be With You
09. Steel River Blues
10. Legacy Blues
11. Are You Ready
12. Keep On Dancing
13. Changing Times (Live at Montreux)
14. Dancing the Blues Away (Live at Montreux)
15. Stony Road (Live at Montreux)
16. Someday My Peace Will Come (Live at Montreux)
17. The Hustler (Live at Montreux)

Exact Audio Copy V1.3 from 2. September 2016

EAC extraction logfile from 30. November 2018, 18:26

Chris Rea / The Best

Used drive : PLEXTOR PX-891SAF Adapter: 1 ID: 0

Read mode : Secure
Utilize accurate stream : Yes
Defeat audio cache : Yes
Make use of C2 pointers : No

Read offset correction : 6
Overread into Lead-In and Lead-Out : No
Fill up missing offset samples with silence : Yes
Delete leading and trailing silent blocks : No
Null samples used in CRC calculations : Yes
Used interface : Native Win32 interface for Win NT & 2000
Gap handling : Appended to previous track

Used output format : User Defined Encoder
Selected bitrate : 1024 kBit/s
Quality : High
Add ID3 tag : No
Command line compressor : C:\Program Files (x86)\Exact Audio Copy\Flac\flac.exe
Additional command line options : -8 -V -T "ARTIST=%artist%" -T "TITLE=%title%" -T "ALBUM=%albumtitle%" -T "DATE=%year%" -T "TRACKNUMBER=%tracknr%" -T "GENRE=%genre%" -T "PERFORMER=%albuminterpret%" -T "COMPOSER=%composer%" %haslyrics%–tag-from-file=LYRICS="%lyricsfile%"%haslyrics% -T "ALBUMARTIST=%albumartist%" -T "DISCNUMBER=%cdnumber%" -T "TOTALDISCS=%totalcds%" -T "TOTALTRACKS=%numtracks%" -T "COMMENT=%comment%" %source% -o %dest%


TOC of the extracted CD

Track | Start | Length | Start sector | End sector
––––––––––––––––––––––––––––-
1 | 0:00.00 | 6:31.51 | 0 | 29375
2 | 6:31.51 | 3:58.03 | 29376 | 47228
3 | 10:29.54 | 4:54.11 | 47229 | 69289
4 | 15:23.65 | 4:22.17 | 69290 | 88956
5 | 19:46.07 | 4:04.71 | 88957 | 107327
6 | 23:51.03 | 4:03.19 | 107328 | 125571
7 | 27:54.22 | 5:16.73 | 125572 | 149344
8 | 33:11.20 | 4:02.08 | 149345 | 167502
9 | 37:13.28 | 4:35.03 | 167503 | 188130
10 | 41:48.31 | 4:11.08 | 188131 | 206963
11 | 45:59.39 | 6:09.32 | 206964 | 234670
12 | 52:08.71 | 3:50.35 | 234671 | 251955
13 | 55:59.31 | 4:38.48 | 251956 | 272853
14 | 60:38.04 | 3:52.66 | 272854 | 290319
15 | 64:30.70 | 6:29.14 | 290320 | 319508
16 | 71:00.09 | 3:44.23 | 319509 | 336331
17 | 74:44.32 | 4:44.14 | 336332 | 357645


Track 1

Filename D:\#New wavs + flac\Chris Rea - The Best\01. Chris Rea - The Road to Hell, Pt.1 & 2.wav

Pre-gap length 0:00:02.00

Peak level 78.4 %
Extraction speed 6.2 X
Track quality 100.0 %
Test CRC 0A535B0D
Copy CRC 0A535B0D
Track not present in AccurateRip database
Copy OK

Track 2

Filename D:\#New wavs + flac\Chris Rea - The Best\02. Chris Rea - Josephine.wav

Peak level 99.9 %
Extraction speed 5.4 X
Track quality 99.9 %
Test CRC B77D12F8
Copy CRC B77D12F8
Track not present in AccurateRip database
Copy OK

Track 3

Filename D:\#New wavs + flac\Chris Rea - The Best\03. Chris Rea - On The Beach.wav

Pre-gap length 0:00:01.36

Peak level 100.0 %
Extraction speed 6.1 X
Track quality 99.9 %
Test CRC 45E189FF
Copy CRC 45E189FF
Track not present in AccurateRip database
Copy OK

Track 4

Filename D:\#New wavs + flac\Chris Rea - The Best\04. Chris Rea - Stainsby Girls.wav

Pre-gap length 0:00:01.37

Peak level 87.0 %
Extraction speed 7.6 X
Track quality 100.0 %
Test CRC 9A667DE2
Copy CRC 9A667DE2
Track not present in AccurateRip database
Copy OK

Track 5

Filename D:\#New wavs + flac\Chris Rea - The Best\05. Chris Rea - Let's Dance.wav

Pre-gap length 0:00:01.69

Peak level 93.3 %
Extraction speed 7.8 X
Track quality 100.0 %
Test CRC BFDA8764
Copy CRC BFDA8764
Track not present in AccurateRip database
Copy OK

Track 6

Filename D:\#New wavs + flac\Chris Rea - The Best\06. Chris Rea - Fool (If You Think It's Over).wav

Pre-gap length 0:00:01.28

Peak level 72.9 %
Extraction speed 8.2 X
Track quality 100.0 %
Test CRC FCD0FA8B
Copy CRC FCD0FA8B
Track not present in AccurateRip database
Copy OK

Track 7

Filename D:\#New wavs + flac\Chris Rea - The Best\07. Chris Rea - Girl in a Sports Car.wav

Pre-gap length 0:00:02.16

Peak level 98.0 %
Extraction speed 8.8 X
Track quality 100.0 %
Test CRC 570EBFEE
Copy CRC 570EBFEE
Track not present in AccurateRip database
Copy OK

Track 8

Filename D:\#New wavs + flac\Chris Rea - The Best\08. Chris Rea - I Will Be With You.wav

Peak level 80.9 %
Extraction speed 8.9 X
Track quality 100.0 %
Test CRC 60753961
Copy CRC 60753961
Track not present in AccurateRip database
Copy OK

Track 9

Filename D:\#New wavs + flac\Chris Rea - The Best\09. Chris Rea - Steel River Blues.wav

Pre-gap length 0:00:01.37

Peak level 83.9 %
Extraction speed 9.3 X
Track quality 100.0 %
Test CRC 39B9A80F
Copy CRC 39B9A80F
Track not present in AccurateRip database
Copy OK

Track 10

Filename D:\#New wavs + flac\Chris Rea - The Best\10. Chris Rea - Legacy Blues.wav

Pre-gap length 0:00:01.13

Peak level 94.3 %
Extraction speed 9.5 X
Track quality 100.0 %
Test CRC 487E0E0E
Copy CRC 487E0E0E
Track not present in AccurateRip database
Copy OK

Track 11

Filename D:\#New wavs + flac\Chris Rea - The Best\11. Chris Rea - Are You Ready.wav

Pre-gap length 0:00:01.72

Peak level 74.8 %
Extraction speed 10.3 X
Track quality 100.0 %
Test CRC 67133075
Copy CRC 67133075
Track not present in AccurateRip database
Copy OK

Track 12

Filename D:\#New wavs + flac\Chris Rea - The Best\12. Chris Rea - Keep On Dancing.wav

Pre-gap length 0:00:01.74

Peak level 86.8 %
Extraction speed 10.1 X
Track quality 100.0 %
Test CRC 8C67F271
Copy CRC 8C67F271
Track not present in AccurateRip database
Copy OK

Track 13

Filename D:\#New wavs + flac\Chris Rea - The Best\13. Chris Rea - Changing Times (Live at Montreux).wav

Pre-gap length 0:00:00.81

Peak level 82.2 %
Extraction speed 10.5 X
Track quality 100.0 %
Test CRC F77E76D9
Copy CRC F77E76D9
Track not present in AccurateRip database
Copy OK

Track 14

Filename D:\#New wavs + flac\Chris Rea - The Best\14. Chris Rea - Dancing the Blues Away (Live at Montreux).wav

Peak level 78.5 %
Extraction speed 10.4 X
Track quality 100.0 %
Test CRC F8707E4E
Copy CRC F8707E4E
Track not present in AccurateRip database
Copy OK

Track 15

Filename D:\#New wavs + flac\Chris Rea - The Best\15. Chris Rea - Stony Road (Live at Montreux).wav

Peak level 81.0 %
Extraction speed 11.5 X
Track quality 100.0 %
Test CRC 2AFFD2FB
Copy CRC 2AFFD2FB
Track not present in AccurateRip database
Copy OK

Track 16

Filename D:\#New wavs + flac\Chris Rea - The Best\16. Chris Rea - Someday My Peace Will Come (Live at Montreux).wav

Peak level 75.7 %
Extraction speed 11.2 X
Track quality 100.0 %
Test CRC 5D5FE659
Copy CRC 5D5FE659
Track not present in AccurateRip database
Copy OK

Track 17

Filename D:\#New wavs + flac\Chris Rea - The Best\17. Chris Rea - The Hustler (Live at Montreux).wav

Peak level 84.8 %
Extraction speed 9.1 X
Track quality 99.9 %
Test CRC 4ABF251C
Copy CRC 4ABF251C
Track not present in AccurateRip database
Copy OK


None of the tracks are present in the AccurateRip database

No errors occurred

End of status report

–– CUETools DB Plugin V2.1.6

[CTDB TOCID: bCAIwIYmBDwBpjkm0lrys6nEqvU-] disk not present in database
Submit result: bCAIwIYmBDwBpjkm0lrys6nEqvU- has been uploaded


==== Log checksum 88466417B3ADF5C70E3CAA7DD76E9213B25E89C7BC5496006898B30F3943F632 ====

––––––––––––––––––––––––––––––

Exact Audio Copy V1.3 from 2. September 2016

EAC extraction logfile from 30. November 2018, 18:26

Chris Rea / The Best

Used drive : PLEXTOR PX-891SAF Adapter: 1 ID: 0

Read mode : Secure
Utilize accurate stream : Yes
Defeat audio cache : Yes
Make use of C2 pointers : No

Read offset correction : 6
Overread into Lead-In and Lead-Out : No
Fill up missing offset samples with silence : Yes
Delete leading and trailing silent blocks : No
Null samples used in CRC calculations : Yes
Used interface : Native Win32 interface for Win NT & 2000
Gap handling : Appended to previous track

Used output format : User Defined Encoder
Selected bitrate : 1024 kBit/s
Quality : High
Add ID3 tag : No
Command line compressor : C:\Program Files (x86)\Exact Audio Copy\Flac\flac.exe
Additional command line options : -8 -V -T "ARTIST=%artist%" -T "TITLE=%title%" -T "ALBUM=%albumtitle%" -T "DATE=%year%" -T "TRACKNUMBER=%tracknr%" -T "GENRE=%genre%" -T "PERFORMER=%albuminterpret%" -T "COMPOSER=%composer%" %haslyrics%–tag-from-file=LYRICS="%lyricsfile%"%haslyrics% -T "ALBUMARTIST=%albumartist%" -T "DISCNUMBER=%cdnumber%" -T "TOTALDISCS=%totalcds%" -T "TOTALTRACKS=%numtracks%" -T "COMMENT=%comment%" %source% -o %dest%


TOC of the extracted CD

Track | Start | Length | Start sector | End sector
––––––––––––––––––––––––––––-
1 | 0:00.00 | 6:31.51 | 0 | 29375
2 | 6:31.51 | 3:58.03 | 29376 | 47228
3 | 10:29.54 | 4:54.11 | 47229 | 69289
4 | 15:23.65 | 4:22.17 | 69290 | 88956
5 | 19:46.07 | 4:04.71 | 88957 | 107327
6 | 23:51.03 | 4:03.19 | 107328 | 125571
7 | 27:54.22 | 5:16.73 | 125572 | 149344
8 | 33:11.20 | 4:02.08 | 149345 | 167502
9 | 37:13.28 | 4:35.03 | 167503 | 188130
10 | 41:48.31 | 4:11.08 | 188131 | 206963
11 | 45:59.39 | 6:09.32 | 206964 | 234670
12 | 52:08.71 | 3:50.35 | 234671 | 251955
13 | 55:59.31 | 4:38.48 | 251956 | 272853
14 | 60:38.04 | 3:52.66 | 272854 | 290319
15 | 64:30.70 | 6:29.14 | 290320 | 319508
16 | 71:00.09 | 3:44.23 | 319509 | 336331
17 | 74:44.32 | 4:44.14 | 336332 | 357645


Track 1

Filename D:\#New wavs + flac\Chris Rea - The Best\01. Chris Rea - The Road to Hell, Pt.1 & 2.wav

Pre-gap length 0:00:02.00

Peak level 78.4 %
Extraction speed 6.2 X
Track quality 100.0 %
Test CRC 0A535B0D
Copy CRC 0A535B0D
Track not present in AccurateRip database
Copy OK

Track 2

Filename D:\#New wavs + flac\Chris Rea - The Best\02. Chris Rea - Josephine.wav

Peak level 99.9 %
Extraction speed 5.4 X
Track quality 99.9 %
Test CRC B77D12F8
Copy CRC B77D12F8
Track not present in AccurateRip database
Copy OK

Track 3

Filename D:\#New wavs + flac\Chris Rea - The Best\03. Chris Rea - On The Beach.wav

Pre-gap length 0:00:01.36

Peak level 100.0 %
Extraction speed 6.1 X
Track quality 99.9 %
Test CRC 45E189FF
Copy CRC 45E189FF
Track not present in AccurateRip database
Copy OK

Track 4

Filename D:\#New wavs + flac\Chris Rea - The Best\04. Chris Rea - Stainsby Girls.wav

Pre-gap length 0:00:01.37

Peak level 87.0 %
Extraction speed 7.6 X
Track quality 100.0 %
Test CRC 9A667DE2
Copy CRC 9A667DE2
Track not present in AccurateRip database
Copy OK

Track 5

Filename D:\#New wavs + flac\Chris Rea - The Best\05. Chris Rea - Let's Dance.wav

Pre-gap length 0:00:01.69

Peak level 93.3 %
Extraction speed 7.8 X
Track quality 100.0 %
Test CRC BFDA8764
Copy CRC BFDA8764
Track not present in AccurateRip database
Copy OK

Track 6

Filename D:\#New wavs + flac\Chris Rea - The Best\06. Chris Rea - Fool (If You Think It's Over).wav

Pre-gap length 0:00:01.28

Peak level 72.9 %
Extraction speed 8.2 X
Track quality 100.0 %
Test CRC FCD0FA8B
Copy CRC FCD0FA8B
Track not present in AccurateRip database
Copy OK

Track 7

Filename D:\#New wavs + flac\Chris Rea - The Best\07. Chris Rea - Girl in a Sports Car.wav

Pre-gap length 0:00:02.16

Peak level 98.0 %
Extraction speed 8.8 X
Track quality 100.0 %
Test CRC 570EBFEE
Copy CRC 570EBFEE
Track not present in AccurateRip database
Copy OK

Track 8

Filename D:\#New wavs + flac\Chris Rea - The Best\08. Chris Rea - I Will Be With You.wav

Peak level 80.9 %
Extraction speed 8.9 X
Track quality 100.0 %
Test CRC 60753961
Copy CRC 60753961
Track not present in AccurateRip database
Copy OK

Track 9

Filename D:\#New wavs + flac\Chris Rea - The Best\09. Chris Rea - Steel River Blues.wav

Pre-gap length 0:00:01.37

Peak level 83.9 %
Extraction speed 9.3 X
Track quality 100.0 %
Test CRC 39B9A80F
Copy CRC 39B9A80F
Track not present in AccurateRip database
Copy OK

Track 10

Filename D:\#New wavs + flac\Chris Rea - The Best\10. Chris Rea - Legacy Blues.wav

Pre-gap length 0:00:01.13

Peak level 94.3 %
Extraction speed 9.5 X
Track quality 100.0 %
Test CRC 487E0E0E
Copy CRC 487E0E0E
Track not present in AccurateRip database
Copy OK

Track 11

Filename D:\#New wavs + flac\Chris Rea - The Best\11. Chris Rea - Are You Ready.wav

Pre-gap length 0:00:01.72

Peak level 74.8 %
Extraction speed 10.3 X
Track quality 100.0 %
Test CRC 67133075
Copy CRC 67133075
Track not present in AccurateRip database
Copy OK

Track 12

Filename D:\#New wavs + flac\Chris Rea - The Best\12. Chris Rea - Keep On Dancing.wav

Pre-gap length 0:00:01.74

Peak level 86.8 %
Extraction speed 10.1 X
Track quality 100.0 %
Test CRC 8C67F271
Copy CRC 8C67F271
Track not present in AccurateRip database
Copy OK

Track 13

Filename D:\#New wavs + flac\Chris Rea - The Best\13. Chris Rea - Changing Times (Live at Montreux).wav

Pre-gap length 0:00:00.81

Peak level 82.2 %
Extraction speed 10.5 X
Track quality 100.0 %
Test CRC F77E76D9
Copy CRC F77E76D9
Track not present in AccurateRip database
Copy OK

Track 14

Filename D:\#New wavs + flac\Chris Rea - The Best\14. Chris Rea - Dancing the Blues Away (Live at Montreux).wav

Peak level 78.5 %
Extraction speed 10.4 X
Track quality 100.0 %
Test CRC F8707E4E
Copy CRC F8707E4E
Track not present in AccurateRip database
Copy OK

Track 15

Filename D:\#New wavs + flac\Chris Rea - The Best\15. Chris Rea - Stony Road (Live at Montreux).wav

Peak level 81.0 %
Extraction speed 11.5 X
Track quality 100.0 %
Test CRC 2AFFD2FB
Copy CRC 2AFFD2FB
Track not present in AccurateRip database
Copy OK

Track 16

Filename D:\#New wavs + flac\Chris Rea - The Best\16. Chris Rea - Someday My Peace Will Come (Live at Montreux).wav

Peak level 75.7 %
Extraction speed 11.2 X
Track quality 100.0 %
Test CRC 5D5FE659
Copy CRC 5D5FE659
Track not present in AccurateRip database
Copy OK

Track 17

Filename D:\#New wavs + flac\Chris Rea - The Best\17. Chris Rea - The Hustler (Live at Montreux).wav

Peak level 84.8 %
Extraction speed 9.1 X
Track quality 99.9 %
Test CRC 4ABF251C
Copy CRC 4ABF251C
Track not present in AccurateRip database
Copy OK


None of the tracks are present in the AccurateRip database

No errors occurred

End of status report

–– CUETools DB Plugin V2.1.6

[CTDB TOCID: bCAIwIYmBDwBpjkm0lrys6nEqvU-] disk not present in database
Submit result: bCAIwIYmBDwBpjkm0lrys6nEqvU- has been uploaded


==== Log checksum 88466417B3ADF5C70E3CAA7DD76E9213B25E89C7BC5496006898B30F3943F632 ====


All thanks go to the original releaser