Subcategories
Tags
Language
Tags

Christiane Iven, Burkhard Kehring - Franz Schubert: Mayrhofer-Lieder, Vol.2 (2003)

Posted By: ArlegZ
Christiane Iven, Burkhard Kehring - Franz Schubert: Mayrhofer-Lieder, Vol.2 (2003)

Christiane Iven, Burkhard Kehring - Franz Schubert: Mayrhofer-Lieder, Vol.2 (2003)
EAC | FLAC | Image (Cue & Log) ~ 241 Mb | Total time: 60:05 | Scans included
Classical | Label: Naxos | # 8.554739 | Recorded: 2002

Schubert set the poetry of over 115 writers to music. He selected poems from classical Greece, the Middle Ages and the Renaissance, from eighteenth-century German authors, early Romantics, Biedermeier poets, and Heine. The Deutsche Schubert-Lied-Edition presents all Schubert’s Lieder, over 700 songs, grouped according to the poets who inspired him. Thanks to the Bärenreiter’s Neue Schubert-Ausgabe (New Schubert Edition), Tübingen, which uses primary sources, the performers have been able to benefit from the most recent research of the editorial team. For the first time, the listener and interested reader can follow Schubert’s textual alterations and can appreciate the importance the written word had for the composer.

Performer:
Christiane Iven, mezzo-soprano
Burkhard Kehring, piano

Track List:
01. Am See, D124
02. Augenlied, D297
03. Liane, D298
04. Abendlied der Fürstin, D495
05. Sehnsucht, D516
06. Schlaflied (Schlummerlied) (v. 1), D527
07. Am Strome, D539
08. Uraniens Flucht, D554
09. Iphigenia (v. 2), D573
010. Atys, D585
011. Erlafsee, D586
12. Beim Winde, D669
13. Die Sternennächte, D670
14. Abendstern, D806
15. Auflösung, D807


Exact Audio Copy V1.3 from 2. September 2016

EAC extraction logfile from 11. April 2020, 22:47

Christiane Iven, Burkhard Kehring / Schubert - Mayrhofer-Lieder, Vol.2

Used drive : ASUS SDRW-08U7M-U Adapter: 1 ID: 0

Read mode : Secure
Utilize accurate stream : Yes
Defeat audio cache : Yes
Make use of C2 pointers : No

Read offset correction : 6
Overread into Lead-In and Lead-Out : No
Fill up missing offset samples with silence : Yes
Delete leading and trailing silent blocks : No
Null samples used in CRC calculations : Yes
Used interface : Native Win32 interface for Win NT & 2000

Used output format : User Defined Encoder
Selected bitrate : 128 kBit/s
Quality : High
Add ID3 tag : No
Command line compressor : C:\Program Files (x86)\Exact Audio Copy\Flac\flac.exe
Additional command line options : -V -8 -T "Date=%year%" -T "Genre=%genre%" %source%


TOC of the extracted CD

Track | Start | Length | Start sector | End sector
––––––––––––––––––––––––––––-
1 | 0:00.00 | 5:14.37 | 0 | 23586
2 | 5:14.37 | 2:37.30 | 23587 | 35391
3 | 7:51.67 | 2:22.50 | 35392 | 46091
4 | 10:14.42 | 2:20.00 | 46092 | 56591
5 | 12:34.42 | 2:53.48 | 56592 | 69614
6 | 15:28.15 | 2:18.65 | 69615 | 80029
7 | 17:47.05 | 2:24.07 | 80030 | 90836
8 | 20:11.12 | 18:35.58 | 90837 | 174519
9 | 38:46.70 | 2:47.02 | 174520 | 187046
10 | 41:33.72 | 3:56.45 | 187047 | 204791
11 | 45:30.42 | 3:45.25 | 204792 | 221691
12 | 49:15.67 | 3:57.73 | 221692 | 239539
13 | 53:13.65 | 2:27.00 | 239540 | 250564
14 | 55:40.65 | 2:20.35 | 250565 | 261099
15 | 58:01.25 | 2:44.50 | 261100 | 273449


Range status and errors

Selected range

Filename C:\temp\Naxos_8.554739 - Schubert - Mayrhofer-Lieder, Vol.2 - 2003\Schubert - Mayrhofer-Lieder, Vol.2.wav

Peak level 99.9 %
Extraction speed 2.0 X
Range quality 99.9 %
Test CRC 5E02734F
Copy CRC 5E02734F
Copy OK

No errors occurred


AccurateRip summary

Track 1 accurately ripped (confidence 7) [9F054196] (AR v2)
Track 2 accurately ripped (confidence 7) [446FD1F2] (AR v2)
Track 3 accurately ripped (confidence 7) [D3C04D97] (AR v2)
Track 4 accurately ripped (confidence 7) [283396A2] (AR v2)
Track 5 accurately ripped (confidence 7) [13A00D75] (AR v2)
Track 6 accurately ripped (confidence 7) [F9D5E469] (AR v2)
Track 7 accurately ripped (confidence 7) [44A24D69] (AR v2)
Track 8 accurately ripped (confidence 7) [0AF5B5B9] (AR v2)
Track 9 accurately ripped (confidence 7) [EA8B6BA9] (AR v2)
Track 10 accurately ripped (confidence 7) [D88140E8] (AR v2)
Track 11 accurately ripped (confidence 7) [5F3725E0] (AR v2)
Track 12 accurately ripped (confidence 7) [17218BD1] (AR v2)
Track 13 accurately ripped (confidence 7) [F8144454] (AR v2)
Track 14 accurately ripped (confidence 7) [3889AEBA] (AR v2)
Track 15 accurately ripped (confidence 7) [C3CE69EB] (AR v2)

All tracks accurately ripped

End of status report

==== Log checksum 5FE3486A4072031EC7C98C14F31858B80309F08FA6017AACC7DAA482134B7D03 ====

Christiane Iven, Burkhard Kehring - Franz Schubert: Mayrhofer-Lieder, Vol.2 (2003)

Thanks to the original releaser