Tags
Language
Tags

Christine Schäfer, Graham Johnson - Johannes Brahms: The Complete Songs, Vol. 2 (2011)

Posted By:
Christine Schäfer, Graham Johnson - Johannes Brahms: The Complete Songs, Vol. 2 (2011)

Christine Schäfer, Graham Johnson - Johannes Brahms: The Complete Songs, Vol. 2 (2011)
EAC | FLAC | Image (Cue & Log) ~ 247 Mb | Total time: 75:37 | Scans included
Classical | Label: Hyperion | CDJ33122 | Recorded: 2010

Following the iconic series of the complete songs of Schubert and Schumann, Graham Johnson’s latest enterprise traverses the complete songs of Brahms. He is joined here on Volume 2 by the wonderful Christine Schäfer, whose contribution to the Schumann song series won a prestigious Gramophone Award.
Each volume in the series takes us on a journey through Brahms’s career, from youthful settings to songs of maturity. Volume 2 includes a selection of delightful Mädchenlieder and concludes with a handful of Brahms’s intimate folksong settings.
Discerningly partnered by Graham Johnson, Christine Schäfer is in perfect voice. She sings with a pure, luminous tone, crystal clear diction and eloquent phrasing, making this a superb recital in its own right. As part of the wider survey of the complete songs of Brahms, it will take an essential place in any Lieder-lover’s collection.

Performer:
Christine Schäfer, soprano
Graham Johnson, piano

Track List:
01. Juchhe!, Op. 6/4
02. Wie die Wolke nach der Sonne, Op. 6/5
03. Die Müllerin, Anh. 3/13
04. Die Libende schreibt, Op. 47/5
05. Wenn du nur zuweilen lächelst, Op. 57/2
06. Es träumte mir, ich sei dir teuer, Op. 57/3
07. Ach, wende diesen Blick, Op. 57/4
08. Strahlt zuweilen auch ein mildes Licht, Op. 57/6
09. Die Schnur, die Perl an Perle, Op. 57/7
10. Regenlied, WoO 23
11. Regenlied, Op. 59/3
12. Nachklang, Op. 59/4
Ophelia-Lieder, WoO 22
13 Wie erkenn ich dein Treulieb
14. Sein Leichenhemd weiss
15. Auf morgen ist Sankt Valentins Tag
16. Sie trugen ihn auf der Bahre bloss
17. Und kommt er nicht mehr zurück?
18. Klage Ach, mir fehlt, Op. 69/1
19. Klage O Felsen, lieber Felsen, Op. 69/2
20. Abschied, Op. 69/3
21. Des Liebsten Schwur, Op. 69/4
22. Mädchenlied, Op. 95/6
23. Mädchenlied, Op. 85/3
24. Mädchenlied, Op. 107/5
25. Das Mädchen spricht, Op. 107/3
26. Mädchenfluch, Op. 69/9
27. Das Mädchen, Op. 95/1
28. Guten Abend, mein tausiger Schatz, WoO 33/4
29. Gunhilde lebt gar stille und fromm, WoO 33/7
30. Nur ein Gesicht auf Erden lebt, WoO 33/19
31. Schönster Schatz, mein Engel, WoO 33/20
32. Soll sich der Mond nicht heller scheinen, WoO 33/35
33. Es wohnet ein Fiedler, WoO 33/36


Exact Audio Copy V1.5 from 20. February 2020

EAC extraction logfile from 16. November 2020, 12:50

Christine Schäfer / The Songs of Johannes Brahms, Vol. 2

Used drive : HL-DT-STDVDRAM GH24NSD5 Adapter: 1 ID: 0

Read mode : Secure
Utilize accurate stream : Yes
Defeat audio cache : Yes
Make use of C2 pointers : No

Read offset correction : 6
Overread into Lead-In and Lead-Out : No
Fill up missing offset samples with silence : Yes
Delete leading and trailing silent blocks : No
Null samples used in CRC calculations : Yes
Used interface : Native Win32 interface for Win NT & 2000

Used output format : User Defined Encoder
Selected bitrate : 896 kBit/s
Quality : High
Add ID3 tag : No
Command line compressor : C:\Program Files (x86)\Exact Audio Copy\FLAC\FLAC.EXE
Additional command line options : -6 -V -T "ARTIST=%artist%" -T "TITLE=%title%" -T "ALBUM=%albumtitle%" -T "DATE=%year%" -T "TRACKNUMBER=%tracknr%" -T "GENRE=%genre%" -T "COMMENT=%comment%" -T "BAND=%albuminterpret%" -T "ALBUMARTIST=%albuminterpret%" -T "COMPOSER=%composer%" %haslyrics%–tag-from-file=LYRICS="%lyricsfile%"%haslyrics% -T "DISCNUMBER=%cdnumber%" -T "TOTALDISCS=%totalcds%" -T "TOTALTRACKS=%numtracks%" %hascover%–picture="%coverfile%"%hascover% %source% -o %dest%


TOC of the extracted CD

Track | Start | Length | Start sector | End sector
––––––––––––––––––––––––––––-
1 | 0:00.00 | 2:18.15 | 0 | 10364
2 | 2:18.15 | 2:34.38 | 10365 | 21952
3 | 4:52.53 | 1:52.74 | 21953 | 30426
4 | 6:45.52 | 2:33.07 | 30427 | 41908
5 | 9:18.59 | 1:40.66 | 41909 | 49474
6 | 10:59.50 | 2:42.25 | 49475 | 61649
7 | 13:42.00 | 2:03.37 | 61650 | 70911
8 | 15:45.37 | 1:37.12 | 70912 | 78198
9 | 17:22.49 | 2:44.19 | 78199 | 90517
10 | 20:06.68 | 2:08.43 | 90518 | 100160
11 | 22:15.36 | 5:11.51 | 100161 | 123536
12 | 27:27.12 | 1:54.73 | 123537 | 132159
13 | 29:22.10 | 0:51.32 | 132160 | 136016
14 | 30:13.42 | 0:45.32 | 136017 | 139423
15 | 30:58.74 | 0:52.69 | 139424 | 143392
16 | 31:51.68 | 0:56.24 | 143393 | 147616
17 | 32:48.17 | 1:47.53 | 147617 | 155694
18 | 34:35.70 | 2:23.09 | 155695 | 166428
19 | 36:59.04 | 3:44.52 | 166429 | 183280
20 | 40:43.56 | 2:01.02 | 183281 | 192357
21 | 42:44.58 | 2:51.21 | 192358 | 205203
22 | 45:36.04 | 1:32.56 | 205204 | 212159
23 | 47:08.60 | 2:01.13 | 212160 | 221247
24 | 49:09.73 | 1:47.40 | 221248 | 229312
25 | 50:57.38 | 1:26.21 | 229313 | 235783
26 | 52:23.59 | 3:33.60 | 235784 | 251818
27 | 55:57.44 | 2:23.48 | 251819 | 262591
28 | 58:21.17 | 3:18.29 | 262592 | 277470
29 | 61:39.46 | 4:40.27 | 277471 | 298497
30 | 66:19.73 | 2:20.41 | 298498 | 309038
31 | 68:40.39 | 2:07.00 | 309039 | 318563
32 | 70:47.39 | 3:19.36 | 318564 | 333524
33 | 74:07.00 | 1:29.36 | 333525 | 340235


Range status and errors

Selected range

Filename I:\Rips\Brahms - The Songs Vol 2 - Schäfer, Johnson\Christine Schäfer - The Songs of Johannes Brahms, Vol. 2.wav

Peak level 90.5 %
Extraction speed 7.7 X
Range quality 100.0 %
Test CRC AE22FF5C
Copy CRC AE22FF5C
Copy OK

No errors occurred


AccurateRip summary

Track 1 accurately ripped (confidence 12) [726CA136] (AR v2)
Track 2 accurately ripped (confidence 12) [987BBF2C] (AR v2)
Track 3 accurately ripped (confidence 12) [721B585A] (AR v2)
Track 4 accurately ripped (confidence 12) [DC318155] (AR v2)
Track 5 accurately ripped (confidence 12) [D92E1D0B] (AR v2)
Track 6 accurately ripped (confidence 12) [5B89E3AC] (AR v2)
Track 7 accurately ripped (confidence 12) [A6406AAD] (AR v2)
Track 8 accurately ripped (confidence 12) [731B40B8] (AR v2)
Track 9 accurately ripped (confidence 12) [D0EDF2E0] (AR v2)
Track 10 accurately ripped (confidence 12) [C70DE585] (AR v2)
Track 11 accurately ripped (confidence 12) [A71F6B4B] (AR v2)
Track 12 accurately ripped (confidence 12) [CFC00CBA] (AR v2)
Track 13 accurately ripped (confidence 12) [139DD77D] (AR v2)
Track 14 accurately ripped (confidence 12) [2B37F886] (AR v2)
Track 15 accurately ripped (confidence 12) [2928F006] (AR v2)
Track 16 accurately ripped (confidence 12) [64AF1CC8] (AR v2)
Track 17 accurately ripped (confidence 12) [32D555F0] (AR v2)
Track 18 accurately ripped (confidence 12) [1C45A4A9] (AR v2)
Track 19 accurately ripped (confidence 12) [7F010FB8] (AR v2)
Track 20 accurately ripped (confidence 12) [1B7C188E] (AR v2)
Track 21 accurately ripped (confidence 12) [96648A0C] (AR v2)
Track 22 accurately ripped (confidence 12) [0D4F9F3D] (AR v2)
Track 23 accurately ripped (confidence 12) [139BDCEF] (AR v2)
Track 24 accurately ripped (confidence 12) [F8773261] (AR v2)
Track 25 accurately ripped (confidence 12) [E84385C5] (AR v2)
Track 26 accurately ripped (confidence 12) [0594BDD2] (AR v2)
Track 27 accurately ripped (confidence 12) [28459391] (AR v2)
Track 28 accurately ripped (confidence 12) [2C742EDB] (AR v2)
Track 29 accurately ripped (confidence 12) [9F148EC2] (AR v2)
Track 30 accurately ripped (confidence 12) [76E18B19] (AR v2)
Track 31 accurately ripped (confidence 12) [7C54B8D0] (AR v2)
Track 32 accurately ripped (confidence 12) [8C3F6B0F] (AR v2)
Track 33 accurately ripped (confidence 12) [3052F09D] (AR v2)

All tracks accurately ripped

End of status report

–– CUETools DB Plugin V2.1.6

[CTDB TOCID: 22BNksEK2MICBEUbnKmyqTad6XY-] found
Submit result: 22BNksEK2MICBEUbnKmyqTad6XY- has been confirmed
Track | CTDB Status
1 | (14/14) Accurately ripped
2 | (14/14) Accurately ripped
3 | (14/14) Accurately ripped
4 | (14/14) Accurately ripped
5 | (14/14) Accurately ripped
6 | (14/14) Accurately ripped
7 | (14/14) Accurately ripped
8 | (14/14) Accurately ripped
9 | (14/14) Accurately ripped
10 | (14/14) Accurately ripped
11 | (14/14) Accurately ripped
12 | (14/14) Accurately ripped
13 | (14/14) Accurately ripped
14 | (14/14) Accurately ripped
15 | (14/14) Accurately ripped
16 | (14/14) Accurately ripped
17 | (14/14) Accurately ripped
18 | (14/14) Accurately ripped
19 | (14/14) Accurately ripped
20 | (14/14) Accurately ripped
21 | (14/14) Accurately ripped
22 | (14/14) Accurately ripped
23 | (14/14) Accurately ripped
24 | (14/14) Accurately ripped
25 | (14/14) Accurately ripped
26 | (14/14) Accurately ripped
27 | (14/14) Accurately ripped
28 | (14/14) Accurately ripped
29 | (14/14) Accurately ripped
30 | (14/14) Accurately ripped
31 | (14/14) Accurately ripped
32 | (14/14) Accurately ripped
33 | (14/14) Accurately ripped


==== Log checksum EA6658DDBD0C64B4321539644BE2F0534104D6C86FAC2EC91B2BAAF6476C8D7A ====

Christine Schäfer, Graham Johnson - Johannes Brahms: The Complete Songs, Vol. 2 (2011)

Thanks to the original releaser