Subcategories

Christophe Coin, The Academy of Ancient Music, Christopher Hogwood - Antonio Vivaldi: 6 Cello Concertos (1989)

Posted By: Designol
Christophe Coin, The Academy of Ancient Music, Christopher Hogwood - Antonio Vivaldi: 6 Cello Concertos (1989)

Antonio Vivaldi: 6 Cello Concertos (1989)
Christophe Coin, cello; The Academy of Ancient Music; Christopher Hogwood, conductor

EAC | FLAC | Tracks (Cue&Log) ~ 261 Mb | Mp3 (CBR320) ~ 133 Mb | Scans ~ 47 Mb
Classical, Baroque | Label: Decca, L'Oiseau-Lyre | # 421 732-2 | 00:57:32

Following his attractive performance of six of Vivaldi's cello sonatas, Christophe Coin has recorded six of the composer's 24 or so concertos for the instrument. Five of these, Michael Talbot tells us in an interesting accompanying note, probably belong to the 1720s while the sixth, the Concerto in G minor (RV416), is evidently a much earlier work. Coin has chosen, if I may use the expression somewhat out of its usual context, six of the best and plays them with virtuosity and an affecting awareness of their lyrical content. That quality, furthermore, is not confined to slow movements but occurs frequently in solo passages of faster ones, too.

It would be difficult to single out any one work among the six for particular praise. My own favourite has long been the happily spirited Concerto in G major (RV413) with which Coin ends his programme. In certain respects this would seem to be among the latest of the six in composition. Coin takes the opening movement briskly but not at the breakneck speed with which Anner Bylsma recently despatched it in a London concert, to no useful purpose that I could see. Here the beguiling charm of the music, with its feminine endings, is realized by Coin whose technique discovers many nuances in the piece. I felt, however, that the upper strings of the dance-like tuttis were in danger of being swamped by the cello and bass. Here, and in numerous other instances, Coin allows Vivaldi's melodies to unfold gracefully and to sing; and sing they certainly do for this writing is in no sense second best to the composer's violin writing. Vivaldi takes the cello through a wide tessitura ranging from bass to treble; indeed, some of the loveliest writing here lies in the tenor register where Vivaldi explores the lyrical possibilities of the instrument with great assurance. Striking, too, is the sheer variety of melodic and rhythmic ideas, not only in the solos but also in the tuttis. A colleague of mine said recently that although he acknowledged that Vivaldi sometimes had good ideas he seemed incapable of doing anything with them. He could do worse than turn his attention to these concertos to redress his ill-founded judgement.

In short, this is a first-rate issue. Coin approaches the music lovingly and with insight and is sympathetically supported by the small string ensemble which, in this instance, comprises the Academy of Ancient Music. It is probably too much to hope that L'Oiseau-Lyre will approach these artists to record another group of Vivaldi's cello concertos; but it would be a welcome departure from the senseless over-exposure of works by him which are, in some instances, of considerably less merit. Strongly recommended.

Review by Nicholas Anderson, Gramophone Magazine

Vivaldi's treasure trove of twenty-four concertos for cello is represented here by a luscious six, and played exquisitely on authentic instruments. The Academy of Ancient Music, with director Hogwood also at the harpsichord, brings its usual signature joie de vivre to these works, and with such a perceptive, subtle and talented cellist as Christophe Coin, this collection is a beauty. The concertos themselves, most written during the 1720s, the latter part of Vivaldi's life [1678-1741], are winning creations, replete with stunning lyricism, rhythmic verve and ceaseless invention. And with the inclusion of four minor key compositions that air the composer's frequently repressed introspective nature–- making the slow movements all the more poignant–- listening becomes a special treat. The combination of Vivaldi's splendid music, playing of the utmost sensitivity and finesse, and gorgeous recorded sound, makes this CD absolutely self-recommending.

Review by Melvyn M. Sobel

Christophe Coin, The Academy of Ancient Music, Christopher Hogwood - Antonio Vivaldi: 6 Cello Concertos (1989)



Christophe Coin, The Academy of Ancient Music, Christopher Hogwood - Antonio Vivaldi: 6 Cello Concertos (1989)



Christophe Coin, The Academy of Ancient Music, Christopher Hogwood - Antonio Vivaldi: 6 Cello Concertos (1989)



Christophe Coin, cello
The Academy of Ancient Music
Christopher Hogwood, conductor, organ, harpsichord

Recorded: Henry Wood Hall, London, April 1988.

Tracklist:

Concerto in B minor RV 424
01. I. Allegro non molto (4:02)
02. II. Largo (2:50)
03. III. Allegro (3:33)

Concerto in G minor RV 416
04. I. Allegro (3:32)
05. II. Adagio (3:20)
06. III. Allegro (2:41)

Concerto in A minor RV 418
07. I. Allegro (4:13)
08. II. (Largo) (3:10)
09. III. Allegro (3:12)

Concerto in F major RV 412
10. I. (Allegro) (2:51)
11. II. Larghetto (2:13)
12. III. Allegro (2:18)

Concerto in C minor RV 401
13. I. Allegro non molto (4:29)
14. II. Adagio (3:08)
15. III. Allegro ma non molto (2:45)

Concerto in G major RV 413
16. I. Allegro (3:11)
17. II. Largo (3:11)
18. III. Allegro (2:54)


Exact Audio Copy V0.99 prebeta 4 from 23. January 2008

EAC extraction logfile from 14. April 2010, 18:37

Antonio Vivaldi / 6 Cellos Concertos

Used drive : PIONEER DVD-RW DVR-112D Adapter: 0 ID: 0

Read mode : Secure
Utilize accurate stream : Yes
Defeat audio cache : Yes
Make use of C2 pointers : No

Read offset correction : 48
Overread into Lead-In and Lead-Out : No
Fill up missing offset samples with silence : Yes
Delete leading and trailing silent blocks : No
Null samples used in CRC calculations : Yes
Used interface : Native Win32 interface for Win NT & 2000
Gap handling : Appended to previous track

Used output format : User Defined Encoder
Selected bitrate : 768 kBit/s
Quality : High
Add ID3 tag : No
Command line compressor : C:\Program Files\Exact Audio Copy\FLAC\FLAC.EXE
Additional command line options : -6 -V -T "ARTIST=%a" -T "TITLE=%t" -T "ALBUM=%g" -T "DATE=%y" -T "TRACKNUMBER=%n" -T "GENRE=%m" -T "COMMENT=%e" %s -o %d


TOC of the extracted CD

Track | Start | Length | Start sector | End sector
––––––––––––––––––––––––––––-
1 | 0:00.32 | 4:01.38 | 32 | 18144
2 | 4:01.70 | 2:50.12 | 18145 | 30906
3 | 6:52.07 | 3:32.70 | 30907 | 46876
4 | 10:25.02 | 3:31.55 | 46877 | 62756
5 | 13:56.57 | 3:20.30 | 62757 | 77786
6 | 17:17.12 | 2:41.03 | 77787 | 89864
7 | 19:58.15 | 4:13.22 | 89865 | 108861
8 | 24:11.37 | 3:09.63 | 108862 | 123099
9 | 27:21.25 | 3:12.12 | 123100 | 137511
10 | 30:33.37 | 2:50.70 | 137512 | 150331
11 | 33:24.32 | 2:13.13 | 150332 | 160319
12 | 35:37.45 | 2:17.60 | 160320 | 170654
13 | 37:55.30 | 4:29.25 | 170655 | 190854
14 | 42:24.55 | 3:07.67 | 190855 | 204946
15 | 45:32.47 | 2:44.58 | 204947 | 217304
16 | 48:17.30 | 3:11.00 | 217305 | 231629
17 | 51:28.30 | 3:10.40 | 231630 | 245919
18 | 54:38.70 | 2:53.52 | 245920 | 258946


Track 1

Filename E:\MUSIC\Vivaldi - Six Cello Concertos - Coin, Hogwood, AAM\01 - Concerto in B minor RV 424 - I - Allegro non molto - Antonio Vivaldi.wav

Pre-gap length 0:00:02.32

Peak level 48.6 %
Track quality 100.0 %
Copy CRC B354C57F
Accurately ripped (confidence 30) [987048C7]
Copy OK

Track 2

Filename E:\MUSIC\Vivaldi - Six Cello Concertos - Coin, Hogwood, AAM\02 - Concerto in B minor RV 424 - II - Largo - Antonio Vivaldi.wav

Pre-gap length 0:00:00.70

Peak level 28.0 %
Track quality 100.0 %
Copy CRC 04BCD80A
Accurately ripped (confidence 30) [DD17019E]
Copy OK

Track 3

Filename E:\MUSIC\Vivaldi - Six Cello Concertos - Coin, Hogwood, AAM\03 - Concerto in B minor RV 424 - III - Allegro - Antonio Vivaldi.wav

Peak level 46.5 %
Track quality 100.0 %
Copy CRC 870B916F
Accurately ripped (confidence 30) [0A4A7845]
Copy OK

Track 4

Filename E:\MUSIC\Vivaldi - Six Cello Concertos - Coin, Hogwood, AAM\04 - Concerto in G minor RV 416 - I - Allegro - Antonio Vivaldi.wav

Pre-gap length 0:00:02.60

Peak level 54.5 %
Track quality 100.0 %
Copy CRC D0F29DFF
Accurately ripped (confidence 30) [F6321336]
Copy OK

Track 5

Filename E:\MUSIC\Vivaldi - Six Cello Concertos - Coin, Hogwood, AAM\05 - Concerto in G minor RV 416 - II - Adagio - Antonio Vivaldi.wav

Peak level 42.6 %
Track quality 100.0 %
Copy CRC FC7FC899
Accurately ripped (confidence 30) [889B3940]
Copy OK

Track 6

Filename E:\MUSIC\Vivaldi - Six Cello Concertos - Coin, Hogwood, AAM\06 - Concerto in G minor RV 416 - III - Allegro - Antonio Vivaldi.wav

Peak level 58.8 %
Track quality 99.9 %
Copy CRC 15A1DD8A
Accurately ripped (confidence 30) [48451A5C]
Copy OK

Track 7

Filename E:\MUSIC\Vivaldi - Six Cello Concertos - Coin, Hogwood, AAM\07 - Concerto in A minor RV 418 - I - Allegro - Antonio Vivaldi.wav

Pre-gap length 0:00:01.30

Peak level 55.2 %
Track quality 100.0 %
Copy CRC DEA1BD47
Accurately ripped (confidence 30) [9BEE1213]
Copy OK

Track 8

Filename E:\MUSIC\Vivaldi - Six Cello Concertos - Coin, Hogwood, AAM\08 - Concerto in A minor RV 418 - II - (Largo) - Antonio Vivaldi.wav

Peak level 27.4 %
Track quality 100.0 %
Copy CRC CEC9897E
Accurately ripped (confidence 31) [92FEA285]
Copy OK

Track 9

Filename E:\MUSIC\Vivaldi - Six Cello Concertos - Coin, Hogwood, AAM\09 - Concerto in A minor RV 418 - III - Allegro - Antonio Vivaldi.wav

Peak level 58.3 %
Track quality 100.0 %
Copy CRC F3C90537
Accurately ripped (confidence 31) [4220451D]
Copy OK

Track 10

Filename E:\MUSIC\Vivaldi - Six Cello Concertos - Coin, Hogwood, AAM\10 - Concerto in F major RV 412 - I - (Allegro) - Antonio Vivaldi.wav

Pre-gap length 0:00:04.17

Peak level 62.6 %
Track quality 100.0 %
Copy CRC 309E8EE5
Accurately ripped (confidence 31) [688B88C2]
Copy OK

Track 11

Filename E:\MUSIC\Vivaldi - Six Cello Concertos - Coin, Hogwood, AAM\11 - Concerto in F major RV 412 - II - Larghetto - Antonio Vivaldi.wav

Peak level 31.3 %
Track quality 99.9 %
Copy CRC 7CDC26E1
Accurately ripped (confidence 31) [D9FEAB23]
Copy OK

Track 12

Filename E:\MUSIC\Vivaldi - Six Cello Concertos - Coin, Hogwood, AAM\12 - Concerto in F major RV 412 - III - Allegro - Antonio Vivaldi.wav

Peak level 48.3 %
Track quality 99.9 %
Copy CRC 5C5272AD
Accurately ripped (confidence 31) [BC52C3B3]
Copy OK

Track 13

Filename E:\MUSIC\Vivaldi - Six Cello Concertos - Coin, Hogwood, AAM\13 - Concerto in C minor RV 401 - I - Allegro non molto - Antonio Vivaldi.wav

Pre-gap length 0:00:03.05

Peak level 56.6 %
Track quality 100.0 %
Copy CRC F8A9CFBE
Accurately ripped (confidence 30) [ADC1FB27]
Copy OK

Track 14

Filename E:\MUSIC\Vivaldi - Six Cello Concertos - Coin, Hogwood, AAM\14 - Concerto in C minor RV 401 - II - Adagio - Antonio Vivaldi.wav

Pre-gap length 0:00:00.30

Peak level 25.5 %
Track quality 100.0 %
Copy CRC B9E8EC23
Accurately ripped (confidence 31) [3770DB29]
Copy OK

Track 15

Filename E:\MUSIC\Vivaldi - Six Cello Concertos - Coin, Hogwood, AAM\15 - Concerto in C minor RV 401 - III - Allegro ma non molto - Antonio Vivaldi.wav

Peak level 55.3 %
Track quality 100.0 %
Copy CRC 06D88A2A
Accurately ripped (confidence 30) [59B8CF1B]
Copy OK

Track 16

Filename E:\MUSIC\Vivaldi - Six Cello Concertos - Coin, Hogwood, AAM\16 - Concerto in G major RV 413 - I - Allegro - Antonio Vivaldi.wav

Pre-gap length 0:00:01.65

Peak level 47.5 %
Track quality 100.0 %
Copy CRC 3EF7CF3D
Accurately ripped (confidence 30) [E7EC2D29]
Copy OK

Track 17

Filename E:\MUSIC\Vivaldi - Six Cello Concertos - Coin, Hogwood, AAM\17 - Concerto in G major RV 413 - II - Largo - Antonio Vivaldi.wav

Pre-gap length 0:00:00.13

Peak level 27.3 %
Track quality 100.0 %
Copy CRC 08D50EDB
Accurately ripped (confidence 30) [E9933FE6]
Copy OK

Track 18

Filename E:\MUSIC\Vivaldi - Six Cello Concertos - Coin, Hogwood, AAM\18 - Concerto in G major RV 413 - III - Allegro - Antonio Vivaldi.wav

Peak level 47.7 %
Track quality 99.9 %
Copy CRC 9FD4D82A
Accurately ripped (confidence 30) [DE940C48]
Copy OK


All tracks accurately ripped

No errors occurred

End of status report

[CUETools log; Date: 07.09.2017 19:56:58; Version: 2.1.4]
Pregap length 00:00:32.
[CTDB TOCID: Aizp5QSOTc5Oatw.K88xNcVSwiU-] found.
Track | CTDB Status
1 | ( 55/102) Accurately ripped, or (43/102) differs in 768 samples @00:26:42,00:30:04,00:30:38,00:31:42,00:32:11,00:33:23,00:33:31-00:33:32,00:33:40-00:33:41,00:33:49,00:34:09,00:35:47-00:35:48,00:37:46,00:38:42,00:38:50-00:38:51,00:39:28,00:39:36-00:39:37,00:43:17,00:43:44,00:43:52-00:43:53,00:44:31,00:45:16-00:45:17,00:45:26,00:45:52
2 | (101/102) Accurately ripped
3 | (101/102) Accurately ripped
4 | (101/102) Accurately ripped
5 | (100/102) Accurately ripped
6 | (101/102) Accurately ripped
7 | (100/102) Accurately ripped
8 | (101/102) Accurately ripped
9 | (100/102) Accurately ripped
10 | (101/102) Accurately ripped
11 | (101/102) Accurately ripped
12 | (101/102) Accurately ripped
13 | (100/102) Accurately ripped, or (1/102) differs in 1952 samples @00:41:09-00:41:10,00:41:58-00:41:59,00:44:28-00:44:29,00:45:50-00:45:51,00:45:67-00:45:68,00:46:24-00:46:25,00:46:57,00:46:73-00:46:74,00:48:04-00:48:05,00:48:20-00:48:21,00:48:69-00:48:70,00:51:39-00:51:40,00:54:58-00:54:59,00:55:15-00:55:16,01:04:24,01:05:30,01:05:63,01:06:69,01:07:11,01:08:33,01:10:30,01:38:70-01:38:71,01:41:09-01:41:10,01:42:49-01:42:50,01:44:30-01:44:31,02:14:47,02:15:21-02:15:22,02:15:37,02:16:61-02:16:62
14 | (101/102) Accurately ripped
15 | ( 53/102) Accurately ripped, or (43/102) differs in 33 samples @01:01:65,01:13:53,01:15:43,01:30:34
16 | ( 99/102) Accurately ripped
17 | (100/102) Accurately ripped
18 | ( 99/102) Accurately ripped
[AccurateRip ID: 00268e23-01fd63ba-f10d7c12] found.
Track [ CRC | V2 ] Status
01 [987048c7|850cc7ff] (049+054/156) Accurately ripped
02 [dd17019e|4636125f] (051+054/157) Accurately ripped
03 [0a4a7845|ec18a278] (051+054/158) Accurately ripped
04 [f6321336|3d23daf9] (051+054/158) Accurately ripped
05 [889b3940|d6ec4521] (050+054/157) Accurately ripped
06 [48451a5c|605dceec] (051+055/159) Accurately ripped
07 [9bee1213|013ba1e9] (051+055/157) Accurately ripped
08 [92fea285|44063e9c] (052+054/159) Accurately ripped
09 [4220451d|ff100c4c] (052+055/159) Accurately ripped
10 [688b88c2|a11e0cc7] (052+055/160) Accurately ripped
11 [d9feab23|4442f1eb] (052+054/159) Accurately ripped
12 [bc52c3b3|f175dfa0] (052+055/160) Accurately ripped
13 [adc1fb27|4f079b73] (051+054/158) Accurately ripped
14 [3770db29|3c5726ab] (052+053/158) Accurately ripped
15 [59b8cf1b|37bcba1d] (051+055/159) Accurately ripped
16 [e7ec2d29|95555a51] (050+053/156) Accurately ripped
17 [e9933fe6|d8b731d4] (050+051/154) Accurately ripped
18 [de940c48|ebb00444] (050+052/155) Accurately ripped
Offsetted by -1250:
01 [0b9bc38a] (002/156) Accurately ripped
02 [6f1f4856] (002/157) Accurately ripped
03 [9c618bcc] (002/158) Accurately ripped
04 [cd62710a] (002/158) Accurately ripped
05 [896a8357] (002/157) Accurately ripped
06 [251fb3ce] (002/159) Accurately ripped
07 [8a4b8cac] (002/157) Accurately ripped
08 [3c7e19b7] (002/159) Accurately ripped
09 [a950ddb3] (002/159) Accurately ripped
10 [0b592266] (002/160) Accurately ripped
11 [57424f4e] (002/159) Accurately ripped
12 [c1826a4c] (002/160) Accurately ripped
13 [66e450a8] (002/158) Accurately ripped
14 [4ab5bfb0] (002/158) Accurately ripped
15 [3aa0f1d9] (002/159) Accurately ripped
16 [da168dd2] (002/156) Accurately ripped
17 [2280f7d2] (002/154) Accurately ripped
18 [fac44f51] (002/155) Accurately ripped
Offsetted by -1331:
01 [87371a2b] (000/156) No match (V2 was not tested)
02 [60d219dd] (011/157) Accurately ripped
03 [fad3a703] (011/158) Accurately ripped
04 [c4d5a344] (011/158) Accurately ripped
05 [47103283] (011/157) Accurately ripped
06 [a7d90277] (011/159) Accurately ripped
07 [3c6dda5f] (011/157) Accurately ripped
08 [a935a8e2] (011/159) Accurately ripped
09 [024f127d] (011/159) Accurately ripped
10 [e996e725] (011/160) Accurately ripped
11 [976c4283] (011/159) Accurately ripped
12 [2486f463] (011/160) Accurately ripped
13 [02ecaa51] (011/158) Accurately ripped
14 [5c9ff189] (011/158) Accurately ripped
15 [dfcf4c97] (000/159) No match (V2 was not tested)
16 [623fd799] (011/156) Accurately ripped
17 [855748f4] (011/154) Accurately ripped
18 [ce65e836] (011/155) Accurately ripped
Offsetted by -667:
01 [61d3ddd1] (000/156) No match (V2 was not tested)
02 [8d8dde05] (003/157) Accurately ripped
03 [9ed185a6] (003/158) Accurately ripped
04 [8a05bc87] (003/158) Accurately ripped
05 [c482db4c] (003/157) Accurately ripped
06 [747d42b7] (003/159) Accurately ripped
07 [333ef726] (003/157) Accurately ripped
08 [d538dba4] (003/159) Accurately ripped
09 [b047d451] (003/159) Accurately ripped
10 [28c4db38] (003/160) Accurately ripped
11 [2a07cbac] (003/159) Accurately ripped
12 [803569a0] (003/160) Accurately ripped
13 [4026ce18] (003/158) Accurately ripped
14 [aa704017] (003/158) Accurately ripped
15 [c53263f8] (000/159) No match (V2 was not tested)
16 [c01d3383] (003/156) Accurately ripped
17 [f037e84c] (003/154) Accurately ripped
18 [ba48189c] (003/155) Accurately ripped

Track Peak [ CRC32 ] [W/O NULL] [ LOG ]
– 62,6 [2CB81CA5] [8FF3C39A]
01 48,6 [B354C57F] [B8730132] CRC32
02 28,0 [04BCD80A] [E8D2EC66] CRC32
03 46,5 [870B916F] [2F2BF52A] CRC32
04 54,5 [D0F29DFF] [C4ED317B] CRC32
05 42,6 [FC7FC899] [A0651806] CRC32
06 58,8 [15A1DD8A] [8622100B] CRC32
07 55,2 [DEA1BD47] [0DA49DBB] CRC32
08 27,4 [CEC9897E] [5372D0B5] CRC32
09 58,3 [F3C90537] [32A6D23C] CRC32
10 62,6 [309E8EE5] [9D879FF9] CRC32
11 31,3 [7CDC26E1] [C488C7AF] CRC32
12 48,3 [5C5272AD] [F70C3121] CRC32
13 56,6 [F8A9CFBE] [C220E5DD] CRC32
14 25,5 [B9E8EC23] [1F7889EC] CRC32
15 55,3 [06D88A2A] [8AEFD9CF] CRC32
16 47,5 [3EF7CF3D] [A1175F2A] CRC32
17 27,3 [08D50EDB] [C0D19FDE] CRC32
18 47,7 [9FD4D82A] [1DEDFF43] CRC32

foobar2000 1.2 / Dynamic Range Meter 1.1.1
log date: 2017-09-07 19:37:09

––––––––––––––––––––––––––––––––––––––––
Analyzed: Antonio Vivaldi / 6 Cellos Concertos
––––––––––––––––––––––––––––––––––––––––

DR Peak RMS Duration Track
––––––––––––––––––––––––––––––––––––––––
DR13 -6.26 dB -23.30 dB 4:02 01-Concerto in B minor RV 424 - I - Allegro non molto
DR10 -11.05 dB -26.21 dB 2:50 02-Concerto in B minor RV 424 - II - Largo
DR13 -6.65 dB -23.16 dB 3:33 03-Concerto in B minor RV 424 - III - Allegro
DR13 -5.26 dB -21.98 dB 3:32 04-Concerto in G minor RV 416 - I - Allegro
DR14 -7.39 dB -27.14 dB 3:20 05-Concerto in G minor RV 416 - II - Adagio
DR14 -4.60 dB -22.19 dB 2:41 06-Concerto in G minor RV 416 - III - Allegro
DR14 -5.15 dB -23.00 dB 4:13 07-Concerto in A minor RV 418 - I - Allegro
DR10 -11.22 dB -26.70 dB 3:10 08-Concerto in A minor RV 418 - II - (Largo)
DR13 -4.68 dB -23.75 dB 3:12 09-Concerto in A minor RV 418 - III - Allegro
DR15 -4.06 dB -23.31 dB 2:51 10-Concerto in F major RV 412 - I - (Allegro)
DR13 -10.08 dB -27.97 dB 2:13 11-Concerto in F major RV 412 - II - Larghetto
DR14 -6.32 dB -23.76 dB 2:18 12-Concerto in F major RV 412 - III - Allegro
DR12 -4.94 dB -20.93 dB 4:29 13-Concerto in C minor RV 401 - I - Allegro non molto
DR11 -11.86 dB -28.44 dB 3:08 14-Concerto in C minor RV 401 - II - Adagio
DR13 -5.14 dB -22.04 dB 2:45 15-Concerto in C minor RV 401 - III - Allegro ma non molto
DR14 -6.46 dB -24.56 dB 3:11 16-Concerto in G major RV 413 - I - Allegro
DR13 -11.26 dB -28.08 dB 3:11 17-Concerto in G major RV 413 - II - Largo
DR13 -6.42 dB -24.08 dB 2:54 18-Concerto in G major RV 413 - III - Allegro
––––––––––––––––––––––––––––––––––––––––

Number of tracks: 18
Official DR value: DR13

Samplerate: 44100 Hz
Channels: 2
Bits per sample: 16
Bitrate: 679 kbps
Codec: FLAC
================================================================================

Christophe Coin, The Academy of Ancient Music, Christopher Hogwood - Antonio Vivaldi: 6 Cello Concertos (1989)

Christophe Coin, The Academy of Ancient Music, Christopher Hogwood - Antonio Vivaldi: 6 Cello Concertos (1989)