Subcategories

Chuck Mangione - The Best Of Chuck Mangione (2004)

Posted By: Designol
Chuck Mangione - The Best Of Chuck Mangione (2004)

Chuck Mangione - The Best Of Chuck Mangione (2004)
EAC | FLAC | Image (Cue&Log) ~ 466 Mb | Mp3 (CBR320) ~ 176 Mb | Scans included
Smooth Jazz, Crossover Jazz, Jazz-Pop | Label: Columbia/Legacy | # CK 86345 | 01:14:56

The Best of Chuck Mangione collects various tracks from the smooth jazz pioneer's '80s Columbia recordings. While not as influential as Mangione's '70s output, his '80s albums retain much of what made him so popular an artist – catchy hooks, lush production and his clear, crisp trumpet sound. Included are such standout tracks as "Journey to a Rainbow," "Love Bug Boogie" and "Memories of Scirocco." Oddly, a live version of "Land of Make Believe" and the single version of "Feels So Good" make it on to this collection. These '70s hits don't really belong here, but should satisfy casual fans looking for his most popular recordings alongside his mid-career stuff.

Review by Matt Collar, Allmusic.com

Chuck Mangione - The Best Of Chuck Mangione (2004)



Tracklist:

01. Journey To A Rainbow (07:00)
02. To The 80's (05:16)
03. Memories Of Scirocco (single) (03:43)
04. Do I Dare To Fall In Love (05:58)
05. Love Bug Boogie (05:51)
06. Sweet Butterfly (06:12)
07. Long Hair Soulful (06:38)
08. Eyes Of The Veiled Temptress (08:42)
09. Love Wears No Disguise (05:50)
10. Steppin' Out (single) (03:33)
11. Land Of Make Believe (Live) (12:26)
12. Feels So Good (single) (03:29)


Exact Audio Copy V1.0 beta 3 from 29. August 2011

EAC extraction logfile from 30. June 2013, 19:05

Chuck Mangione / The Best Of Chuck Mangione

Used drive : MATSHITADVD-RAM UJ-860H Adapter: 1 ID: 0

Read mode : Secure
Utilize accurate stream : Yes
Defeat audio cache : Yes
Make use of C2 pointers : No

Read offset correction : 102
Overread into Lead-In and Lead-Out : No
Fill up missing offset samples with silence : Yes
Delete leading and trailing silent blocks : No
Null samples used in CRC calculations : Yes
Used interface : Native Win32 interface for Win NT & 2000

Used output format : User Defined Encoder
Selected bitrate : 1024 kBit/s
Quality : High
Add ID3 tag : No
Command line compressor : C:\Program Files\Exact Audio Copy\FLAC\FLAC.EXE
Additional command line options : -V -8 -T "Date=%year%" -T "Genre=%genre%" %source%


TOC of the extracted CD

Track | Start | Length | Start sector | End sector
––––––––––––––––––––––––––––-
1 | 0:00.00 | 7:01.22 | 0 | 31596
2 | 7:01.22 | 5:17.48 | 31597 | 55419
3 | 12:18.70 | 3:44.12 | 55420 | 72231
4 | 16:03.07 | 5:58.55 | 72232 | 99136
5 | 22:01.62 | 5:51.58 | 99137 | 125519
6 | 27:53.45 | 6:14.10 | 125520 | 153579
7 | 34:07.55 | 6:39.52 | 153580 | 183556
8 | 40:47.32 | 8:44.55 | 183557 | 222911
9 | 49:32.12 | 5:52.48 | 222912 | 249359
10 | 55:24.60 | 3:34.45 | 249360 | 265454
11 | 58:59.30 | 12:26.70 | 265455 | 321474
12 | 71:26.25 | 3:29.62 | 321475 | 337211


Range status and errors

Selected range

Filename C:\Users\George Washington.GeorgeWashin-ПК\Documents\FLAC\Chuck Mangione - The Best Of Chuck Mangione\The Best Of Chuck Mangione.wav

Peak level 100.0 %
Extraction speed 2.7 X
Range quality 100.0 %
Test CRC A672C71F
Copy CRC A672C71F
Copy OK

No errors occurred


AccurateRip summary

Track 1 accurately ripped (confidence 5) [CD74FF0A] (AR v1)
Track 2 accurately ripped (confidence 5) [90F584CB] (AR v1)
Track 3 accurately ripped (confidence 5) [5A9602AC] (AR v1)
Track 4 accurately ripped (confidence 5) [9A84DB23] (AR v1)
Track 5 accurately ripped (confidence 5) [D44111CD] (AR v1)
Track 6 accurately ripped (confidence 5) [CA93840E] (AR v1)
Track 7 accurately ripped (confidence 5) [AD4F4A38] (AR v1)
Track 8 accurately ripped (confidence 5) [70C5BDBE] (AR v1)
Track 9 accurately ripped (confidence 5) [7FC9F54D] (AR v1)
Track 10 accurately ripped (confidence 5) [BC301BF2] (AR v1)
Track 11 accurately ripped (confidence 4) [4A1BDB05] (AR v1)
Track 12 accurately ripped (confidence 5) [99E3C6E6] (AR v1)

All tracks accurately ripped

End of status report

==== Log checksum 9981FB941A7A49025FA0DD4CAE0F2D25888C0B8F84EC8B31842F54AE3C78692B ====

foobar2000 1.2 / Dynamic Range Meter 1.1.1
log date: 2014-07-17 20:12:43

––––––––––––––––––––––––––––––––––––––––
Analyzed: Chuck Mangione / The Best Of Chuck Mangione
––––––––––––––––––––––––––––––––––––––––

DR Peak RMS Duration Track
––––––––––––––––––––––––––––––––––––––––
DR10 -0.51 dB -14.22 dB 7:01 01-Journey To A Rainbow
DR11 0.00 dB -13.96 dB 5:18 02-To The 80's
DR9 -0.01 dB -11.44 dB 3:44 03-Memories Of Scirocco (single)
DR12 -0.12 dB -14.66 dB 5:59 04-Do I Dare To Fall In Love
DR11 -0.51 dB -13.69 dB 5:52 05-Love Bug Boogie
DR15 0.00 dB -17.56 dB 6:14 06-Sweet Butterfly
DR16 -0.51 dB -18.05 dB 6:40 07-Long Hair Soulful
DR11 0.00 dB -14.10 dB 8:45 08-Eyes Of The Veiled Temptress
DR11 -0.51 dB -13.61 dB 5:53 09-Love Wears No Disguise
DR10 -0.51 dB -12.45 dB 3:35 10-Steppin' Out (single)
DR13 0.00 dB -17.73 dB 12:27 11-Land Of Make Believe (Live)
DR13 0.00 dB -14.73 dB 3:30 12-Feels So Good (single)
––––––––––––––––––––––––––––––––––––––––

Number of tracks: 12
Official DR value: DR12

Samplerate: 44100 Hz
Channels: 2
Bits per sample: 16
Bitrate: 861 kbps
Codec: FLAC
================================================================================

Chuck Mangione - The Best Of Chuck Mangione (2004)

Chuck Mangione - The Best Of Chuck Mangione (2004)

All thanks to original releaser - ДмиСим

More interesting music in My Blog