Tags
Language
Tags

Citi - Roller Disco (1979) [2017, Japan] {Remastered with Bonus Tracks}

Posted By: BlondStyle
Citi - Roller Disco (1979) [2017, Japan] {Remastered with Bonus Tracks}

Citi - Roller Disco (1979) [2017, Japan] {Remastered with Bonus Tracks}
R&B, Soul/Funk, Disco | EAC Rip | FLAC, Tracks+CUE+LOG+Scans (JPEG) | 45:49 | 364,23 Mb
Label: Octave LabOctave Lab/Ultra-Vybe, Inc. (Japan) | Cat.# OTLCD-5341 | Released: 2017-05-24 (1979)
Citi - Roller Disco (1979) [2017, Japan] {Remastered with Bonus Tracks}

Rollerskating themed disco from Citi on the De-lite label, usually home to Kool & The Gang, however this is some surprisingly good disco with 6 very playable tracks +2 bonus Single Versions.
Citi - Roller Disco (1979) [2017, Japan] {Remastered with Bonus Tracks}

Citi - Roller Disco (1979) [2017, Japan] {Remastered with Bonus Tracks}




Release of the album: 1979 [LP De-Lite Records, Cat.# DSR-9515, Japan]
Release of this CD: 2017, May, 24 [CD Octave Lab/Ultra-Vybe, Inc. (Japan), Cat.# OTLCD-5341 / EAN: 4526180415602]
℗&© 2017 Octave Lab/Ultra-Vybe, Inc. under exclusive license from Darryl Payne.
Made in Japan

Notes: Remastered Reissue. A part of the "De-Lite Original Master Collection" Series. Not for sale outside Japan.

Credits:

Arranged By, Written-By – Dave Ogrin
Backing Vocals – Nadine Bracey, Shirley Dixon
Bass Guitar – Brian Alsop
Design [Citi Lettering] – John Youssi
Design, Art Direction – Joe Kotleba
Drums – Buddy Williams, John Suswell
Engineer [Assistant] – Ellis Montalvo (tracks: 4)
Engineer, Remix, Written-By – Lou Gonzalez
Guitar – Eric Gale, Kenny Pappa, Rich Reed
Horns – Arnon Krongrad, David Weis, Don Hahn, Irio O' Farrel, Mark Feinberg, Robert Freeberg, Ted Anton
Keyboards – Dave Lebolt
Lead Vocals – Lee Genesis
Lyrics By [Additional] – Lee Genesis (tracks: 1, 7)
Percussion – Armen Halburian, Jamie Haddad
Photography By – Greg Heisler
Remix [Super Disco] – Chico Starr (tracks: 4)
Strings – Danny Siedenberg, Siedenberg Symphony Orchestra


Tracklist:

01. Roller Disco (07:27)
02. Heart Attack (05:10)
03. Can You Do It On Skates (06:14)
04. Power Play (08:09)
05. Good Enough For You (06:09)
06. Disco Strut (04:50)
Bonus Tracks:
07. Roller Disco (Original Single Version) (03:54)
08. Heart Attack (Original Single Version) (03:56)

Exact Audio Copy V1.0 beta 2 from 29. April 2011

Отчёт EAC об извлечении, выполненном 21. января 2019, 16:33

Citi / Roller Disco + 2

Дисковод: ASUS DRW-24D5MT Adapter: 0 ID: 1

Режим чтения : Достоверность
Использование точного потока : Да
Отключение кэша аудио : Да
Использование указателей C2 : Нет

Коррекция смещения при чтении : 6
Способность читать области Lead-in и Lead-out : Нет
Заполнение пропущенных сэмплов тишиной : Да
Удаление блоков с тишиной в начале и конце : Нет
При вычислениях CRC использовались нулевые сэмплы : Да
Интерфейс : Встроенный Win32-интерфейс для Win NT/2000
Обработка зазоров : Добавлено к предыдущему треку

Выходной формат : Пользовательский кодировщик
Выбранный битрейт : 128 kBit/s
Качество : Высокий
Добавление ID3-тега : Нет
Утилита сжатия : C:\Program Files\Exact Audio Copy\FLAC\FLAC.EXE
Дополнительные параметры : -8 -V -T "ARTIST=%artist%" -T "TITLE=%title%" -T "ALBUM=%albumtitle%" -T "DATE=%year%" -T "TRACKNUMBER=%tracknr%" -T "GENRE=%genre%" -T "COMMENT=%comment%" -T "BAND=%albuminterpret%" -T "COMPOSER=%composer%" %haslyrics%–tag-from-


TOC извлечённого CD

Трек | Старт | Длительность | Начальный сектор | Конечный сектор
––––––––––––––––––––––––––––––––––-
1 | 0:00.00 | 7:27.23 | 0 | 33547
2 | 7:27.23 | 5:09.68 | 33548 | 56790
3 | 12:37.16 | 6:14.17 | 56791 | 84857
4 | 18:51.33 | 8:08.50 | 84858 | 121507
5 | 27:00.08 | 6:08.67 | 121508 | 149174
6 | 33:09.00 | 4:49.54 | 149175 | 170903
7 | 37:58.54 | 3:54.05 | 170904 | 188458
8 | 41:52.59 | 3:56.21 | 188459 | 206179


Трек 1

Имя файла D:\FLAC\01 Roller Disco.wav

Длина предзазора 0:00:02.00

Пиковый уровень 97.8 %
Скорость извлечения 4.9 X
Качество трека 100.0 %
CRC теста 1DCFF5D5
CRC копии 1DCFF5D5
Точное извлечение (достоверность 5) [12FA21D1] (AR v2)
Копирование… OK

Трек 2

Имя файла D:\FLAC\02 Heart Attack.wav

Пиковый уровень 97.8 %
Скорость извлечения 5.5 X
Качество трека 100.0 %
CRC теста 768FD3A3
CRC копии 768FD3A3
Точное извлечение (достоверность 5) [7B183D98] (AR v2)
Копирование… OK

Трек 3

Имя файла D:\FLAC\03 Can You Do It On Skates.wav

Пиковый уровень 97.8 %
Скорость извлечения 6.0 X
Качество трека 100.0 %
CRC теста E832564F
CRC копии E832564F
Точное извлечение (достоверность 5) [9E9E8463] (AR v2)
Копирование… OK

Трек 4

Имя файла D:\FLAC\04 Power Play.wav

Пиковый уровень 97.8 %
Скорость извлечения 6.4 X
Качество трека 99.9 %
CRC теста BB5420B7
CRC копии BB5420B7
Точное извлечение (достоверность 5) [4CD7EA22] (AR v2)
Копирование… OK

Трек 5

Имя файла D:\FLAC\05 Good Enough For You.wav

Пиковый уровень 97.8 %
Скорость извлечения 7.2 X
Качество трека 100.0 %
CRC теста 3B305AEA
CRC копии 3B305AEA
Точное извлечение (достоверность 5) [83C14819] (AR v2)
Копирование… OK

Трек 6

Имя файла D:\FLAC\06 Disco Strut.wav

Пиковый уровень 97.8 %
Скорость извлечения 7.4 X
Качество трека 100.0 %
CRC теста 426F565F
CRC копии 426F565F
Точное извлечение (достоверность 5) [A865DF84] (AR v2)
Копирование… OK

Трек 7

Имя файла D:\FLAC\07 Roller Disco (Original Single Version).wav

Пиковый уровень 97.8 %
Скорость извлечения 6.6 X
Качество трека 99.9 %
CRC теста 4421CBC0
CRC копии 4421CBC0
Точное извлечение (достоверность 5) [8B2EF945] (AR v2)
Копирование… OK

Трек 8

Имя файла D:\FLAC\08 Heart Attack (Original Single Version).wav

Пиковый уровень 97.8 %
Скорость извлечения 7.7 X
Качество трека 100.0 %
CRC теста 33C29949
CRC копии 33C29949
Точное извлечение (достоверность 5) [14B36740] (AR v2)
Копирование… OK


Все треки извлечены точно

Ошибок не произошло

Конец отчёта

–– CUETools DB Plugin V2.1.4

[CTDB TOCID: mp3cmrSioej05HiDuES6cAsLKXI-] found
Submit result: already submitted
Track | CTDB Status
1 | (6/6) Accurately ripped
2 | (6/6) Accurately ripped
3 | (6/6) Accurately ripped
4 | (6/6) Accurately ripped
5 | (6/6) Accurately ripped
6 | (6/6) Accurately ripped
7 | (6/6) Accurately ripped
8 | (6/6) Accurately ripped


==== Контрольная сумма отчёта 3CA81AE80DCA62E6618AC8600553C9815C6A36C704F963D5A9D63F1FB36D4248 ====

––––––––––––––––––––––––––––––––––––––––
Analyzed: Citi / Roller Disco + 2
––––––––––––––––––––––––––––––––––––––––

DR Peak RMS Duration Track
––––––––––––––––––––––––––––––––––––––––
DR8 -0.19 dB -9.28 dB 7:27 01-Roller Disco
DR7 -0.19 dB -8.93 dB 5:10 02-Heart Attack
DR8 -0.19 dB -9.88 dB 6:14 03-Can You Do It On Skates
DR7 -0.19 dB -9.56 dB 8:09 04-Power Play
DR8 -0.19 dB -11.07 dB 6:09 05-Good Enough For You
DR8 -0.19 dB -9.87 dB 4:50 06-Disco Strut
DR8 -0.19 dB -9.05 dB 3:54 07-Roller Disco (Original Single Version)
DR8 -0.19 dB -9.01 dB 3:56 08-Heart Attack (Original Single Version)
––––––––––––––––––––––––––––––––––––––––

Number of tracks: 8
Official DR value: DR8

Samplerate: 44100 Hz
Channels: 2
Bits per sample: 16
Bitrate: 1021 kbps
Codec: FLAC
================================================================================

Thanks to index123458

♫~Welcome To My Blog~♫

password: BlondStyle