Tags
Language
Tags

VA - City Of Angels Sampler (1997) {Outpost} **[RE-UP]**

Posted By:
VA - City Of Angels Sampler (1997) {Outpost} **[RE-UP]**

VA - City Of Angels Sampler (1997) {Outpost}
EAC Rip | FLAC with CUE and log | scans | 182 mb
MP3 CBR 320kbps | RAR | 64 mb
Genre: electronica, sample-based

City Of Angels Sampler is a sampler CD released in 1997 for the Outpost label. It's a brief look at what the label represented in 1997, which included music by The Crystal Method, Uberzone, Chop Shop, and Mephisto Odyssey.

VA - City Of Angels Sampler (1997) {Outpost} **[RE-UP]**

1. The Crystal Method - Keep Hope Alive (There Is Hope Mix)
2. Mephisto Odyssey - Dream Of The Black Dahlia
3. Chop Shop - Fleetwood
4. Uberzone - The Brain
5. The Crystal Method - Now Is The Time (The Olympic Mix)

Exact Audio Copy V1.1 from 23. June 2015

EAC extraction logfile from 9. February 2017, 11:35

Various Artists / City Of Angels Sampler

Used drive : TEAC DVD-ROM DV-28SW Adapter: 1 ID: 0

Read mode : Secure
Utilize accurate stream : Yes
Defeat audio cache : Yes
Make use of C2 pointers : No

Read offset correction : 6
Overread into Lead-In and Lead-Out : No
Fill up missing offset samples with silence : Yes
Delete leading and trailing silent blocks : No
Null samples used in CRC calculations : Yes
Used interface : Native Win32 interface for Win NT & 2000
Gap handling : Appended to previous track

Used output format : Internal WAV Routines
Sample format : 44.100 Hz; 16 Bit; Stereo


TOC of the extracted CD

Track | Start | Length | Start sector | End sector
––––––––––––––––––––––––––––-
1 | 0:00.00 | 5:42.25 | 0 | 25674
2 | 5:42.25 | 6:06.42 | 25675 | 53166
3 | 11:48.67 | 4:17.40 | 53167 | 72481
4 | 16:06.32 | 6:23.00 | 72482 | 101206
5 | 22:29.32 | 5:58.13 | 101207 | 128069


Track 1

Filename C:\My Documents\My FLAC\VA - City Of Angels Sampler (1997) [FLAC] {Outpost}\01 - The Crystal Method - Keep Hope Alive (There Is Hope Mix).wav

Pre-gap length 0:00:02.00

Peak level 95.5 %
Extraction speed 2.9 X
Track quality 100.0 %
Test CRC 1D64C428
Copy CRC 1D64C428
Accurately ripped (confidence 1) [857C9B68] (AR v2)
Copy OK

Track 2

Filename C:\My Documents\My FLAC\VA - City Of Angels Sampler (1997) [FLAC] {Outpost}\02 - Mephisto Odyssey - Dream Of The Black Dahlia.wav

Peak level 98.7 %
Extraction speed 2.7 X
Track quality 100.0 %
Test CRC 0D36280D
Copy CRC 0D36280D
Accurately ripped (confidence 1) [4B73E26C] (AR v2)
Copy OK

Track 3

Filename C:\My Documents\My FLAC\VA - City Of Angels Sampler (1997) [FLAC] {Outpost}\03 - Chop Shop - Fleetwood.wav

Peak level 98.8 %
Extraction speed 3.5 X
Track quality 100.0 %
Test CRC 482B36CE
Copy CRC 482B36CE
Accurately ripped (confidence 1) [B8F03459] (AR v2)
Copy OK

Track 4

Filename C:\My Documents\My FLAC\VA - City Of Angels Sampler (1997) [FLAC] {Outpost}\04 - Uberzone - The Brain.wav

Peak level 95.6 %
Extraction speed 3.8 X
Track quality 100.0 %
Test CRC 4120E791
Copy CRC 4120E791
Accurately ripped (confidence 1) [6CC34451] (AR v2)
Copy OK

Track 5

Filename C:\My Documents\My FLAC\VA - City Of Angels Sampler (1997) [FLAC] {Outpost}\05 - The Crystal Method - Now Is The Time (The Olympic Mix).wav

Peak level 98.0 %
Extraction speed 3.4 X
Track quality 100.0 %
Test CRC 936507F3
Copy CRC 936507F3
Accurately ripped (confidence 1) [B05852DC] (AR v2)
Copy OK


All tracks accurately ripped

No errors occurred

End of status report

–– CUETools DB Plugin V2.1.6

[CTDB TOCID: cWpwSHlwn0_2n4A0WndqqfkSd7k-] disk not present in database
Submit result: cWpwSHlwn0_2n4A0WndqqfkSd7k- has been uploaded


==== Log checksum FEFC8477739954B92C0D423E11C6EBE905D515A03E592BC81CAFAF2168531A74 ====