Tags
Language
Tags

Clara Haskil - Clara Haskil Edition (2010) (17 CD Box Set)

Posted By:
Clara Haskil - Clara Haskil Edition (2010) (17 CD Box Set)

Clara Haskil - Clara Haskil Edition (2010) (17 CD Box Set)
EAC Rip | FLAC (Image+.cue, log) | 17 CDs | 3,7 Gb | Scans (300 dpi, JPG) > 24 mb
Genre: Classical / Label: Decca

The 17-CD set is the first comprehensive edition containing all of Clara Haskil's recordings for the Decca, Philips, Deutsche Grammophon and Westminster labels. This edition celebrates and marks the 50th anniversary (December 6, 1960) of the death of the great Romanian-born pianist.


Clara Haskil - Clara Haskil Edition (2010) (17 CD Box Set)


Tracklist:

CD 1

[1]-[3] Mozart: Piano Concerto No.7 in E flat major, K271
Wiener Symphoniker / Paul Sacher
[4]-[6] Mozart: Piano Concerto No.20 in D minor, K466
[7] Concert Rondo in A major, K386
Wiener Symphoniker / Bernhard Paumgartner

CD 2
[1]-[3] Mozart: Piano Concerto No.20 in D minor, K466
[4]-[6] Piano Concerto No.24 in C minor, K491
Orchestre des Concerts Lamoureux / Igor Markevitch

CD 3
[1]-[3] Mozart: Piano Concerto No.19 in F major, K459
Berliner Philharmoniker / Ferenc Fricsay
[4]-[6] Mozart: Piano Concerto No.23 in A major, K488
Wiener Symphoniker / Paul Sacher

CD 4
[1]-[3] Mozart: Piano Concerto No.20 in D minor, K466
RIAS Symphony Orchestra / Ferenc Fricsay
[4]-[6] Mozart: Piano Concerto No.27 in B flat major, K595
Bayerisches Staatsorchester / Ferenc Fricsay

CD 5
[1]-[3] Mozart: Piano Concerto No.13 in C major, K415
Lucerne Festival Strings / Rudolf Baumgartner
[4]-[6] Mozart: Piano Concerto No.20 in D minor, K466
Winterthur Symphony Orchestra / Henry Swoboda
[7]-[9] Falla: Noches en los jardines de España
Orchestre des Concerts Lamoureux / Igor Markevitch

CD 6
[1]-[3] Mozart: Piano Concerto No.19 in F major, K459
[4]-[6] Beethoven: Piano Concerto No.3 in C minor, op.37
Winterthur Symphony Orchestra / Henry Swoboda

CD 7
[1]-[3] Beethoven: Piano Concerto No.3 in C minor, op.37
[4]-[6] Chopin: Piano Concerto No.2 in F minor, op.21
Orchestre des Concerts Lamoureux / Igor Markevitch

CD 8
[1]-[3] Schumann: Piano Concerto in A minor, op.54
Hague Philhrmonic Orchestra / Willem van Otterloo
[4]-12] Waldszenen, op.82
[13]-[15] Beethoven: Piano Concerto No.4 in G major, op.58
London Philharmonic Orchestra / Carlo Zecchi

CD 9
Domenico Scarlatti
[1] Sonata in E flat, K193
[2] Sonata in B minor K87
[3] Sonata in F minor, K386
[4] Mozart: 9 Variations, K573 on a minuet by Jean-Pierre Duport
[5]-[7] Sonata in C, K330
[8]-[10] Ravel: Sonatine
[11]-[18] Schumann: Bunte Blätter, op.99
[19] Variations on the name ABEGG, Op.1

CD 10
[1]-[13] Schumann: Kinderszenen, op.15
[14]-[22] Waldszenen, op.82
Beethoven
[23]-[25] Piano Sonata No.17 in D minor, op.31 no.2 “Tempest”
[26]-[29] Piano Sonata No.18 in E flat major, op.31 no.3 “Hunt”

CD 11
Schubert: [1]-[4] Piano Sonata No.21 in B flat major, D960
Beethoven: [5-[7] Piano Sonata No.17 in D minor, op.31 no.2 “Tempest”
[8]-[11] Piano Sonata No.18 in E flat major, op.31 no.3 “Hunt”

CD 12
Domenico Scarlatti: 11 Sonatas
[1] Sonata in C sharp minor, K247
[2] Sonata in G major, K2
[3] Sonata in C major, K132
[4] Sonata in G minor, K35
[5] Sonata in E flat major, K193
[6] Sonata in F minor, K386
[7] Sonata in F minor, K519
[8] Sonata in A major, K322
[9] Sonata in B minor, K87
[10] Sonata in C major, K515
[11] Sonata in F major, K437
[12] Soler: Sonata in D
[13] Pescetti: Sonata in C minor
[14] Haydn: Variations in F minor
[15] Mozart: 12 Variations in C, K265 “Ah, vous dirai-je Maman”
[16]-[18] Mozart: Piano Sonata in F, K280

CD 13
Beethoven: Violin Sonatas
[1]-[3] Sonata No.1 in D major, op.12 no.1
[4]-[6] Sonata No.2 in A major, op.12 no.2
[7]-[9] Sonata No.3 in E flat, op.12 no.3
[10]-[12] Sonata No.4 in A minor, op.23

CD 14
[1]-[4] Sonata No.5 in F major, op.24 “Spring”
[5]-[7] Sonata No.6 in A major, op.30 no.1
[8]-[11] Sonata No.7 in C minor, op.30 no.2

CD 15
[1]-[3] Sonata No.8 in G major, op.30 no.3
[4]-[11] Sonata No.9 in A major, op.47 “Kreutzer”
[12]-[15] Sonata No.10 in G major, op.96

CD 16
Mozart: Sonatas for piano and violin
[1]-[2] Sonata in G major, K301
[3]-[4] Sonata in E minor, K304
[5]-[7] Sonata in F major, K376
[8]-[10] Sonata in B flat major, K378

CD 17
[1]-[3] Sonata in B flat, K454
[4]-[6] Sonata in A major, K526
Arthur Grumiaux - violin

Exact Audio Copy V1.0 beta 3 from 29. August 2011

EAC 抓取日志文件从1. 十一月 2014, 2:07

Wolfgang Amadeus Mozart (1756-1791) / Clara Haskil CD1

使用驱动器 :HL-DT-STDVD+-RW GS30N Adapter: 1 ID: 0

读取模式 : 可靠Secure
使用精确流 : 是
清空音频缓存 : 否
使用 C2 指示器 : 否

读取偏移校正: : 667
读取 Lead-In 和 Lead-Out : 否
用静音填充抓取中丢失偏移的采样 : 是
去除首尾静音块 : 否
在CRC 计算中使用了空样本 : 是
已用接口 : Win NT 及 2000 本地 Win32 接口

所用输出模式: : 用户定义的编码器
已选比特率 : 768 kBit/s
质量 : 高
添加 ID3 标签 : 否
命令行压缩器 : d:\Program Files (x86)\Exact Audio Copy\FLAC\FLAC.EXE
附加命令行参数: : -6 -V -T "ARTIST=%artist%" -T "TITLE=%title%" -T "ALBUM=%albumtitle%" -T "DATE=%year%" -T "TRACKNUMBER=%tracknr%" -T "GENRE=%genre%" -T "COMMENT=%comment%" -T "BAND=%albuminterpret%" -T "ALBUMARTIST=%albuminterpret%" -T "COMPOSER=%composer%" %haslyrics%–tag-from-file=LYRICS="%lyricsfile%"%haslyrics% -T "DISCNUMBER=%cdnumber%" -T "TOTALDISCS=%totalcds%" -T "TOTALTRACKS=%numtracks%" %hascover%–picture="%coverfile%"%hascover% %source% -o %dest%


已抓取 CD 的 TOC

音轨 | 起始 | 长度 | 起始扇区 | 结束扇区
––––––––––––––––––––––
1 | 0:00.33 | 10:31.00 | 33 | 47357
2 | 10:31.33 | 11:30.00 | 47358 | 99107
3 | 22:01.33 | 10:19.00 | 99108 | 145532
4 | 32:20.33 | 13:25.00 | 145533 | 205907
5 | 45:45.33 | 9:23.00 | 205908 | 248132
6 | 55:08.33 | 7:31.00 | 248133 | 281957
7 | 62:39.33 | 7:56.00 | 281958 | 317657


范围状态及错误

已选择范围

文件名 F:\抓轨\Wolfgang Amadeus Mozart (1756-1791) - Clara Haskil CD1.wav

峰值电平 92.6 %
抓取速度 7.8 X
范围质量 100.0 %
复制 CRC C8ECDFD6
复制成功

没有错误发生


AccurateRip 摘要

音轨 1 精确地校准抓取 22) [D84AE5BD] (AR v2)
音轨 2 精确地校准抓取 23) [1FF9995F] (AR v2)
音轨 3 精确地校准抓取 23) [7299894C] (AR v2)
音轨 4 精确地校准抓取 23) [B3B07D8C] (AR v2)
音轨 5 精确地校准抓取 23) [584C6622] (AR v2)
音轨 6 精确地校准抓取 23) [D3D0FEA5] (AR v2)
音轨 7 精确地校准抓取 23) [6DB92BFE] (AR v2)

所有音轨精确校准抓取

状态报告结尾

–– CUETools DB Plugin V2.1.3

[CTDB TOCID: Llsc9wOwklIl4Mo932qO92fRV8I-] found, Submit result: discs with pregaps not supported in this protocol version
[f80f3309] (14/14) Differs in 0 samples @
You can use CUETools to repair this rip.


Exact Audio Copy V1.0 beta 3 from 29. August 2011

EAC 抓取日志文件从1. 十一月 2014, 16:26

Mozart (Orchestre Des Concerts Lamoureux - Igor Markevitch - Clara Haskil) / Piano Concero No.20 and No.24

使用驱动器 :HL-DT-STDVD+-RW GS30N Adapter: 1 ID: 0

读取模式 : 可靠Secure
使用精确流 : 是
清空音频缓存 : 否
使用 C2 指示器 : 否

读取偏移校正: : 667
读取 Lead-In 和 Lead-Out : 否
用静音填充抓取中丢失偏移的采样 : 是
去除首尾静音块 : 否
在CRC 计算中使用了空样本 : 是
已用接口 : Win NT 及 2000 本地 Win32 接口

所用输出模式: : 用户定义的编码器
已选比特率 : 768 kBit/s
质量 : 高
添加 ID3 标签 : 否
命令行压缩器 : d:\Program Files (x86)\Exact Audio Copy\FLAC\FLAC.EXE
附加命令行参数: : -6 -V -T "ARTIST=%artist%" -T "TITLE=%title%" -T "ALBUM=%albumtitle%" -T "DATE=%year%" -T "TRACKNUMBER=%tracknr%" -T "GENRE=%genre%" -T "COMMENT=%comment%" -T "BAND=%albuminterpret%" -T "ALBUMARTIST=%albuminterpret%" -T "COMPOSER=%composer%" %haslyrics%–tag-from-file=LYRICS="%lyricsfile%"%haslyrics% -T "DISCNUMBER=%cdnumber%" -T "TOTALDISCS=%totalcds%" -T "TOTALTRACKS=%numtracks%" %hascover%–picture="%coverfile%"%hascover% %source% -o %dest%


已抓取 CD 的 TOC

音轨 | 起始 | 长度 | 起始扇区 | 结束扇区
––––––––––––––––––––––
1 | 0:00.00 | 13:27.33 | 0 | 60557
2 | 13:27.33 | 9:32.38 | 60558 | 103495
3 | 22:59.71 | 7:14.36 | 103496 | 136081
4 | 30:14.32 | 13:13.01 | 136082 | 195557
5 | 43:27.33 | 7:14.00 | 195558 | 228107
6 | 50:41.33 | 8:57.43 | 228108 | 268425


范围状态及错误

已选择范围

文件名 F:\抓轨\Mozart (Orchestre Des Concerts Lamoureux - Igor Markevitch - Clara Haskil) - Piano Concero No.20 and No.24.wav

峰值电平 89.2 %
抓取速度 7.8 X
范围质量 100.0 %
复制 CRC 9342F2EE
复制成功

没有错误发生


AccurateRip 摘要

音轨 1 精确地校准抓取 15) [7D8B8AA7] (AR v2)
音轨 2 精确地校准抓取 15) [576CA8CB] (AR v2)
音轨 3 精确地校准抓取 15) [7778437A] (AR v2)
音轨 4 精确地校准抓取 14) [61F0B598] (AR v2)
音轨 5 精确地校准抓取 15) [BFBE799A] (AR v2)
音轨 6 精确地校准抓取 15) [2F050629] (AR v2)

所有音轨精确校准抓取

状态报告结尾

–– CUETools DB Plugin V2.1.3

[CTDB TOCID: 599sJJPkGWLdXYCCVbSSdpcgEhs-] found, Submit result: 599sJJPkGWLdXYCCVbSSdpcgEhs- has been confirmed
[bef55fd3] (10/10) Accurately ripped


Exact Audio Copy V1.0 beta 3 from 29. August 2011

EAC 抓取日志文件从1. 十一月 2014, 16:39

Clara Haskil / Clara Haskil Edition - CD3

使用驱动器 :HL-DT-STDVD+-RW GS30N Adapter: 1 ID: 0

读取模式 : 可靠Secure
使用精确流 : 是
清空音频缓存 : 否
使用 C2 指示器 : 否

读取偏移校正: : 667
读取 Lead-In 和 Lead-Out : 否
用静音填充抓取中丢失偏移的采样 : 是
去除首尾静音块 : 否
在CRC 计算中使用了空样本 : 是
已用接口 : Win NT 及 2000 本地 Win32 接口

所用输出模式: : 用户定义的编码器
已选比特率 : 768 kBit/s
质量 : 高
添加 ID3 标签 : 否
命令行压缩器 : d:\Program Files (x86)\Exact Audio Copy\FLAC\FLAC.EXE
附加命令行参数: : -6 -V -T "ARTIST=%artist%" -T "TITLE=%title%" -T "ALBUM=%albumtitle%" -T "DATE=%year%" -T "TRACKNUMBER=%tracknr%" -T "GENRE=%genre%" -T "COMMENT=%comment%" -T "BAND=%albuminterpret%" -T "ALBUMARTIST=%albuminterpret%" -T "COMPOSER=%composer%" %haslyrics%–tag-from-file=LYRICS="%lyricsfile%"%haslyrics% -T "DISCNUMBER=%cdnumber%" -T "TOTALDISCS=%totalcds%" -T "TOTALTRACKS=%numtracks%" %hascover%–picture="%coverfile%"%hascover% %source% -o %dest%


已抓取 CD 的 TOC

音轨 | 起始 | 长度 | 起始扇区 | 结束扇区
––––––––––––––––––––––
1 | 0:00.00 | 12:46.31 | 0 | 57480
2 | 12:46.31 | 8:12.40 | 57481 | 94420
3 | 20:58.71 | 7:16.25 | 94421 | 127145
4 | 28:15.21 | 11:13.24 | 127146 | 177644
5 | 39:28.45 | 6:27.40 | 177645 | 206709
6 | 45:56.10 | 8:20.16 | 206710 | 244225


范围状态及错误

已选择范围

文件名 F:\抓轨\Clara Haskil - Clara Haskil Edition - CD3.wav

峰值电平 99.9 %
抓取速度 7.5 X
范围质量 100.0 %
复制 CRC 146BD416
复制成功

没有错误发生


AccurateRip 摘要

音轨 1 精确地校准抓取 15) [1A9676C8] (AR v2)
音轨 2 精确地校准抓取 14) [FF7061BA] (AR v2)
音轨 3 精确地校准抓取 15) [13368703] (AR v2)
音轨 4 精确地校准抓取 15) [8A9BA787] (AR v2)
音轨 5 精确地校准抓取 15) [6A8A5F6A] (AR v2)
音轨 6 精确地校准抓取 15) [38568281] (AR v2)

所有音轨精确校准抓取

状态报告结尾

–– CUETools DB Plugin V2.1.3

[CTDB TOCID: 3k1okqvcYkEUiXmWSVxzb.qDiBQ-] found, Submit result: database access error: 操作超时
[4a7b1fa5] (10/10) Accurately ripped


Exact Audio Copy V1.0 beta 3 from 29. August 2011

EAC 抓取日志文件从1. 十一月 2014, 16:49

Clara Haskil / Clara Haskil Edition - CD4

使用驱动器 :HL-DT-STDVD+-RW GS30N Adapter: 1 ID: 0

读取模式 : 可靠Secure
使用精确流 : 是
清空音频缓存 : 否
使用 C2 指示器 : 否

读取偏移校正: : 667
读取 Lead-In 和 Lead-Out : 否
用静音填充抓取中丢失偏移的采样 : 是
去除首尾静音块 : 否
在CRC 计算中使用了空样本 : 是
已用接口 : Win NT 及 2000 本地 Win32 接口

所用输出模式: : 用户定义的编码器
已选比特率 : 768 kBit/s
质量 : 高
添加 ID3 标签 : 否
命令行压缩器 : d:\Program Files (x86)\Exact Audio Copy\FLAC\FLAC.EXE
附加命令行参数: : -6 -V -T "ARTIST=%artist%" -T "TITLE=%title%" -T "ALBUM=%albumtitle%" -T "DATE=%year%" -T "TRACKNUMBER=%tracknr%" -T "GENRE=%genre%" -T "COMMENT=%comment%" -T "BAND=%albuminterpret%" -T "ALBUMARTIST=%albuminterpret%" -T "COMPOSER=%composer%" %haslyrics%–tag-from-file=LYRICS="%lyricsfile%"%haslyrics% -T "DISCNUMBER=%cdnumber%" -T "TOTALDISCS=%totalcds%" -T "TOTALTRACKS=%numtracks%" %hascover%–picture="%coverfile%"%hascover% %source% -o %dest%


已抓取 CD 的 TOC

音轨 | 起始 | 长度 | 起始扇区 | 结束扇区
––––––––––––––––––––––
1 | 0:00.00 | 13:02.18 | 0 | 58667
2 | 13:02.18 | 8:34.13 | 58668 | 97230
3 | 21:36.31 | 7:12.50 | 97231 | 129680
4 | 28:49.06 | 13:04.40 | 129681 | 188520
5 | 41:53.46 | 7:38.63 | 188521 | 222933
6 | 49:32.34 | 8:43.26 | 222934 | 262184


范围状态及错误

已选择范围

文件名 F:\抓轨\Clara Haskil - Clara Haskil Edition - CD4.wav

峰值电平 99.5 %
抓取速度 7.7 X
范围质量 100.0 %
复制 CRC 95885E8F
复制成功

没有错误发生


AccurateRip 摘要

音轨 1 精确地校准抓取 14) [C7A4B769] (AR v2)
音轨 2 精确地校准抓取 15) [51F6CE1C] (AR v2)
音轨 3 精确地校准抓取 15) [DFB23069] (AR v2)
音轨 4 精确地校准抓取 15) [DF03E6B0] (AR v2)
音轨 5 精确地校准抓取 15) [67A758F6] (AR v2)
音轨 6 精确地校准抓取 15) [D0686D32] (AR v2)

所有音轨精确校准抓取

状态报告结尾

–– CUETools DB Plugin V2.1.3

[CTDB TOCID: WFhF5d6TNoqFQhmuA6MVwwkQLLA-] found, Submit result: WFhF5d6TNoqFQhmuA6MVwwkQLLA- has been confirmed
[9a1cda7b] (9/9) Accurately ripped


Exact Audio Copy V1.0 beta 3 from 29. August 2011

EAC 抓取日志文件从1. 十一月 2014, 20:33

Clara Haskil / Clara Haskil Edition - CD5

使用驱动器 :HL-DT-STDVD+-RW GS30N Adapter: 1 ID: 0

读取模式 : 可靠Secure
使用精确流 : 是
清空音频缓存 : 否
使用 C2 指示器 : 否

读取偏移校正: : 667
读取 Lead-In 和 Lead-Out : 否
用静音填充抓取中丢失偏移的采样 : 是
去除首尾静音块 : 否
在CRC 计算中使用了空样本 : 是
已用接口 : Win NT 及 2000 本地 Win32 接口

所用输出模式: : 用户定义的编码器
已选比特率 : 768 kBit/s
质量 : 高
添加 ID3 标签 : 否
命令行压缩器 : d:\Program Files (x86)\Exact Audio Copy\FLAC\FLAC.EXE
附加命令行参数: : -6 -V -T "ARTIST=%artist%" -T "TITLE=%title%" -T "ALBUM=%albumtitle%" -T "DATE=%year%" -T "TRACKNUMBER=%tracknr%" -T "GENRE=%genre%" -T "COMMENT=%comment%" -T "BAND=%albuminterpret%" -T "ALBUMARTIST=%albuminterpret%" -T "COMPOSER=%composer%" %haslyrics%–tag-from-file=LYRICS="%lyricsfile%"%haslyrics% -T "DISCNUMBER=%cdnumber%" -T "TOTALDISCS=%totalcds%" -T "TOTALTRACKS=%numtracks%" %hascover%–picture="%coverfile%"%hascover% %source% -o %dest%


已抓取 CD 的 TOC

音轨 | 起始 | 长度 | 起始扇区 | 结束扇区
––––––––––––––––––––––
1 | 0:00.00 | 11:54.49 | 0 | 53598
2 | 11:54.49 | 6:44.05 | 53599 | 83903
3 | 18:38.54 | 7:49.36 | 83904 | 119114
4 | 26:28.15 | 14:11.37 | 119115 | 182976
5 | 40:39.52 | 9:30.46 | 182977 | 225772
6 | 50:10.23 | 7:25.60 | 225773 | 259207
7 | 57:36.08 | 10:01.18 | 259208 | 304300
8 | 67:37.26 | 4:34.71 | 304301 | 324921
9 | 72:12.22 | 7:51.19 | 324922 | 360265


范围状态及错误

已选择范围

文件名 F:\抓轨\Clara Haskil - Clara Haskil Edition - CD5.wav

峰值电平 97.7 %
抓取速度 3.4 X
范围质量 100.0 %
复制 CRC EDFCD577
复制成功

没有错误发生


AccurateRip 摘要

音轨 1 精确地校准抓取 15) [A8E402DD] (AR v2)
音轨 2 精确地校准抓取 15) [E3634C45] (AR v2)
音轨 3 精确地校准抓取 15) [C22C24B7] (AR v2)
音轨 4 精确地校准抓取 15) [278F6A49] (AR v2)
音轨 5 精确地校准抓取 15) [5240A7A7] (AR v2)
音轨 6 精确地校准抓取 15) [EC9D275C] (AR v2)
音轨 7 精确地校准抓取 15) [D07865A1] (AR v2)
音轨 8 精确地校准抓取 15) [C4D35F46] (AR v2)
音轨 9 精确地校准抓取 15) [18340C46] (AR v2)

所有音轨精确校准抓取

状态报告结尾

–– CUETools DB Plugin V2.1.3

[CTDB TOCID: bpeKFY4af0JiP7s81kvONBuMefc-] found, Submit result: bpeKFY4af0JiP7s81kvONBuMefc- has been confirmed
[2e8af43c] (9/9) Accurately ripped


Exact Audio Copy V1.0 beta 3 from 29. August 2011

EAC 抓取日志文件从2. 十一月 2014, 15:21

Mozart / Haskil CD6

使用驱动器 :HL-DT-STDVD+-RW GS30N Adapter: 1 ID: 0

读取模式 : 可靠Secure
使用精确流 : 是
清空音频缓存 : 否
使用 C2 指示器 : 否

读取偏移校正: : 667
读取 Lead-In 和 Lead-Out : 否
用静音填充抓取中丢失偏移的采样 : 是
去除首尾静音块 : 否
在CRC 计算中使用了空样本 : 是
已用接口 : Win NT 及 2000 本地 Win32 接口

所用输出模式: : 用户定义的编码器
已选比特率 : 768 kBit/s
质量 : 高
添加 ID3 标签 : 否
命令行压缩器 : d:\Program Files (x86)\Exact Audio Copy\FLAC\FLAC.EXE
附加命令行参数: : -6 -V -T "ARTIST=%artist%" -T "TITLE=%title%" -T "ALBUM=%albumtitle%" -T "DATE=%year%" -T "TRACKNUMBER=%tracknr%" -T "GENRE=%genre%" -T "COMMENT=%comment%" -T "BAND=%albuminterpret%" -T "ALBUMARTIST=%albuminterpret%" -T "COMPOSER=%composer%" %haslyrics%–tag-from-file=LYRICS="%lyricsfile%"%haslyrics% -T "DISCNUMBER=%cdnumber%" -T "TOTALDISCS=%totalcds%" -T "TOTALTRACKS=%numtracks%" %hascover%–picture="%coverfile%"%hascover% %source% -o %dest%


已抓取 CD 的 TOC

音轨 | 起始 | 长度 | 起始扇区 | 结束扇区
––––––––––––––––––––––
1 | 0:00.00 | 12:15.00 | 0 | 55124
2 | 12:15.00 | 9:04.00 | 55125 | 95924
3 | 21:19.00 | 7:21.00 | 95925 | 128999
4 | 28:40.00 | 16:38.00 | 129000 | 203849
5 | 45:18.00 | 9:43.00 | 203850 | 247574
6 | 55:01.00 | 9:27.00 | 247575 | 290099


范围状态及错误

已选择范围

文件名 F:\抓轨\Mozart - Haskil CD6.wav

峰值电平 99.2 %
抓取速度 8.0 X
范围质量 100.0 %
复制 CRC A17F578D
复制成功

没有错误发生


AccurateRip 摘要

音轨 1 精确地校准抓取 19) [8D6A71BD] (AR v2)
音轨 2 精确地校准抓取 19) [99250EE6] (AR v2)
音轨 3 精确地校准抓取 19) [C109BFA5] (AR v2)
音轨 4 精确地校准抓取 19) [746785F9] (AR v2)
音轨 5 精确地校准抓取 19) [96AAC6BB] (AR v2)
音轨 6 精确地校准抓取 18) [5D834C5A] (AR v2)

所有音轨精确校准抓取

状态报告结尾

–– CUETools DB Plugin V2.1.3

[CTDB TOCID: a.tNOf8CfiXc99IoAsHyJnU_MwY-] found, Submit result: a.tNOf8CfiXc99IoAsHyJnU_MwY- has been confirmed
[f19c72ed] (09/11) Accurately ripped
[8d811120] (01/11) No match
[b6c11572] (01/11) No match


Exact Audio Copy V1.0 beta 3 from 29. August 2011

EAC 抓取日志文件从2. 十一月 2014, 16:00

Clara Haskil / Clara Haskil Edition -CD7

使用驱动器 :HL-DT-STDVD+-RW GS30N Adapter: 1 ID: 0

读取模式 : 可靠Secure
使用精确流 : 是
清空音频缓存 : 否
使用 C2 指示器 : 否

读取偏移校正: : 667
读取 Lead-In 和 Lead-Out : 否
用静音填充抓取中丢失偏移的采样 : 是
去除首尾静音块 : 否
在CRC 计算中使用了空样本 : 是
已用接口 : Win NT 及 2000 本地 Win32 接口

所用输出模式: : 用户定义的编码器
已选比特率 : 768 kBit/s
质量 : 高
添加 ID3 标签 : 否
命令行压缩器 : d:\Program Files (x86)\Exact Audio Copy\FLAC\FLAC.EXE
附加命令行参数: : -6 -V -T "ARTIST=%artist%" -T "TITLE=%title%" -T "ALBUM=%albumtitle%" -T "DATE=%year%" -T "TRACKNUMBER=%tracknr%" -T "GENRE=%genre%" -T "COMMENT=%comment%" -T "BAND=%albuminterpret%" -T "ALBUMARTIST=%albuminterpret%" -T "COMPOSER=%composer%" %haslyrics%–tag-from-file=LYRICS="%lyricsfile%"%haslyrics% -T "DISCNUMBER=%cdnumber%" -T "TOTALDISCS=%totalcds%" -T "TOTALTRACKS=%numtracks%" %hascover%–picture="%coverfile%"%hascover% %source% -o %dest%


已抓取 CD 的 TOC

音轨 | 起始 | 长度 | 起始扇区 | 结束扇区
––––––––––––––––––––––
1 | 0:00.00 | 17:18.59 | 0 | 77908
2 | 17:18.59 | 9:14.11 | 77909 | 119469
3 | 26:32.70 | 10:13.58 | 119470 | 165502
4 | 36:46.53 | 13:49.56 | 165503 | 227733
5 | 50:36.34 | 8:49.10 | 227734 | 267418
6 | 59:25.44 | 8:45.45 | 267419 | 306838


范围状态及错误

已选择范围

文件名 F:\抓轨\Clara Haskil - Clara Haskil Edition -CD7.wav

峰值电平 97.5 %
抓取速度 3.2 X
范围质量 100.0 %
复制 CRC D69CF1FB
复制成功

没有错误发生


AccurateRip 摘要

音轨 1 精确地校准抓取 15) [75ADA28D] (AR v2)
音轨 2 精确地校准抓取 15) [CB3F3BFE] (AR v2)
音轨 3 精确地校准抓取 15) [F97439DB] (AR v2)
音轨 4 精确地校准抓取 14) [D4F83BA4] (AR v2)
音轨 5 精确地校准抓取 14) [24C5F270] (AR v2)
音轨 6 精确地校准抓取 14) [1E9E8590] (AR v2)

所有音轨精确校准抓取

状态报告结尾

–– CUETools DB Plugin V2.1.3

[CTDB TOCID: fVgq4jWpnFh2otYBSfM2S_EIKWA-] found, Submit result: fVgq4jWpnFh2otYBSfM2S_EIKWA- has been confirmed
[188fcf5f] (9/9) Accurately ripped


Exact Audio Copy V1.0 beta 3 from 29. August 2011

EAC 抓取日志文件从2. 十一月 2014, 16:39

Clara Haskil / Clara Haskil Edition - CD8

使用驱动器 :HL-DT-STDVD+-RW GS30N Adapter: 1 ID: 0

读取模式 : 可靠Secure
使用精确流 : 是
清空音频缓存 : 否
使用 C2 指示器 : 否

读取偏移校正: : 667
读取 Lead-In 和 Lead-Out : 否
用静音填充抓取中丢失偏移的采样 : 是
去除首尾静音块 : 否
在CRC 计算中使用了空样本 : 是
已用接口 : Win NT 及 2000 本地 Win32 接口

所用输出模式: : 用户定义的编码器
已选比特率 : 768 kBit/s
质量 : 高
添加 ID3 标签 : 否
命令行压缩器 : d:\Program Files (x86)\Exact Audio Copy\FLAC\FLAC.EXE
附加命令行参数: : -6 -V -T "ARTIST=%artist%" -T "TITLE=%title%" -T "ALBUM=%albumtitle%" -T "DATE=%year%" -T "TRACKNUMBER=%tracknr%" -T "GENRE=%genre%" -T "COMMENT=%comment%" -T "BAND=%albuminterpret%" -T "ALBUMARTIST=%albuminterpret%" -T "COMPOSER=%composer%" %haslyrics%–tag-from-file=LYRICS="%lyricsfile%"%haslyrics% -T "DISCNUMBER=%cdnumber%" -T "TOTALDISCS=%totalcds%" -T "TOTALTRACKS=%numtracks%" %hascover%–picture="%coverfile%"%hascover% %source% -o %dest%


已抓取 CD 的 TOC

音轨 | 起始 | 长度 | 起始扇区 | 结束扇区
––––––––––––––––––––––
1 | 0:00.00 | 14:04.02 | 0 | 63301
2 | 14:04.02 | 4:37.17 | 63302 | 84093
3 | 18:41.19 | 10:22.00 | 84094 | 130743
4 | 29:03.19 | 1:43.45 | 130744 | 138513
5 | 30:46.64 | 1:13.67 | 138514 | 144055
6 | 32:00.56 | 2:07.28 | 144056 | 153608
7 | 34:08.09 | 2:25.54 | 153609 | 164537
8 | 36:33.63 | 0:59.15 | 164538 | 168977
9 | 37:33.03 | 1:45.25 | 168978 | 176877
10 | 39:18.28 | 3:03.51 | 176878 | 190653
11 | 42:22.04 | 2:18.71 | 190654 | 201074
12 | 44:41.00 | 3:19.34 | 201075 | 216033
13 | 48:00.34 | 17:52.12 | 216034 | 296445
14 | 65:52.46 | 5:02.16 | 296446 | 319111
15 | 70:54.62 | 9:57.23 | 319112 | 363909


范围状态及错误

已选择范围

文件名 F:\抓轨\Clara Haskil - Clara Haskil Edition - CD8.wav

峰值电平 100.0 %
抓取速度 3.4 X
范围质量 100.0 %
复制 CRC 992399A9
复制成功

没有错误发生


AccurateRip 摘要

音轨 1 精确地校准抓取 15) [45C800B7] (AR v2)
音轨 2 精确地校准抓取 15) [C2C96B70] (AR v2)
音轨 3 精确地校准抓取 15) [834F9FD3] (AR v2)
音轨 4 精确地校准抓取 15) [42C38DD1] (AR v2)
音轨 5 精确地校准抓取 15) [76289799] (AR v2)
音轨 6 精确地校准抓取 15) [A2CDB902] (AR v2)
音轨 7 精确地校准抓取 15) [F57DE5DE] (AR v2)
音轨 8 精确地校准抓取 15) [4DE2619B] (AR v2)
音轨 9 精确地校准抓取 15) [98162852] (AR v2)
音轨 10 精确地校准抓取 15) [52A67230] (AR v2)
音轨 11 精确地校准抓取 15) [EC471E90] (AR v2)
音轨 12 精确地校准抓取 15) [EFBD3BD4] (AR v2)
音轨 13 精确地校准抓取 15) [40A9F136] (AR v2)
音轨 14 精确地校准抓取 15) [20562004] (AR v2)
音轨 15 精确地校准抓取 15) [0F5F871A] (AR v2)

所有音轨精确校准抓取

状态报告结尾

–– CUETools DB Plugin V2.1.3

[CTDB TOCID: 7lRDsRLuG_3LGU6hCQpPp5o8Nb4-] found, Submit result: 7lRDsRLuG_3LGU6hCQpPp5o8Nb4- has been confirmed
[846e6634] (7/7) Accurately ripped


Exact Audio Copy V1.0 beta 3 from 29. August 2011

EAC 抓取日志文件从2. 十一月 2014, 17:33

Clara Haskil / Clara Haskil - Philips Records 1951-1960

使用驱动器 :HL-DT-STDVD+-RW GS30N Adapter: 1 ID: 0

读取模式 : 可靠Secure
使用精确流 : 是
清空音频缓存 : 否
使用 C2 指示器 : 否

读取偏移校正: : 667
读取 Lead-In 和 Lead-Out : 否
用静音填充抓取中丢失偏移的采样 : 是
去除首尾静音块 : 否
在CRC 计算中使用了空样本 : 是
已用接口 : Win NT 及 2000 本地 Win32 接口

所用输出模式: : 用户定义的编码器
已选比特率 : 768 kBit/s
质量 : 高
添加 ID3 标签 : 否
命令行压缩器 : d:\Program Files (x86)\Exact Audio Copy\FLAC\FLAC.EXE
附加命令行参数: : -6 -V -T "ARTIST=%artist%" -T "TITLE=%title%" -T "ALBUM=%albumtitle%" -T "DATE=%year%" -T "TRACKNUMBER=%tracknr%" -T "GENRE=%genre%" -T "COMMENT=%comment%" -T "BAND=%albuminterpret%" -T "ALBUMARTIST=%albuminterpret%" -T "COMPOSER=%composer%" %haslyrics%–tag-from-file=LYRICS="%lyricsfile%"%haslyrics% -T "DISCNUMBER=%cdnumber%" -T "TOTALDISCS=%totalcds%" -T "TOTALTRACKS=%numtracks%" %hascover%–picture="%coverfile%"%hascover% %source% -o %dest%


已抓取 CD 的 TOC

音轨 | 起始 | 长度 | 起始扇区 | 结束扇区
––––––––––––––––––––––
1 | 0:00.33 | 4:05.00 | 33 | 18407
2 | 4:05.33 | 4:38.00 | 18408 | 39257
3 | 8:43.33 | 2:31.00 | 39258 | 50582
4 | 11:14.33 | 13:27.00 | 50583 | 111107
5 | 24:41.33 | 6:21.00 | 111108 | 139682
6 | 31:02.33 | 6:16.00 | 139683 | 167882
7 | 37:18.33 | 5:24.00 | 167883 | 192182
8 | 42:42.33 | 3:59.00 | 192183 | 210107
9 | 46:41.33 | 2:49.00 | 210108 | 222782
10 | 49:30.33 | 3:43.00 | 222783 | 239507
11 | 53:13.33 | 1:29.00 | 239508 | 246182
12 | 54:42.33 | 0:52.25 | 246183 | 250107
13 | 55:34.58 | 0:47.00 | 250108 | 253632
14 | 56:21.58 | 1:03.00 | 253633 | 258357
15 | 57:24.58 | 0:41.25 | 258358 | 261457
16 | 58:06.08 | 1:12.50 | 261458 | 266907
17 | 59:18.58 | 1:02.50 | 266908 | 271607
18 | 60:21.33 | 1:49.00 | 271608 | 279782
19 | 62:10.33 | 6:55.00 | 279783 | 310907


范围状态及错误

已选择范围

文件名 F:\抓轨\Clara Haskil - Clara Haskil - Philips Records 1951-1960.wav

峰值电平 80.3 %
抓取速度 3.2 X
范围质量 100.0 %
复制 CRC 6CED59C6
复制成功

没有错误发生


AccurateRip 摘要

音轨 1 精确地校准抓取 20) [C7C432BB] (AR v2)
音轨 2 精确地校准抓取 21) [76E28600] (AR v2)
音轨 3 精确地校准抓取 21) [16762397] (AR v2)
音轨 4 精确地校准抓取 21) [B6D47EB9] (AR v2)
音轨 5 精确地校准抓取 21) [53107D82] (AR v2)
音轨 6 精确地校准抓取 21) [18EC76F5] (AR v2)
音轨 7 精确地校准抓取 21) [E34FDBE1] (AR v2)
音轨 8 精确地校准抓取 21) [9E78F33F] (AR v2)
音轨 9 精确地校准抓取 21) [3B43B4AE] (AR v2)
音轨 10 精确地校准抓取 21) [5E3F8379] (AR v2)
音轨 11 精确地校准抓取 21) [4C7621CE] (AR v2)
音轨 12 精确地校准抓取 21) [825016E9] (AR v2)
音轨 13 精确地校准抓取 21) [45788015] (AR v2)
音轨 14 精确地校准抓取 21) [92842511] (AR v2)
音轨 15 精确地校准抓取 21) [6A9AA674] (AR v2)
音轨 16 精确地校准抓取 21) [9EE3267F] (AR v2)
音轨 17 精确地校准抓取 21) [6FD4CF78] (AR v2)
音轨 18 精确地校准抓取 21) [004A28D0] (AR v2)
音轨 19 精确地校准抓取 21) [7B30BF30] (AR v2)

所有音轨精确校准抓取

状态报告结尾

–– CUETools DB Plugin V2.1.3

[CTDB TOCID: 5S2ZuPWXQY5vha14GohbCyVtNzE-] found, Submit result: discs with pregaps not supported in this protocol version
[effc07f8] (1/1) No match


Exact Audio Copy V1.0 beta 3 from 29. August 2011

EAC 抓取日志文件从2. 十一月 2014, 18:34

Clara Haskil / Clara Haskil - Philips Recordings 1951-1960 CD10

使用驱动器 :HL-DT-STDVD+-RW GS30N Adapter: 1 ID: 0

读取模式 : 可靠Secure
使用精确流 : 是
清空音频缓存 : 否
使用 C2 指示器 : 否

读取偏移校正: : 667
读取 Lead-In 和 Lead-Out : 否
用静音填充抓取中丢失偏移的采样 : 是
去除首尾静音块 : 否
在CRC 计算中使用了空样本 : 是
已用接口 : Win NT 及 2000 本地 Win32 接口

所用输出模式: : 用户定义的编码器
已选比特率 : 768 kBit/s
质量 : 高
添加 ID3 标签 : 否
命令行压缩器 : d:\Program Files (x86)\Exact Audio Copy\FLAC\FLAC.EXE
附加命令行参数: : -6 -V -T "ARTIST=%artist%" -T "TITLE=%title%" -T "ALBUM=%albumtitle%" -T "DATE=%year%" -T "TRACKNUMBER=%tracknr%" -T "GENRE=%genre%" -T "COMMENT=%comment%" -T "BAND=%albuminterpret%" -T "ALBUMARTIST=%albuminterpret%" -T "COMPOSER=%composer%" %haslyrics%–tag-from-file=LYRICS="%lyricsfile%"%haslyrics% -T "DISCNUMBER=%cdnumber%" -T "TOTALDISCS=%totalcds%" -T "TOTALTRACKS=%numtracks%" %hascover%–picture="%coverfile%"%hascover% %source% -o %dest%


已抓取 CD 的 TOC

音轨 | 起始 | 长度 | 起始扇区 | 结束扇区
––––––––––––––––––––––
1 | 0:00.33 | 1:36.12 | 33 | 7244
2 | 1:36.45 | 0:58.63 | 7245 | 11657
3 | 2:35.33 | 0:31.25 | 11658 | 14007
4 | 3:06.58 | 0:46.32 | 14008 | 17489
5 | 3:53.15 | 1:14.00 | 17490 | 23039
6 | 5:07.15 | 0:46.55 | 23040 | 26544
7 | 5:53.70 | 2:39.20 | 26545 | 38489
8 | 8:33.15 | 0:53.10 | 38490 | 42474
9 | 9:26.25 | 0:38.70 | 42475 | 45394
10 | 10:05.20 | 1:26.00 | 45395 | 51844
11 | 11:31.20 | 1:37.50 | 51845 | 59169
12 | 13:08.70 | 1:36.63 | 59170 | 66432
13 | 14:45.58 | 2:05.12 | 66433 | 75819
14 | 16:50.70 | 2:03.38 | 75820 | 85082
15 | 18:54.33 | 1:20.12 | 85083 | 91094
16 | 20:14.45 | 2:12.25 | 91095 | 101019
17 | 22:26.70 | 2:26.63 | 101020 | 112032
18 | 24:53.58 | 1:02.00 | 112033 | 116682
19 | 25:55.58 | 1:53.62 | 116683 | 125219
20 | 27:49.45 | 3:11.50 | 125220 | 139594
21 | 31:01.20 | 2:26.00 | 139595 | 150544
22 | 33:27.20 | 3:21.50 | 150545 | 165669
23 | 36:48.70 | 7:30.38 | 165670 | 199457
24 | 44:19.33 | 6:17.37 | 199458 | 227769
25 | 50:36.70 | 5:47.00 | 227770 | 253794
26 | 56:23.70 | 8:24.00 | 253795 | 291594
27 | 64:47.70 | 4:51.00 | 291595 | 313419
28 | 69:38.70 | 4:13.00 | 313420 | 332394
29 | 73:51.70 | 4:34.00 | 332395 | 352944


范围状态及错误

已选择范围

文件名 F:\抓轨\Clara Haskil - Clara Haskil - Philips Recordings 1951-1960 CD10.wav

峰值电平 94.5 %
抓取速度 8.0 X
范围质量 100.0 %
复制 CRC 0E4F73A3
复制成功

没有错误发生


AccurateRip 摘要

音轨 1 精确地校准抓取 23) [59E06EEC] (AR v2)
音轨 2 精确地校准抓取 24) [F40322EC] (AR v2)
音轨 3 精确地校准抓取 24) [93AD192F] (AR v2)
音轨 4 精确地校准抓取 24) [33812B3B] (AR v2)
音轨 5 精确地校准抓取 24) [96109854] (AR v2)
音轨 6 精确地校准抓取 24) [B21FA0DB] (AR v2)
音轨 7 精确地校准抓取 24) [22B1A229] (AR v2)
音轨 8 精确地校准抓取 24) [74557F62] (AR v2)
音轨 9 精确地校准抓取 24) [A20AC606] (AR v2)
音轨 10 精确地校准抓取 24) [9CC27CF9] (AR v2)
音轨 11 精确地校准抓取 24) [A24FE75B] (AR v2)
音轨 12 精确地校准抓取 24) [D5563491] (AR v2)
音轨 13 精确地校准抓取 24) [060A59A7] (AR v2)
音轨 14 精确地校准抓取 24) [0CA7FDB4] (AR v2)
音轨 15 精确地校准抓取 24) [F403FBD7] (AR v2)
音轨 16 精确地校准抓取 24) [A7462D5A] (AR v2)
音轨 17 精确地校准抓取 24) [5366A96F] (AR v2)
音轨 18 精确地校准抓取 24) [31AC12AE] (AR v2)
音轨 19 精确地校准抓取 24) [51C891A3] (AR v2)
音轨 20 精确地校准抓取 24) [31377010] (AR v2)
音轨 21 精确地校准抓取 24) [26DA18CE] (AR v2)
音轨 22 精确地校准抓取 24) [37635511] (AR v2)
音轨 23 精确地校准抓取 24) [02B98552] (AR v2)
音轨 24 精确地校准抓取 24) [7BB7915B] (AR v2)
音轨 25 精确地校准抓取 24) [E40E69B8] (AR v2)
音轨 26 精确地校准抓取 24) [3761CB01] (AR v2)
音轨 27 精确地校准抓取 24) [8FAB8203] (AR v2)
音轨 28 精确地校准抓取 24) [52594C33] (AR v2)
音轨 29 精确地校准抓取 22) [6D19AA32] (AR v2)

所有音轨精确校准抓取

状态报告结尾

–– CUETools DB Plugin V2.1.3

[CTDB TOCID: Eg0nEhRsIxhGzEKfhFnYtacDtLI-] found, Submit result: discs with pregaps not supported in this protocol version
[6a8e6ce0] (29/29) Differs in 0 samples @
You can use CUETools to repair this rip.


Exact Audio Copy V1.0 beta 3 from 29. August 2011

EAC 抓取日志文件从3. 十一月 2014, 7:29

Clara Haskil / Clara Haskil - Philips Recordings 1951-1960 CD11

使用驱动器 :HL-DT-STDVD+-RW GS30N Adapter: 1 ID: 0

读取模式 : 可靠Secure
使用精确流 : 是
清空音频缓存 : 否
使用 C2 指示器 : 否

读取偏移校正: : 667
读取 Lead-In 和 Lead-Out : 否
用静音填充抓取中丢失偏移的采样 : 是
去除首尾静音块 : 否
在CRC 计算中使用了空样本 : 是
已用接口 : Win NT 及 2000 本地 Win32 接口

所用输出模式: : 用户定义的编码器
已选比特率 : 768 kBit/s
质量 : 高
添加 ID3 标签 : 否
命令行压缩器 : d:\Program Files (x86)\Exact Audio Copy\FLAC\FLAC.EXE
附加命令行参数: : -6 -V -T "ARTIST=%artist%" -T "TITLE=%title%" -T "ALBUM=%albumtitle%" -T "DATE=%year%" -T "TRACKNUMBER=%tracknr%" -T "GENRE=%genre%" -T "COMMENT=%comment%" -T "BAND=%albuminterpret%" -T "ALBUMARTIST=%albuminterpret%" -T "COMPOSER=%composer%" %haslyrics%–tag-from-file=LYRICS="%lyricsfile%"%haslyrics% -T "DISCNUMBER=%cdnumber%" -T "TOTALDISCS=%totalcds%" -T "TOTALTRACKS=%numtracks%" %hascover%–picture="%coverfile%"%hascover% %source% -o %dest%


已抓取 CD 的 TOC

音轨 | 起始 | 长度 | 起始扇区 | 结束扇区
––––––––––––––––––––––
1 | 0:00.33 | 13:28.00 | 33 | 60632
2 | 13:28.33 | 8:09.37 | 60633 | 97344
3 | 21:37.70 | 3:38.00 | 97345 | 113694
4 | 25:15.70 | 7:01.63 | 113695 | 145332
5 | 32:17.58 | 7:49.12 | 145333 | 180519
6 | 40:06.70 | 6:10.00 | 180520 | 208269
7 | 46:16.70 | 6:11.00 | 208270 | 236094
8 | 52:27.70 | 8:50.38 | 236095 | 275882
9 | 61:18.33 | 5:17.25 | 275883 | 299682
10 | 66:35.58 | 4:13.25 | 299683 | 318682
11 | 70:49.08 | 5:00.25 | 318683 | 341207


范围状态及错误

已选择范围

文件名 F:\抓轨\Clara Haskil - Clara Haskil - Philips Recordings 1951-1960 CD11.wav

峰值电平 95.5 %
抓取速度 8.0 X
范围质量 100.0 %
复制 CRC 2EFDABED
复制成功

没有错误发生


AccurateRip 摘要

音轨 1 精确地校准抓取 22) [A4304B4B] (AR v2)
音轨 2 精确地校准抓取 22) [E3752141] (AR v2)
音轨 3 精确地校准抓取 22) [C5BD0696] (AR v2)
音轨 4 精确地校准抓取 22) [21A89D34] (AR v2)
音轨 5 精确地校准抓取 22) [19F01920] (AR v2)
音轨 6 精确地校准抓取 22) [442C7A93] (AR v2)
音轨 7 精确地校准抓取 22) [B3F97470] (AR v2)
音轨 8 精确地校准抓取 22) [8207D1CB] (AR v2)
音轨 9 精确地校准抓取 22) [6E592305] (AR v2)
音轨 10 精确地校准抓取 22) [2A250464] (AR v2)
音轨 11 精确地校准抓取 20) [31647B82] (AR v2)

所有音轨精确校准抓取

状态报告结尾

–– CUETools DB Plugin V2.1.3

[CTDB TOCID: _Wl0ZRlxADKfA55w7tYXix1Mj9A-] disk not present in database, Submit result: discs with pregaps not supported in this protocol version


Exact Audio Copy V1.0 beta 3 from 29. August 2011

EAC 抓取日志文件从3. 十一月 2014, 8:00

Recital: Clara Haskil / Clara Haskil Edition CD12. Scarlatti, Soler, Pescetti et al.

使用驱动器 :HL-DT-STDVD+-RW GS30N Adapter: 1 ID: 0

读取模式 : 可靠Secure
使用精确流 : 是
清空音频缓存 : 否
使用 C2 指示器 : 否

读取偏移校正: : 667
读取 Lead-In 和 Lead-Out : 否
用静音填充抓取中丢失偏移的采样 : 是
去除首尾静音块 : 否
在CRC 计算中使用了空样本 : 是
已用接口 : Win NT 及 2000 本地 Win32 接口

所用输出模式: : 用户定义的编码器
已选比特率 : 768 kBit/s
质量 : 高
添加 ID3 标签 : 否
命令行压缩器 : d:\Program Files (x86)\Exact Audio Copy\FLAC\FLAC.EXE
附加命令行参数: : -6 -V -T "ARTIST=%artist%" -T "TITLE=%title%" -T "ALBUM=%albumtitle%" -T "DATE=%year%" -T "TRACKNUMBER=%tracknr%" -T "GENRE=%genre%" -T "COMMENT=%comment%" -T "BAND=%albuminterpret%" -T "ALBUMARTIST=%albuminterpret%" -T "COMPOSER=%composer%" %haslyrics%–tag-from-file=LYRICS="%lyricsfile%"%haslyrics% -T "DISCNUMBER=%cdnumber%" -T "TOTALDISCS=%totalcds%" -T "TOTALTRACKS=%numtracks%" %hascover%–picture="%coverfile%"%hascover% %source% -o %dest%


已抓取 CD 的 TOC

音轨 | 起始 | 长度 | 起始扇区 | 结束扇区
––––––––––––––––––––––
1 | 0:00.00 | 5:25.01 | 0 | 24375
2 | 5:25.01 | 1:44.23 | 24376 | 32198
3 | 7:09.24 | 5:54.13 | 32199 | 58761
4 | 13:03.37 | 2:25.68 | 58762 | 69704
5 | 15:29.30 | 4:06.63 | 69705 | 88217
6 | 19:36.18 | 2:29.38 | 88218 | 99430
7 | 22:05.56 | 2:46.37 | 99431 | 111917
8 | 24:52.18 | 2:54.10 | 111918 | 124977
9 | 27:46.28 | 4:33.65 | 124978 | 145517
10 | 32:20.18 | 2:44.00 | 145518 | 157817
11 | 35:04.18 | 2:33.71 | 157818 | 169363
12 | 37:38.14 | 2:27.74 | 169364 | 180462
13 | 40:06.13 | 3:36.30 | 180463 | 196692
14 | 43:42.43 | 6:10.05 | 196693 | 224447
15 | 49:52.48 | 7:51.56 | 224448 | 259828
16 | 57:44.29 | 4:48.31 | 259829 | 281459
17 | 62:32.60 | 4:31.69 | 281460 | 301853
18 | 67:04.54 | 3:01.38 | 301854 | 315466


范围状态及错误

已选择范围

文件名 F:\抓轨\Recital- Clara Haskil - Clara Haskil Edition CD12. Scarlatti, Soler, Pescetti et al..wav

峰值电平 85.9 %
抓取速度 7.8 X
范围质量 100.0 %
复制 CRC BF8BAD3C
复制成功

没有错误发生


AccurateRip 摘要

音轨 1 精确地校准抓取 14) [DBAAAFD9] (AR v2)
音轨 2 精确地校准抓取 14) [492B3FF2] (AR v2)
音轨 3 精确地校准抓取 14) [D0754EFF] (AR v2)
音轨 4 精确地校准抓取 14) [0205DCD3] (AR v2)
音轨 5 精确地校准抓取 14) [62C308E1] (AR v2)
音轨 6 精确地校准抓取 14) [C6B08DF4] (AR v2)
音轨 7 精确地校准抓取 14) [9462C0F3] (AR v2)
音轨 8 精确地校准抓取 14) [FCC19808] (AR v2)
音轨 9 精确地校准抓取 14) [4C043B63] (AR v2)
音轨 10 精确地校准抓取 14) [DD3353FE] (AR v2)
音轨 11 精确地校准抓取 14) [65A9DD73] (AR v2)
音轨 12 精确地校准抓取 14) [B8F88D2F] (AR v2)
音轨 13 精确地校准抓取 14) [E4A8B5FD] (AR v2)
音轨 14 精确地校准抓取 14) [A9067127] (AR v2)
音轨 15 精确地校准抓取 14) [A17F4A7F] (AR v2)
音轨 16 精确地校准抓取 15) [DA5E4AB4] (AR v2)
音轨 17 精确地校准抓取 15) [516736D0] (AR v2)
音轨 18 精确地校准抓取 15) [9B7802A1] (AR v2)

所有音轨精确校准抓取

状态报告结尾

–– CUETools DB Plugin V2.1.3

[CTDB TOCID: fl_E_Cp4DDJskZ1D4dbAluSBSgI-] found, Submit result: fl_E_Cp4DDJskZ1D4dbAluSBSgI- has been confirmed
[72aca086] (8/8) Accurately ripped


Exact Audio Copy V1.0 beta 3 from 29. August 2011

EAC 抓取日志文件从3. 十一月 2014, 8:34

Beethoven, Ludwig van / Violinsonaten Nr. 1 - 4 (Haskil, Grumiaux)

使用驱动器 :HL-DT-STDVD+-RW GS30N Adapter: 1 ID: 0

读取模式 : 可靠Secure
使用精确流 : 是
清空音频缓存 : 否
使用 C2 指示器 : 否

读取偏移校正: : 667
读取 Lead-In 和 Lead-Out : 否
用静音填充抓取中丢失偏移的采样 : 是
去除首尾静音块 : 否
在CRC 计算中使用了空样本 : 是
已用接口 : Win NT 及 2000 本地 Win32 接口

所用输出模式: : 用户定义的编码器
已选比特率 : 768 kBit/s
质量 : 高
添加 ID3 标签 : 否
命令行压缩器 : d:\Program Files (x86)\Exact Audio Copy\FLAC\FLAC.EXE
附加命令行参数: : -6 -V -T "ARTIST=%artist%" -T "TITLE=%title%" -T "ALBUM=%albumtitle%" -T "DATE=%year%" -T "TRACKNUMBER=%tracknr%" -T "GENRE=%genre%" -T "COMMENT=%comment%" -T "BAND=%albuminterpret%" -T "ALBUMARTIST=%albuminterpret%" -T "COMPOSER=%composer%" %haslyrics%–tag-from-file=LYRICS="%lyricsfile%"%haslyrics% -T "DISCNUMBER=%cdnumber%" -T "TOTALDISCS=%totalcds%" -T "TOTALTRACKS=%numtracks%" %hascover%–picture="%coverfile%"%hascover% %source% -o %dest%


已抓取 CD 的 TOC

音轨 | 起始 | 长度 | 起始扇区 | 结束扇区
––––––––––––––––––––––
1 | 0:00.33 | 6:38.00 | 33 | 29882
2 | 6:38.33 | 6:47.00 | 29883 | 60407
3 | 13:25.33 | 4:57.00 | 60408 | 82682
4 | 18:22.33 | 4:33.00 | 82683 | 103157
5 | 22:55.33 | 5:41.00 | 103158 | 128732
6 | 28:36.33 | 4:32.00 | 128733 | 149132
7 | 33:08.33 | 8:06.00 | 149133 | 185582
8 | 41:14.33 | 6:17.00 | 185583 | 213857
9 | 47:31.33 | 4:22.00 | 213858 | 233507
10 | 51:53.33 | 5:21.00 | 233508 | 257582
11 | 57:14.33 | 5:45.00 | 257583 | 283457
12 | 62:59.33 | 5:26.00 | 283458 | 307907


范围状态及错误

已选择范围

文件名 F:\抓轨\Beethoven, Ludwig van - Violinsonaten Nr. 1 - 4 (Haskil, Grumiaux).wav

峰值电平 94.9 %
抓取速度 7.7 X
范围质量 100.0 %
复制 CRC 0FF4B55D
复制成功

没有错误发生


AccurateRip 摘要

音轨 1 精确地校准抓取 32) [2C2B041C] (AR v2)
音轨 2 精确地校准抓取 33) [A07CB1DB] (AR v2)
音轨 3 精确地校准抓取 33) [790FDF42] (AR v2)
音轨 4 精确地校准抓取 33) [9201C92E] (AR v2)
音轨 5 精确地校准抓取 33) [855C984F] (AR v2)
音轨 6 精确地校准抓取 33) [CAB270DE] (AR v2)
音轨 7 精确地校准抓取 33) [7956E93F] (AR v2)
音轨 8 精确地校准抓取 33) [E3966077] (AR v2)
音轨 9 精确地校准抓取 33) [85D7C4D2] (AR v2)
音轨 10 精确地校准抓取 33) [876CFEAC] (AR v2)
音轨 11 精确地校准抓取 33) [9F0D1ED0] (AR v2)
音轨 12 精确地校准抓取 33) [A65F92C1] (AR v2)

所有音轨精确校准抓取

状态报告结尾

–– CUETools DB Plugin V2.1.3

[CTDB TOCID: r4oWlEHaraFNe5shkVGRPgl44JQ-] found, Submit result: discs with pregaps not supported in this protocol version
[e56030dc] (1/1) Differs in 82 samples @00:00:25-00:00:26
You can use CUETools to repair this rip.


Exact Audio Copy V1.0 beta 3 from 29. August 2011

EAC 抓取日志文件从3. 十一月 2014, 9:01

Beethoven, Ludwig van / Sonaten für Klavier und Violine Nr. 5 - 7 (Haskil, Grumiaux)

使用驱动器 :HL-DT-STDVD+-RW GS30N Adapter: 1 ID: 0

读取模式 : 可靠Secure
使用精确流 : 是
清空音频缓存 : 否
使用 C2 指示器 : 否

读取偏移校正: : 667
读取 Lead-In 和 Lead-Out : 否
用静音填充抓取中丢失偏移的采样 : 是
去除首尾静音块 : 否
在CRC 计算中使用了空样本 : 是
已用接口 : Win NT 及 2000 本地 Win32 接口

所用输出模式: : 用户定义的编码器
已选比特率 : 768 kBit/s
质量 : 高
添加 ID3 标签 : 否
命令行压缩器 : d:\Program Files (x86)\Exact Audio Copy\FLAC\FLAC.EXE
附加命令行参数: : -6 -V -T "ARTIST=%artist%" -T "TITLE=%title%" -T "ALBUM=%albumtitle%" -T "DATE=%year%" -T "TRACKNUMBER=%tracknr%" -T "GENRE=%genre%" -T "COMMENT=%comment%" -T "BAND=%albuminterpret%" -T "ALBUMARTIST=%albuminterpret%" -T "COMPOSER=%composer%" %haslyrics%–tag-from-file=LYRICS="%lyricsfile%"%haslyrics% -T "DISCNUMBER=%cdnumber%" -T "TOTALDISCS=%totalcds%" -T "TOTALTRACKS=%numtracks%" %hascover%–picture="%coverfile%"%hascover% %source% -o %dest%


已抓取 CD 的 TOC

音轨 | 起始 | 长度 | 起始扇区 | 结束扇区
––––––––––––––––––––––
1 | 0:00.33 | 10:15.00 | 33 | 46157
2 | 10:15.33 | 5:29.00 | 46158 | 70832
3 | 15:44.33 | 1:06.00 | 70833 | 75782
4 | 16:50.33 | 6:10.00 | 75783 | 103532
5 | 23:00.33 | 5:30.00 | 103533 | 128282
6 | 28:30.33 | 7:00.00 | 128283 | 159782
7 | 35:30.33 | 7:41.00 | 159783 | 194357
8 | 43:11.33 | 7:37.00 | 194358 | 228632
9 | 50:48.33 | 9:23.00 | 228633 | 270857
10 | 60:11.33 | 3:12.00 | 270858 | 285257
11 | 63:23.33 | 5:00.00 | 285258 | 307757


范围状态及错误

已选择范围

文件名 F:\抓轨\Beethoven, Ludwig van - Sonaten für Klavier und Violine Nr. 5 - 7 (Haskil, Grumiaux).wav

峰值电平 97.2 %
抓取速度 7.7 X
范围质量 100.0 %
复制 CRC E4857F04
复制成功

没有错误发生


AccurateRip 摘要

音轨 1 精确地校准抓取 32) [D0168095] (AR v2)
音轨 2 精确地校准抓取 32) [CD7D5672] (AR v2)
音轨 3 精确地校准抓取 32) [607378CF] (AR v2)
音轨 4 精确地校准抓取 32) [BB67C368] (AR v2)
音轨 5 精确地校准抓取 32) [E78C2FBE] (AR v2)
音轨 6 精确地校准抓取 32) [F64A2152] (AR v2)
音轨 7 精确地校准抓取 32) [237B1229] (AR v2)
音轨 8 精确地校准抓取 32) [570D581C] (AR v2)
音轨 9 精确地校准抓取 32) [8B99A434] (AR v2)
音轨 10 精确地校准抓取 31) [1FD39E36] (AR v2)
音轨 11 精确地校准抓取 32) [7EDF39CC] (AR v2)

所有音轨精确校准抓取

状态报告结尾

–– CUETools DB Plugin V2.1.3

[CTDB TOCID: DYCbYAfx1H5YT3U8rfalBzwC.eQ-] found, Submit result: discs with pregaps not supported in this protocol version
[00327f68] (1/1) Differs in 92 samples @00:00:27-00:00:37
You can use CUETools to repair this rip.


Exact Audio Copy V1.0 beta 3 from 29. August 2011

EAC 抓取日志文件从3. 十一月 2014, 9:50

Beethoven, Ludwig van / Sonaten für Klavier und Violine Nr. 8 - 10 (Haskil, Grumiaux)

使用驱动器 :HL-DT-STDVD+-RW GS30N Adapter: 1 ID: 0

读取模式 : 可靠Secure
使用精确流 : 是
清空音频缓存 : 否
使用 C2 指示器 : 否

读取偏移校正: : 667
读取 Lead-In 和 Lead-Out : 否
用静音填充抓取中丢失偏移的采样 : 是
去除首尾静音块 : 否
在CRC 计算中使用了空样本 : 是
已用接口 : Win NT 及 2000 本地 Win32 接口

所用输出模式: : 用户定义的编码器
已选比特率 : 768 kBit/s
质量 : 高
添加 ID3 标签 : 否
命令行压缩器 : d:\Program Files (x86)\Exact Audio Copy\FLAC\FLAC.EXE
附加命令行参数: : -6 -V -T "ARTIST=%artist%" -T "TITLE=%title%" -T "ALBUM=%albumtitle%" -T "DATE=%year%" -T "TRACKNUMBER=%tracknr%" -T "GENRE=%genre%" -T "COMMENT=%comment%" -T "BAND=%albuminterpret%" -T "ALBUMARTIST=%albuminterpret%" -T "COMPOSER=%composer%" %haslyrics%–tag-from-file=LYRICS="%lyricsfile%"%haslyrics% -T "DISCNUMBER=%cdnumber%" -T "TOTALDISCS=%totalcds%" -T "TOTALTRACKS=%numtracks%" %hascover%–picture="%coverfile%"%hascover% %source% -o %dest%


已抓取 CD 的 TOC

音轨 | 起始 | 长度 | 起始扇区 | 结束扇区
––––––––––––––––––––––
1 | 0:00.33 | 6:06.37 | 33 | 27519
2 | 6:06.70 | 7:50.38 | 27520 | 62807
3 | 13:57.33 | 3:29.00 | 62808 | 78482
4 | 17:26.33 | 10:57.50 | 78483 | 127807
5 | 28:24.08 | 2:54.25 | 127808 | 140882
6 | 31:18.33 | 2:09.10 | 140883 | 150567
7 | 33:27.43 | 1:52.65 | 150568 | 159032
8 | 35:20.33 | 3:11.12 | 159033 | 173369
9 | 38:31.45 | 3:19.50 | 173370 | 188344
10 | 41:51.20 | 2:42.13 | 188345 | 200507
11 | 44:33.33 | 6:46.50 | 200508 | 231007
12 | 51:20.08 | 9:29.25 | 231008 | 273707
13 | 60:49.33 | 5:41.25 | 273708 | 299307
14 | 66:30.58 | 1:39.00 | 299308 | 306732
15 | 68:09.58 | 8:24.50 | 306733 | 344582


范围状态及错误

已选择范围

文件名 F:\抓轨\Beethoven, Ludwig van - Sonaten für Klavier und Violine Nr. 8 - 10 (Haskil, Grumiaux).wav

峰值电平 97.1 %
抓取速度 3.3 X
范围质量 100.0 %
复制 CRC 1E7FA8A0
复制成功

没有错误发生


AccurateRip 摘要

音轨 1 精确地校准抓取 32) [0ADC4ACD] (AR v2)
音轨 2 精确地校准抓取 32) [D6B71EA1] (AR v2)
音轨 3 精确地校准抓取 32) [2110DE1C] (AR v2)
音轨 4 精确地校准抓取 32) [AAC5C0F8] (AR v2)
音轨 5 精确地校准抓取 32) [6C5D1B63] (AR v2)
音轨 6 精确地校准抓取 32) [6145E136] (AR v2)
音轨 7 精确地校准抓取 32) [FEC2D30C] (AR v2)
音轨 8 精确地校准抓取 32) [A9D0574E] (AR v2)
音轨 9 精确地校准抓取 32) [DDCDA47E] (AR v2)
音轨 10 精确地校准抓取 32) [D26E6965] (AR v2)
音轨 11 精确地校准抓取 32) [06D1C181] (AR v2)
音轨 12 精确地校准抓取 32) [371242A4] (AR v2)
音轨 13 精确地校准抓取 32) [79461DC6] (AR v2)
音轨 14 精确地校准抓取 32) [2331D7F3] (AR v2)
音轨 15 精确地校准抓取 31) [B7B59EFB] (AR v2)

所有音轨精确校准抓取

状态报告结尾

–– CUETools DB Plugin V2.1.3

[CTDB TOCID: nEM6ew95uojJoG1WOO3sAObFRbg-] found, Submit result: discs with pregaps not supported in this protocol version
[d4205403] (47/47) Differs in 0 samples @
You can use CUETools to repair this rip.


Exact Audio Copy V1.0 beta 3 from 29. August 2011

EAC 抓取日志文件从3. 十一月 2014, 10:31

Mozart, Wolfgang Amadeus / Violinsonaten K.301, 304, 376 & 378 (Haskil, Grumiaux)

使用驱动器 :HL-DT-STDVD+-RW GS30N Adapter: 1 ID: 0

读取模式 : 可靠Secure
使用精确流 : 是
清空音频缓存 : 否
使用 C2 指示器 : 否

读取偏移校正: : 667
读取 Lead-In 和 Lead-Out : 否
用静音填充抓取中丢失偏移的采样 : 是
去除首尾静音块 : 否
在CRC 计算中使用了空样本 : 是
已用接口 : Win NT 及 2000 本地 Win32 接口

所用输出模式: : 用户定义的编码器
已选比特率 : 768 kBit/s
质量 : 高
添加 ID3 标签 : 否
命令行压缩器 : d:\Program Files (x86)\Exact Audio Copy\FLAC\FLAC.EXE
附加命令行参数: : -6 -V -T "ARTIST=%artist%" -T "TITLE=%title%" -T "ALBUM=%albumtitle%" -T "DATE=%year%" -T "TRACKNUMBER=%tracknr%" -T "GENRE=%genre%" -T "COMMENT=%comment%" -T "BAND=%albuminterpret%" -T "ALBUMARTIST=%albuminterpret%" -T "COMPOSER=%composer%" %haslyrics%–tag-from-file=LYRICS="%lyricsfile%"%haslyrics% -T "DISCNUMBER=%cdnumber%" -T "TOTALDISCS=%totalcds%" -T "TOTALTRACKS=%numtracks%" %hascover%–picture="%coverfile%"%hascover% %source% -o %dest%


已抓取 CD 的 TOC

音轨 | 起始 | 长度 | 起始扇区 | 结束扇区
––––––––––––––––––––––
1 | 0:00.33 | 5:40.00 | 33 | 25532
2 | 5:40.33 | 5:14.00 | 25533 | 49082
3 | 10:54.33 | 6:27.00 | 49083 | 78107
4 | 17:21.33 | 5:34.00 | 78108 | 103157
5 | 22:55.33 | 3:26.00 | 103158 | 118607
6 | 26:21.33 | 5:38.00 | 118608 | 143957
7 | 31:59.33 | 5:51.00 | 143958 | 170282
8 | 37:50.33 | 6:01.00 | 170283 | 197357
9 | 43:51.33 | 4:48.00 | 197358 | 218957
10 | 48:39.33 | 4:01.00 | 218958 | 237032


范围状态及错误

已选择范围

文件名 F:\抓轨\Mozart, Wolfgang Amadeus - Violinsonaten K.301, 304, 376 & 378 (Haskil, Grumiaux).wav

峰值电平 89.3 %
抓取速度 7.5 X
范围质量 100.0 %
复制 CRC 931A9B69
复制成功

没有错误发生


AccurateRip 摘要

音轨 1 精确地校准抓取 16) [63D0D016] (AR v2)
音轨 2 精确地校准抓取 16) [1FDE4959] (AR v2)
音轨 3 精确地校准抓取 16) [C53ED702] (AR v2)
音轨 4 精确地校准抓取 16) [DBCF48C8] (AR v2)
音轨 5 精确地校准抓取 16) [D46231D8] (AR v2)
音轨 6 精确地校准抓取 16) [89AF2240] (AR v2)
音轨 7 精确地校准抓取 16) [08CE08D9] (AR v2)
音轨 8 精确地校准抓取 16) [09AFB469] (AR v2)
音轨 9 精确地校准抓取 16) [C32129C6] (AR v2)
音轨 10 精确地校准抓取 16) [315FDEFA] (AR v2)

所有音轨精确校准抓取

状态报告结尾

–– CUETools DB Plugin V2.1.3

[CTDB TOCID: QkpWu7G5xVWh5l.AYM7kIFNTREc-] found, Submit result: discs with pregaps not supported in this protocol version
[7cd2b0b1] (1/1) Differs in 0 samples @
You can use CUETools to repair this rip.


Exact Audio Copy V1.0 beta 3 from 29. August 2011

EAC 抓取日志文件从3. 十一月 2014, 10:44

Mozart, Wolfgang Amadeus / Violinsonaten K.454 & K.526 (Haskil, Grumiaux)

使用驱动器 :HL-DT-STDVD+-RW GS30N Adapter: 1 ID: 0

读取模式 : 可靠Secure
使用精确流 : 是
清空音频缓存 : 否
使用 C2 指示器 : 否

读取偏移校正: : 667
读取 Lead-In 和 Lead-Out : 否
用静音填充抓取中丢失偏移的采样 : 是
去除首尾静音块 : 否
在CRC 计算中使用了空样本 : 是
已用接口 : Win NT 及 2000 本地 Win32 接口

所用输出模式: : 用户定义的编码器
已选比特率 : 768 kBit/s
质量 : 高
添加 ID3 标签 : 否
命令行压缩器 : d:\Program Files (x86)\Exact Audio Copy\FLAC\FLAC.EXE
附加命令行参数: : -6 -V -T "ARTIST=%artist%" -T "TITLE=%title%" -T "ALBUM=%albumtitle%" -T "DATE=%year%" -T "TRACKNUMBER=%tracknr%" -T "GENRE=%genre%" -T "COMMENT=%comment%" -T "BAND=%albuminterpret%" -T "ALBUMARTIST=%albuminterpret%" -T "COMPOSER=%composer%" %haslyrics%–tag-from-file=LYRICS="%lyricsfile%"%haslyrics% -T "DISCNUMBER=%cdnumber%" -T "TOTALDISCS=%totalcds%" -T "TOTALTRACKS=%numtracks%" %hascover%–picture="%coverfile%"%hascover% %source% -o %dest%


已抓取 CD 的 TOC

音轨 | 起始 | 长度 | 起始扇区 | 结束扇区
––––––––––––––––––––––
1 | 0:00.33 | 7:16.00 | 33 | 32732
2 | 7:16.33 | 8:10.00 | 32733 | 69482
3 | 15:26.33 | 6:42.00 | 69483 | 99632
4 | 22:08.33 | 6:23.00 | 99633 | 128357
5 | 28:31.33 | 8:21.00 | 128358 | 165932
6 | 36:52.33 | 6:53.00 | 165933 | 196907


范围状态及错误

已选择范围

文件名 F:\抓轨\Mozart, Wolfgang Amadeus - Violinsonaten K.454 & K.526 (Haskil, Grumiaux).wav

峰值电平 98.9 %
抓取速度 7.1 X
范围质量 99.9 %
复制 CRC 326D3AE1
复制成功

没有错误发生


AccurateRip 摘要

音轨 1 精确地校准抓取 13) [053463B1] (AR v2)
音轨 2 精确地校准抓取 14) [CA47DFA8] (AR v2)
音轨 3 精确地校准抓取 14) [38D7EC86] (AR v2)
音轨 4 精确地校准抓取 14) [DAA4E0EC] (AR v2)
音轨 5 精确地校准抓取 14) [9ACD38B5] (AR v2)
音轨 6 精确地校准抓取 14) [4E90BB4B] (AR v2)

所有音轨精确校准抓取

状态报告结尾

–– CUETools DB Plugin V2.1.3

[CTDB TOCID: 4Y3AcbVrWYFvzWp4wGOB037cB7U-] found, Submit result: discs with pregaps not supported in this protocol version
[0537d079] (1/1) Differs in 21410 samples @00:00:07-00:00:37
You can use CUETools to repair this rip.


Начато: среда, 12. 04. 2017. - 9:40.02
Найдено файлов: 17

01 -===- D:\Торрент\Clara Haskil Edition – (17CDs, Decca, 2010)\CD01\Wolfgang Amadeus Mozart (1756-1791) - Clara Haskil CD1.flac
Извлечение успешно выполнено
Заключение: этот трек - CDDA с вероятностью 100%
Временный файл удалён.

02 -===- D:\Торрент\Clara Haskil Edition – (17CDs, Decca, 2010)\CD02\Mozart (Orchestre Des Concerts Lamoureux - Igor Markevitch - Clara Haskil) - Piano Concero No.20 and No.24.flac
Извлечение успешно выполнено
Заключение: этот трек - CDDA с вероятностью 100%
Временный файл удалён.

03 -===- D:\Торрент\Clara Haskil Edition – (17CDs, Decca, 2010)\CD03\Clara Haskil - Clara Haskil Edition - CD3.flac
Извлечение успешно выполнено
Заключение: этот трек - CDDA с вероятностью 99%
Временный файл удалён.

04 -===- D:\Торрент\Clara Haskil Edition – (17CDs, Decca, 2010)\CD04\Clara Haskil - Clara Haskil Edition - CD4.flac
Извлечение успешно выполнено
Заключение: этот трек - CDDA с вероятностью 100%
Временный файл удалён.

05 -===- D:\Торрент\Clara Haskil Edition – (17CDs, Decca, 2010)\CD05\Clara Haskil - Clara Haskil Edition - CD5.flac
Извлечение успешно выполнено
Заключение: этот трек - CDDA с вероятностью 99%
Временный файл удалён.

06 -===- D:\Торрент\Clara Haskil Edition – (17CDs, Decca, 2010)\CD06\Mozart - Haskil CD6.flac
Извлечение успешно выполнено
Заключение: этот трек - CDDA с вероятностью 100%
Временный файл удалён.

07 -===- D:\Торрент\Clara Haskil Edition – (17CDs, Decca, 2010)\CD07\Clara Haskil - Clara Haskil Edition -CD7.flac
Извлечение успешно выполнено
Заключение: этот трек - CDDA с вероятностью 100%
Временный файл удалён.

08 -===- D:\Торрент\Clara Haskil Edition – (17CDs, Decca, 2010)\CD08\Clara Haskil - Clara Haskil Edition - CD8.flac
Извлечение успешно выполнено
Заключение: этот трек - CDDA с вероятностью 100%
Временный файл удалён.

09 -===- D:\Торрент\Clara Haskil Edition – (17CDs, Decca, 2010)\CD09\Clara Haskil - Clara Haskil - Philips Records 1951-1960.flac
Извлечение успешно выполнено
Заключение: этот трек - CDDA с вероятностью 100%
Временный файл удалён.

10 -===- D:\Торрент\Clara Haskil Edition – (17CDs, Decca, 2010)\CD10\Clara Haskil - Clara Haskil - Philips Recordings 1951-1960 CD10.flac
Извлечение успешно выполнено
Заключение: этот трек - CDDA с вероятностью 100%
Временный файл удалён.

11 -===- D:\Торрент\Clara Haskil Edition – (17CDs, Decca, 2010)\CD11\Clara Haskil - Clara Haskil - Philips Recordings 1951-1960 CD11.flac
Извлечение успешно выполнено
Заключение: этот трек - CDDA с вероятностью 100%
Временный файл удалён.

12 -===- D:\Торрент\Clara Haskil Edition – (17CDs, Decca, 2010)\CD12\Recital- Clara Haskil - Clara Haskil Edition CD12. Scarlatti, Soler, Pescetti et al..flac
Извлечение успешно выполнено
Заключение: этот трек - CDDA с вероятностью 100%
Временный файл удалён.

13 -===- D:\Торрент\Clara Haskil Edition – (17CDs, Decca, 2010)\CD13\Beethoven, Ludwig van - Violinsonaten Nr. 1 - 4 (Haskil, Grumiaux).flac
Извлечение успешно выполнено
Заключение: этот трек - CDDA с вероятностью 99%
Временный файл удалён.

14 -===- D:\Торрент\Clara Haskil Edition – (17CDs, Decca, 2010)\CD14\Beethoven - Violin Sonatas Nos.5 - 7.flac
Извлечение успешно выполнено
Заключение: этот трек - CDDA с вероятностью 100%
Временный файл удалён.

15 -===- D:\Торрент\Clara Haskil Edition – (17CDs, Decca, 2010)\CD15\Beethoven - Violin Sonatas Nos.8 - 10.flac
Извлечение успешно выполнено
Заключение: этот трек - CDDA с вероятностью 100%
Временный файл удалён.

16 -===- D:\Торрент\Clara Haskil Edition – (17CDs, Decca, 2010)\CD16\Mozart, Wolfgang Amadeus - Violinsonaten K.301, 304, 376 & 378 (Haskil, Grumiaux).flac
Извлечение успешно выполнено
Заключение: этот трек - CDDA с вероятностью 100%
Временный файл удалён.

17 -===- D:\Торрент\Clara Haskil Edition – (17CDs, Decca, 2010)\CD17\Mozart, Wolfgang Amadeus - Violinsonaten K.454 & K.526 (Haskil, Grumiaux).flac
Извлечение успешно выполнено
Заключение: этот трек - CDDA с вероятностью 100%
Временный файл удалён.


Завершено: среда, 12. 04. 2017. - 10:50.47 (Время операции: 1:10.45)