Tags
Language
Tags

Clarence 'Gatemouth' Brown - American Music, Texas Style (1999)

Posted By: Designol
Clarence 'Gatemouth' Brown - American Music, Texas Style (1999)

Clarence 'Gatemouth' Brown - American Music, Texas Style (1999)
EAC | FLAC | Image (Cue&Log) ~ 352 Mb | Mp3 (CBR320) ~ 182 Mb | Scans included | Time: 00:55:37
Modern Electric Texas Blues, Jazz-Blues, Rhythm & Blues | Label: Blue Thumb | # 547 536-2

Clarence "Gatemouth" Brown was 74 when he recorded American Music, Texas Style, and the Texas bluesman made it clear that he still had plenty of energy. On this CD, Brown really emphasizes his love of jazz. Young hard bop players like trumpeter Nicholas Payton and alto saxman Wes Anderson are on board, and the veteran singer/guitarist offers no less than three standards from Duke Ellington's repertoire ("I'm Beginning to See the Light," "Don't Get Around Much Anymore," and son Mercer Ellington's "Things Ain't What They Used to Be") and two classics from Charlie Parker's years with Jay McShann ("Hootie Blues," "Jumpin' the Blues"). Meanwhile, the jazz influence is hard to miss on such fast jump blues as "Rock My Blues Away" and "Without Me Baby." Brown's voice is thinner than it used to be, but his guitar playing is as energetic as ever. While this CD isn't definitive, it's a good, solid effort that Brown can be proud of.

Review by Alex Henderson, Allmusic.com

Clarence 'Gatemouth' Brown - American Music, Texas Style (1999)



Tracklist:

01. Rock My Blues Away (3:14)
02. Half Steppin' (3:00)
03. Hootie Blues (5:00)
04. Front Burner (5:32)
05. I'm Beginning To See The Light (2:35)
06. Swamp Ghost (6:47)
07. Without Me Baby (3:44)
08. Gate Swings Again (2:58)
09. Strange Things Happen (5:10)
10. Don't Get Around Much Anymore (4:45)
11. Guitar In My Hand (5:13)
12. Jumpin' The Blues (2:56)
13. Things Ain't What They Used To Be (4:43)


Exact Audio Copy V1.0 beta 3 from 29. August 2011

Отчёт EAC об извлечении, выполненном 6. ноября 2014, 22:26

Clarence 'Gatemouth' Brown / American Music, Texas Style

Дисковод: SONY CD-RW CRX230ED Adapter: 0 ID: 1

Режим чтения : Достоверность
Использование точного потока : Да
Отключение кэша аудио : Да
Использование указателей C2 : Нет

Коррекция смещения при чтении : 6
Способность читать области Lead-in и Lead-out : Нет
Заполнение пропущенных сэмплов тишиной : Да
Удаление блоков с тишиной в начале и конце : Нет
При вычислениях CRC использовались нулевые сэмплы : Да
Интерфейс : Встроенный Win32-интерфейс для Win NT/2000

Выходной формат : Внутренние WAV-операции
Формат сэмплов : 44.100 Гц; 16 бит; стерео


TOC извлечённого CD

Трек | Старт | Длительность | Начальный сектор | Конечный сектор
––––––––––––––––––––––––––––––––––-
1 | 0:00.00 | 3:14.00 | 0 | 14549
2 | 3:14.00 | 3:00.00 | 14550 | 28049
3 | 6:14.00 | 5:00.00 | 28050 | 50549
4 | 11:14.00 | 5:31.62 | 50550 | 75436
5 | 16:45.62 | 2:34.63 | 75437 | 87049
6 | 19:20.50 | 6:47.37 | 87050 | 117611
7 | 26:08.12 | 3:43.50 | 117612 | 134386
8 | 29:51.62 | 2:57.63 | 134387 | 147724
9 | 32:49.50 | 5:10.12 | 147725 | 170986
10 | 37:59.62 | 4:45.25 | 170987 | 192386
11 | 42:45.12 | 5:12.50 | 192387 | 215836
12 | 47:57.62 | 2:56.00 | 215837 | 229036
13 | 50:53.62 | 4:43.13 | 229037 | 250274


Характеристики диапазона извлечения и сообщения об ошибках

Выбранный диапазон

Имя файла F:\MusicCD\Torrent\Clarence 'Gatemouth' Brown - American Music, Texas Style\Clarence 'Gatemouth' Brown - American Music, Texas Style.wav

Пиковый уровень 96.2 %
Скорость извлечения 6.1 X
Качество диапазона 100.0 %
CRC теста 46EAC456
CRC копии 46EAC456
Копирование… OK

Ошибок не произошло


AccurateRip: сводка

Трек 1 : извлечено точно (доверие 5) [8D77E339] (AR v2)
Трек 2 : извлечено точно (доверие 5) [655EF5A0] (AR v2)
Трек 3 : извлечено точно (доверие 5) [6B8B14FC] (AR v2)
Трек 4 : извлечено точно (доверие 5) [8A681C1F] (AR v2)
Трек 5 : извлечено точно (доверие 5) [4210B8C8] (AR v2)
Трек 6 : извлечено точно (доверие 5) [E1B8F1CA] (AR v2)
Трек 7 : извлечено точно (доверие 5) [DD0CA88F] (AR v2)
Трек 8 : извлечено точно (доверие 4) [03D730E2] (AR v2)
Трек 9 : извлечено точно (доверие 5) [478B1338] (AR v2)
Трек 10 : извлечено точно (доверие 5) [BF9FACE9] (AR v2)
Трек 11 : извлечено точно (доверие 5) [FC6AE34E] (AR v2)
Трек 12 : извлечено точно (доверие 5) [71B11C28] (AR v2)
Трек 13 : извлечено точно (доверие 5) [B7667E77] (AR v2)

Все треки извлечены точно

Конец отчёта

==== Контрольная сумма отчёта 230D06BF1668FD55CAD68235966B5E4037A4D4DB5A889BEEA016150FD7C3A95C ====

foobar2000 1.2 / Dynamic Range Meter 1.1.1
log date: 2017-03-30 00:44:39

––––––––––––––––––––––––––––––––––––––––
Analyzed: Clarence 'Gatemouth' Brown / American Music, Texas Style
––––––––––––––––––––––––––––––––––––––––

DR Peak RMS Duration Track
––––––––––––––––––––––––––––––––––––––––
DR13 -0.33 dB -14.59 dB 3:14 01-Rock My Blues Away
DR13 -0.52 dB -15.97 dB 3:00 02-Half Steppin'
DR14 -0.48 dB -15.68 dB 5:00 03-Hootie Blues
DR13 -0.53 dB -16.12 dB 5:32 04-Front Burner
DR13 -0.58 dB -15.93 dB 2:35 05-I'm Beginning To See The Light
DR13 -0.53 dB -16.75 dB 6:47 06-Swamp Ghost
DR14 -0.50 dB -15.94 dB 3:44 07-Without Me Baby
DR13 -0.58 dB -15.00 dB 2:58 08-Gate Swings Again
DR14 -0.72 dB -18.13 dB 5:10 09-Strange Things Happen
DR14 -0.54 dB -15.95 dB 4:45 10-Don't Get Around Much Anymore
DR14 -0.54 dB -15.82 dB 5:13 11-Guitar In My Hand
DR13 -0.53 dB -14.69 dB 2:56 12-Jumpin' The Blues
DR13 -0.51 dB -15.20 dB 4:43 13-Things Ain't What They Used To Be
––––––––––––––––––––––––––––––––––––––––

Number of tracks: 13
Official DR value: DR13

Samplerate: 44100 Hz
Channels: 2
Bits per sample: 16
Bitrate: 809 kbps
Codec: FLAC
================================================================================

Clarence 'Gatemouth' Brown - American Music, Texas Style (1999)

Clarence 'Gatemouth' Brown - American Music, Texas Style (1999)

All thanks to original releaser - squirr

More interesting music in My Blog