Subcategories
Tags
Language
Tags

Clarence 'Gatemouth' Brown - Blackjack (1977) Reissue 1999

Posted By: Designol
Clarence 'Gatemouth' Brown - Blackjack (1977) Reissue 1999

Clarence 'Gatemouth' Brown - Blackjack (1977) Reissue 1999
EAC | FLAC | Image (Cue&Log) ~ 290 Mb | Mp3 (CBR320) ~ 126 Mb | Scans included
Label: Sugar Hill | # SHCD-3891 | Time: 00:45:08
Modern Electric Texas Blues, Jazz-Blues, Rhythm & Blues, Cajun

To call the multitalented Gatemouth Brown, a mainstay of the Texas music scene for over half a century, a bluesman would be inaccurate. Not completely wrong, for Brown's influence on Texas blues has been enormous, but certainly not the whole picture. On Blackjack, Brown (who sings and plays harmonica and a plethora of stringed instruments, from guitar to viola) goes from blues ("Chickenshift") to jazz ("Honey Boy," with a nice drum solo from David Peters) to country ("Dark End of the Hallway") and back again. Not every musician can handle this kind of variety, but Brown makes it work, whether it's the straight-ahead blues of "Here Am I" or "Street Corner" (which has a great harmonica intro), the Cajun-inflected "When My Blue Moon Turns to Gold Again," or the jazz-blues feel of "Tippin' In." It's easy to see, or rather to hear, why Brown has been so influential: every track on Blackjack is performed with the deft assurance of a master.

Review by Genevieve Williams

There aren't many 75-year-old entertainers who rock with the intensity of Gatemouth Brown, a multi-instrumentalist from Louisiana who is a master of guitar, fiddle, viola, mandolin, and harmonica. A look into Brown's history shows him leading a 23-piece orchestra in the late '40s, after a stint during the '20s and '30s as a Peacock Records recording artist. During the '60s, Brown traded in his guitar for a gun, signing on as a deputy sheriff in New Mexico. In 1974, at the age of 50, he jumped headfirst back into his music, and the rest is history. Black Jack was originally released on the Music Is Medicine label in 1977, and explores the versatility of Brown's love for Texas swing, featuring outstanding tracks laced with swing, big band, R&B and straight-up blues. Alternating between a smoking guitar and a fiery fiddle, Brown drives these 12 songs like a stock-car at NASCAR's Darlington, fast as he can go but still in absolute control of the vehicle. From the funky guitar picking of "Chickenshift," to the bluesy title cut "Black Jack," Brown burns brightly. The soulful "Dark End of the Hallway" is another standout track, as is the intense closing instrumental, "Up Jumped the Devil." For anyone who has previously tacked the blues label on Clarence "Gatemouth" Brown's considerable cowboy hat, now is the time to reconsider. While Brown is indeed a master bluesman, he is equally adept at handling Texas swing, country, jazz and rock & roll. A man of many talents who shows absolutely zero signs of slowing down.

Review by Michael B. Smith, Allmusic.com

Clarence 'Gatemouth' Brown at Allmusic
Clarence 'Gatemouth' Brown at Wiki

Tracklist:

01. Here Am I (2:34)
02. Tippin' In (3:32)
03. Song For Renee (Gate's Tune) (6:25)
04. When My Blue Moon Turns To Gold Again (2:32)
05. Street Corner (5:14)
06. Pressure Cooker (3:09)
07. Chickenshift (3:18)
08. Blackjack (4:44)
09. Honey Boy (4:00)
10. Take Me Back To Tulsa (1:56)
11. Dark End Of The Hallway (4:12)
12. Up Jumped The Devil (3:32)


Exact Audio Copy V1.0 beta 3 from 29. August 2011

Отчёт EAC об извлечении, выполненном 21. ноября 2014, 22:32

Clarence 'Gatemouth' Brown / Blackjack

Дисковод: SONY CD-RW CRX230ED Adapter: 0 ID: 1

Режим чтения : Достоверность
Использование точного потока : Да
Отключение кэша аудио : Да
Использование указателей C2 : Нет

Коррекция смещения при чтении : 6
Способность читать области Lead-in и Lead-out : Нет
Заполнение пропущенных сэмплов тишиной : Да
Удаление блоков с тишиной в начале и конце : Нет
При вычислениях CRC использовались нулевые сэмплы : Да
Интерфейс : Встроенный Win32-интерфейс для Win NT/2000

Выходной формат : Внутренние WAV-операции
Формат сэмплов : 44.100 Гц; 16 бит; стерео


TOC извлечённого CD

Трек | Старт | Длительность | Начальный сектор | Конечный сектор
––––––––––––––––––––––––––––––––––-
1 | 0:00.00 | 2:33.52 | 0 | 11526
2 | 2:33.52 | 3:31.38 | 11527 | 27389
3 | 6:05.15 | 6:25.27 | 27390 | 56291
4 | 12:30.42 | 2:31.63 | 56292 | 67679
5 | 15:02.30 | 5:13.60 | 67680 | 91214
6 | 20:16.15 | 3:08.62 | 91215 | 105376
7 | 23:25.02 | 3:18.25 | 105377 | 120251
8 | 26:43.27 | 4:44.28 | 120252 | 141579
9 | 31:27.55 | 4:00.25 | 141580 | 159604
10 | 35:28.05 | 1:55.47 | 159605 | 168276
11 | 37:23.52 | 4:12.25 | 168277 | 187201
12 | 41:36.02 | 3:31.68 | 187202 | 203094


Характеристики диапазона извлечения и сообщения об ошибках

Выбранный диапазон

Имя файла F:\MusicCD\Torrent\Clarence 'Gatemouth' Brown - Blackjack\Clarence 'Gatemouth' Brown - Blackjack.wav

Пиковый уровень 100.0 %
Скорость извлечения 7.3 X
Качество диапазона 100.0 %
CRC теста 24D46C66
CRC копии 24D46C66
Копирование… OK

Ошибок не произошло


AccurateRip: сводка

Трек 1 : извлечено точно (доверие 4) [C032EBF9] (AR v2)
Трек 2 : извлечено точно (доверие 4) [E9765449] (AR v2)
Трек 3 : извлечено точно (доверие 4) [7BEB45EB] (AR v2)
Трек 4 : извлечено точно (доверие 4) [A4A664A2] (AR v2)
Трек 5 : извлечено точно (доверие 4) [B0B9290F] (AR v2)
Трек 6 : извлечено точно (доверие 4) [0B05501D] (AR v2)
Трек 7 : извлечено точно (доверие 4) [90B35848] (AR v2)
Трек 8 : извлечено точно (доверие 4) [BD994E03] (AR v2)
Трек 9 : извлечено точно (доверие 4) [C178A7B6] (AR v2)
Трек 10 : извлечено точно (доверие 4) [E999CA37] (AR v2)
Трек 11 : извлечено точно (доверие 4) [19A91DC2] (AR v2)
Трек 12 : извлечено точно (доверие 4) [CFD1E2F4] (AR v2)

Все треки извлечены точно

Конец отчёта

==== Контрольная сумма отчёта C15BF9BE0456A65B809CED3A609408C77448968CE0BD1F206E5F74F47C1FFD05 ====

[CUETools log; Date: 28.11.2017 22:37:48; Version: 2.1.4]
[CTDB TOCID: 1rUIIs8lS6WqbKECAVhrovZMmnI-] found.
Track | CTDB Status
1 | (10/10) Accurately ripped
2 | (10/10) Accurately ripped
3 | (10/10) Accurately ripped
4 | (10/10) Accurately ripped
5 | (10/10) Accurately ripped
6 | (10/10) Accurately ripped
7 | (10/10) Accurately ripped
8 | (10/10) Accurately ripped
9 | (10/10) Accurately ripped
10 | (10/10) Accurately ripped
11 | (10/10) Accurately ripped
12 | (10/10) Accurately ripped
[AccurateRip ID: 00147064-00bf18c2-a00a930c] found.
Track [ CRC | V2 ] Status
01 [b337831d|c032ebf9] (06+06/12) Accurately ripped
02 [5172a035|e9765449] (06+06/12) Accurately ripped
03 [aa8cf22b|7beb45eb] (06+06/12) Accurately ripped
04 [082d8d3e|a4a664a2] (06+06/12) Accurately ripped
05 [74ce5c54|b0b9290f] (06+06/12) Accurately ripped
06 [01f6a744|0b05501d] (06+06/12) Accurately ripped
07 [6e3b3e0d|90b35848] (06+06/12) Accurately ripped
08 [29632abc|bd994e03] (06+06/12) Accurately ripped
09 [651aebde|c178a7b6] (06+06/12) Accurately ripped
10 [47dc7953|e999ca37] (06+06/12) Accurately ripped
11 [988cbf06|19a91dc2] (06+06/12) Accurately ripped
12 [f8285262|cfd1e2f4] (06+06/12) Accurately ripped

Track Peak [ CRC32 ] [W/O NULL] [ LOG ]
– 100,0 [24D46C66] [FF184706] CRC32
01 99,9 [7E846E23] [FB156A14]
02 94,3 [A370CF90] [D4AC8872]
03 94,2 [33B7C9C1] [D92BC6C9]
04 94,1 [2E255295] [9F60628A]
05 100,0 [9E4CE930] [C727B740]
06 94,8 [AB3FCB29] [F13814FA]
07 94,4 [43313473] [67BB9BA8]
08 94,7 [969FC467] [FEE02D7A]
09 94,5 [957EB7C1] [11707232]
10 93,4 [2B27C6EC] [838834B8]
11 94,6 [70A23964] [33E71BBD]
12 94,5 [A83F3474] [700D2A07]

foobar2000 1.2 / Dynamic Range Meter 1.1.1
log date: 2017-11-28 22:34:54

––––––––––––––––––––––––––––––––––––––––
Analyzed: Clarence 'Gatemouth' Brown / Blackjack
––––––––––––––––––––––––––––––––––––––––

DR Peak RMS Duration Track
––––––––––––––––––––––––––––––––––––––––
DR11 0.00 dB -13.96 dB 2:34 01-Here Am I
DR10 -0.51 dB -13.40 dB 3:32 02-Tippin' In
DR10 -0.51 dB -13.38 dB 6:25 03-Song For Renee (Gate's Tune)
DR10 -0.52 dB -12.54 dB 2:32 04-When My Blue Moon Turns To Gold Again
DR10 0.00 dB -13.55 dB 5:14 05-Street Corner
DR10 -0.46 dB -13.05 dB 3:09 06-Pressure Cooker
DR11 -0.50 dB -13.78 dB 3:18 07-Chickenshift
DR11 -0.47 dB -14.11 dB 4:44 08-Blackjack
DR10 -0.48 dB -13.09 dB 4:00 09-Honey Boy
DR11 -0.59 dB -12.89 dB 1:56 10-Take Me Back To Tulsa
DR11 -0.48 dB -13.52 dB 4:12 11-Dark End Of The Hallway
DR10 -0.49 dB -11.25 dB 3:32 12-Up Jumped The Devil
––––––––––––––––––––––––––––––––––––––––

Number of tracks: 12
Official DR value: DR10

Samplerate: 44100 Hz
Channels: 2
Bits per sample: 16
Bitrate: 827 kbps
Codec: FLAC
================================================================================

Clarence 'Gatemouth' Brown - Blackjack (1977) Reissue 1999

Clarence 'Gatemouth' Brown - Blackjack (1977) Reissue 1999

All thanks to original releaser - squirr

More interesting music in My Blog