Subcategories
Tags
Language
Tags

Clarence "Gatemouth" Brown - Real Life (1987)

Posted By: popsakov
Clarence "Gatemouth" Brown - Real Life (1987)

Clarence "Gatemouth" Brown - Real Life (1987)
EAC Rip | FLAC (Tracks) + Cue + m3u + Log ~ 257 Mb | MP3 CBR320 ~ 115 Mb
Full Scans | 00:42:49 | RAR 5% Recovery
Texas Blues, Modern Electric Blues | Rounder Records #Rounder CD 2054

Clarence "Gatemouth" Brown was an American musician from Louisiana and Texas known for his work as a blues musician, as well as other styles of music. He spent his career fighting purism by synthesizing old blues, country, jazz, Cajun music and R&B styles. His work also encompasses rock and roll, rock music, folk music, electric blues, and Texas blues. He was an acclaimed multi-instrumentalist, who played an array of musical instruments, including the guitar, fiddle, mandolin, viola, harmonica and drums. He won a Grammy Award for Best Traditional Blues Album in 1983 for his album, Alright Again!. He is regarded as one of the most influential exponents of blues fiddle and has had enormous influence in American fiddle circles. Brown's two biggest musical influences were Louis Jordan and T-Bone Walker.

Live set cut in Fort Worth, TX, that presents an accurate depiction of the breadth and scope of a Gatemouth Brown concert. Switching between guitar and violin, Gate offers everything from a reprise of "Okie Dokie Stomp" to a tender "Please Send Me Someone to Love" from Percy Mayfield's songbook and personalized renditions of "St. Louis Blues" and "Frankie and Johnny."

~ Bill Dahl, All Music

***************

Clarence "Gatemouth" Brown - Real Life (1987)

Clarence "Gatemouth" Brown - Real Life (1987)

Track List:

01. Real Life [3:53]
02. Okie Dokie Stomp [4:09]
03. Frankie And Johnny [3:14]
04. Next Time You See Me [3:40]
05. Take The A Train [4:08]
06. Please Send Me Someone To Love [6:58]
07. Catfish [4:39]
08. St. Louis Blues [4:39]
09. What A Shame, What A Shame [7:29]

Exact Audio Copy V1.1 from 23. June 2015

EAC extraction logfile from 7. August 2019, 10:21

Clarence "Gatemouth" Brown / Real Life

Used drive : HL-DT-STDVD-RAM GH22NP20 Adapter: 1 ID: 0

Read mode : Secure
Utilize accurate stream : Yes
Defeat audio cache : Yes
Make use of C2 pointers : No

Read offset correction : 102
Overread into Lead-In and Lead-Out : No
Fill up missing offset samples with silence : Yes
Delete leading and trailing silent blocks : No
Null samples used in CRC calculations : Yes
Used interface : Native Win32 interface for Win NT & 2000
Gap handling : Appended to previous track

Used output format : User Defined Encoder
Selected bitrate : 128 kBit/s
Quality : High
Add ID3 tag : No
Command line compressor : C:\Program Files\Exact Audio Copy\Flac\flac.exe
Additional command line options : -V -8 -T "Genre=%genre%" -T "Artist=%artist%" -T "Title=%title%" -T "Album=%albumtitle%" -T "Date=%year%" -T "Tracknumber=%tracknr%" -T "Comment=%comment%" %source%


TOC of the extracted CD

Track | Start | Length | Start sector | End sector
––––––––––––––––––––––––––––-
1 | 0:00.00 | 3:52.52 | 0 | 17451
2 | 3:52.52 | 4:09.00 | 17452 | 36126
3 | 8:01.52 | 3:13.74 | 36127 | 50675
4 | 11:15.51 | 3:40.19 | 50676 | 67194
5 | 14:55.70 | 4:09.15 | 67195 | 85884
6 | 19:05.10 | 6:58.27 | 85885 | 117261
7 | 26:03.37 | 4:38.72 | 117262 | 138183
8 | 30:42.34 | 4:39.02 | 138184 | 159110
9 | 35:21.36 | 7:29.07 | 159111 | 192792


Track 1

Filename E:\alexbras\1986 Clarence Gatemouth Brown - Real Life (1987 US Rounder CD 20540)\01 Real Life.wav

Pre-gap length 0:00:02.00

Peak level 64.7 %
Extraction speed 1.7 X
Track quality 100.0 %
Test CRC FC4AB2B5
Copy CRC FC4AB2B5
Accurately ripped (confidence 1) [827204C8] (AR v2)
Copy OK

Track 2

Filename E:\alexbras\1986 Clarence Gatemouth Brown - Real Life (1987 US Rounder CD 20540)\02 Okie Dokie Stomp.wav

Peak level 77.6 %
Extraction speed 1.7 X
Track quality 99.9 %
Test CRC E337FDFE
Copy CRC E337FDFE
Accurately ripped (confidence 1) [876FA646] (AR v2)
Copy OK

Track 3

Filename E:\alexbras\1986 Clarence Gatemouth Brown - Real Life (1987 US Rounder CD 20540)\03 Frankie And Johnny.wav

Peak level 63.7 %
Extraction speed 2.0 X
Track quality 100.0 %
Test CRC 4E5FB4D1
Copy CRC 4E5FB4D1
Accurately ripped (confidence 1) [794B50EE] (AR v2)
Copy OK

Track 4

Filename E:\alexbras\1986 Clarence Gatemouth Brown - Real Life (1987 US Rounder CD 20540)\04 Next Time You See Me.wav

Peak level 64.1 %
Extraction speed 2.1 X
Track quality 100.0 %
Test CRC 3CE26C79
Copy CRC 3CE26C79
Accurately ripped (confidence 1) [DA9E72E0] (AR v2)
Copy OK

Track 5

Filename E:\alexbras\1986 Clarence Gatemouth Brown - Real Life (1987 US Rounder CD 20540)\05 Take The A Train.wav

Peak level 79.3 %
Extraction speed 2.3 X
Track quality 100.0 %
Test CRC 511813FD
Copy CRC 511813FD
Accurately ripped (confidence 1) [08D8D152] (AR v2)
Copy OK

Track 6

Filename E:\alexbras\1986 Clarence Gatemouth Brown - Real Life (1987 US Rounder CD 20540)\06 Please Send Me Someone To Love.wav

Pre-gap length 0:00:01.28

Peak level 85.7 %
Extraction speed 2.6 X
Track quality 100.0 %
Test CRC FCFD8C59
Copy CRC FCFD8C59
Accurately ripped (confidence 1) [166223EF] (AR v2)
Copy OK

Track 7

Filename E:\alexbras\1986 Clarence Gatemouth Brown - Real Life (1987 US Rounder CD 20540)\07 Catfish.wav

Peak level 77.1 %
Extraction speed 2.6 X
Track quality 100.0 %
Test CRC CFC30BC0
Copy CRC CFC30BC0
Accurately ripped (confidence 1) [5DA61B61] (AR v2)
Copy OK

Track 8

Filename E:\alexbras\1986 Clarence Gatemouth Brown - Real Life (1987 US Rounder CD 20540)\08 St. Louis Blues.wav

Peak level 75.0 %
Extraction speed 2.8 X
Track quality 100.0 %
Test CRC DA7FDE64
Copy CRC DA7FDE64
Accurately ripped (confidence 1) [21529F87] (AR v2)
Copy OK

Track 9

Filename E:\alexbras\1986 Clarence Gatemouth Brown - Real Life (1987 US Rounder CD 20540)\09 What A Shame, What A Shame.wav

Peak level 82.1 %
Extraction speed 3.1 X
Track quality 100.0 %
Test CRC A049B441
Copy CRC A049B441
Accurately ripped (confidence 1) [EC495414] (AR v2)
Copy OK


All tracks accurately ripped

No errors occurred

End of status report

==== Log checksum EC92670C3EE8D4C420DDAEE90F2EF31DFE6E51AEDA71C6E35BD58BB122F83E2F ====

[CUETools log; Date: 15.10.2019 1:24:15; Version: 2.1.6]
[CTDB TOCID: 19lsisT70aVGpZQz_Xl8dsE0XZ0-] found.
Track | CTDB Status
1 | (1/1) Accurately ripped
2 | (1/1) Accurately ripped
3 | (1/1) Accurately ripped
4 | (1/1) Accurately ripped
5 | (1/1) Accurately ripped
6 | (1/1) Accurately ripped
7 | (1/1) Accurately ripped
8 | (1/1) Accurately ripped
9 | (1/1) Accurately ripped
[AccurateRip ID: 000d31ad-0062ee36-7d0a0a09] found.
Track [ CRC | V2 ] Status
01 [7c782637|827204c8] (0+1/5) Accurately ripped
02 [f4b56f99|876fa646] (0+1/5) Accurately ripped
03 [fa76731e|794b50ee] (0+1/5) Accurately ripped
04 [093c0725|da9e72e0] (0+1/5) Accurately ripped
05 [caaaccaf|08d8d152] (0+1/5) Accurately ripped
06 [8c88753f|166223ef] (0+1/5) Accurately ripped
07 [5e83b844|5da61b61] (0+1/5) Accurately ripped
08 [f9322439|21529f87] (0+1/5) Accurately ripped
09 [1b2c349c|ec495414] (0+1/5) Accurately ripped
Offsetted by -113:
01 [88714c01] (1/5) Accurately ripped
02 [5bf44320] (1/5) Accurately ripped
03 [b21620f0] (1/5) Accurately ripped
04 [150fa7e7] (1/5) Accurately ripped
05 [041dd1d0] (1/5) Accurately ripped
06 [bb3fcc36] (1/5) Accurately ripped
07 [33e7dccb] (1/5) Accurately ripped
08 [56cdf0b1] (1/5) Accurately ripped
09 [3a7a3d99] (1/5) Accurately ripped

Track Peak [ CRC32 ] [W/O NULL] [ LOG ]
– 85,7 [2025E107] [8B74BFFD]
01 64,7 [FC4AB2B5] [AC6AAD58] CRC32
02 77,6 [E337FDFE] [FEF9E527] CRC32
03 63,7 [4E5FB4D1] [41FB3FFD] CRC32
04 64,1 [3CE26C79] [C15BA097] CRC32
05 79,3 [511813FD] [C8F567F9] CRC32
06 85,7 [FCFD8C59] [4003DB61] CRC32
07 77,1 [CFC30BC0] [6A9B0446] CRC32
08 75,0 [DA7FDE64] [12610D96] CRC32
09 82,1 [A049B441] [1697ECAD] CRC32

Clarence "Gatemouth" Brown - Real Life (1987)