Tags
Language
Tags

Claudio Arrau - Schumann: Piano Works (1991)

Posted By: tirexiss
Claudio Arrau - Schumann: Piano Works (1991)

Claudio Arrau - Schumann: Piano Works (1991)
EAC | FLAC (image+.cue, log) | Covers Included | 08:15:16 | 2.2 Gb
Genre: Classical | Label: Philips ‎| Catalog: 432308

Deep thought, care and love pervade this newest contribution to Arrau's Schumann cycle, just as they did all the others. The discovery for me was the Blumenstück, which if played at all (it isn't often) so easily emerges like some pretty but pale little drawing-room aquarelle. But not from Arrau. Characteristically, he reads between the lines of every bar, and discovers as much to express as in any of Schumann's wholly introspective pieces. I was amazed at the variety of mood he extracts from the work's not greatly varied figuration throughout the sequence of brief, closely related sections.

As for Kinderscenen, sharing the second side, I think the nature of the interpretation is best summed up by the title Schumann gives his tenth piece, "Almost too serious". But apart from an over-pedalled and thick-sounding "Knight of the Hobby-Horse", all these miniatures are intimately cherished.

Papillons, starting the first side, could also only have come from Arrau in its depth of sonority and feeling, with tempo sometimes a little more leisurely than we often hear to accommodate the can amore approach. I was now and again puzzled by his decisions about repeats-or perhaps they come from some new edition? For instance, we often hear the main section of No. 2 played twice in order to include the textual variant that Schumann himself is said to have sometimes played in bars 9 and 10. But I can't remember ever having heard the four-bar introduction repeated too. Nor, surely, is it usual to repeat the second half of No. 11? Yet Arrau does not repeat the first eight bars of No. 5, which I think is a loss since it robs him of the chance of observing Schumann's basso cantando the second time. The record is completed by the three Romances, of which the first and last are as rarely heard as the second is well known. The depth of tone Arrau favours, together with the very resonant acoustic, have their dangers: sometimes texture sounds a bit thick. I would even have liked more of a luminous glow to the lovely tune of No. 2. But again here there is no mistaking Arrau's intensity of feeling. – Joan Chissell

Claudio Arrau - Schumann: Piano Works (1991)

Claudio Arrau - Schumann: Piano Works (1991)

Track List:

CD 1:
01. Novelettes-no.1 [0:05:46.00]
02. Novelettes-no.2 [0:06:02.00]
03. Novelettes-no.3 [0:05:07.00]
04. Novelettes-no.4 [0:03:58.00]
05. Novelettes-no.5 [0:09:36.00]
06. Novelettes-no.6 [0:04:18.00]
07. Novelettes-no.7 [0:03:14.00]
08. Novelettes-no.8 [0:11:28.00]
09. Waldszenen, op.82- [0:01:52.00]
10. Waldszenen, op.82-2 [0:01:27.00]
11. Waldszenen, op.82-3 [0:01:58.00]
12. Waldszenen, op.82-4 [0:02:50.00]
13. Waldszenen, op.82-5 [0:01:16.00]
14. Waldszenen, op.82-6 [0:02:02.00]
15. Waldszenen, op.82-7 [0:03:02.00]
16. Waldszenen, op.82-8 [0:02:36.00]
17. Waldszenen, op.82-9 [0:03:47.00]

CD 2:
01. Kreisleriana, Op. 16 - 1. Agitatissimo [0:02:42.00]
02. Kreisleriana, Op. 16 - 2.1 Con molta espressione, non troppo presto [0:02:42.62]
03. Kreisleriana, Op. 16 - 2.2 - Intermezzo I (molto vivace) [0:00:38.33]
04. Kreisleriana, Op. 16 - 2.3 - Tempo I [0:02:25.02]
05. Kreisleriana, Op. 16 - 2.4 Intermezzo II (poco piu mosso) [0:03:16.58]
06. Kreisleriana, Op. 16 - 2.5 Tempo I [0:01:47.70]
07. Kreisleriana, Op. 16 - 3. Molto agitato [0:04:45.00]
08. Kreisleriana, Op. 16 - 4. Lento assai [0:04:18.10]
09. Kreisleriana, Op. 16 - 5. Vivace assai [0:03:28.65]
10. Kreisleriana, Op. 16 - 6. Lento assai [0:04:47.37]
11. Kreisleriana, Op. 16 - 7. Molto presto [0:02:15.33]
12. Kreisleriana, Op. 16 - 8. Vivace e scherzando [0:03:49.05]
13. Sonata No. 2 in G minor, Op. 22 - 1. So rasch wie moglich - Schneller - Noch schneller [0:06:38.00]
14. Sonata No. 2 in G minor, Op. 22 - 2. Andantino [0:05:04.00]
15. Sonata No. 2 in G minor, Op. 22 - 3. Scherzo (Sehr rasch und markiert) [0:01:51.32]
16. Sonata No. 2 in G minor, Op. 22 - 4. Rondo (Presto - Etwas langsamer - Prestissimo, quasi cadenza - Immer schneller und schneller) [0:05:32.43]
17. Sonata No. 2 in G minor, Op. 22 - 5. Presto (Anhang) [0:06:52.00]
18. Three Romances, Op. 28 - No. 1 in B Flat minor (Sehr Markiert) [0:03:33.00]
19. Three Romances, Op. 28 - No. 2 in F Sharp (Einfach) [0:04:04.00]
20. Three Romances, Op. 28 - No. 3 in B (Sehr Markiert) [0:07:19.00]

CD 3:
01. Davidsbundlertanze, op.6-1 Lebhaft [0:01:24.00]
02. Davidsbundlertanze, op.6-2 Innig [0:01:41.25]
03. Davidsbundlertanze, op.6-3 Etwas hahnbuchen [0:01:32.50]
04. Davidsbundlertanze, op.6-4 Ungeduldig [0:00:55.37]
05. Davidsbundlertanze, op.6-5 Einfach [0:01:57.63]
06. Davidsbundlertanze, op.6-6 Sehr rasch [0:02:00.50]
07. Davidsbundlertanze, op.6-7 Nicht schnell [0:04:29.25]
08. Davidsbundlertanze, op.6-8 Frisch [0:01:01.62]
09. Davidsbundlertanze, op.6-9 (no marking) [0:01:32.63]
10. Davidsbundlertanze, op.6-10 Balladenmassig, sehr rasch [0:01:27.65]
11. Davidsbundlertanze, op.6-11 Einfach [0:01:23.35]
12. Davidsbundlertanze, op.6-12 Mit Humor [0:00:51.50]
13. Davidsbundlertanze, op.6-13 Wild und lustig [0:03:06.00]
14. Davidsbundlertanze, op.6-14 Zart und singend [0:03:05.35]
15. Davidsbundlertanze, op.6-15 Frisch [0:02:02.02]
16. Davidsbundlertanze, op.6-16 Mit gutem Humor [0:01:46.40]
17. Davidsbundlertanze, op.6-17 Wie aus der Ferne [0:04:16.45]
18. Davidsbundlertanze, op.6-18 Nicht schnell [0:02:23.28]
19. Nachtstucke, Op. 23-1. Mehr langsam, oft zuruckhaltend [0:05:07.00]
20. Nachtstucke, Op. 23-2. Markiert und lebhaft [0:04:56.00]
21. Nachtstucke, Op. 23-3. Mit grosser Lebhaftigkeit [0:03:46.00]
22. Nachtstucke, Op. 23-4. Einfach [0:03:05.00]

CD 4:
01. Symphonic Studies, Op. 13 - 1. Thema [0:01:34.37]
02. Symphonic Studies, Op. 13 - 2. Etude I [0:01:26.00]
03. Symphonic Studies, Op. 13 - 3. Posth. Var. I [0:01:58.00]
04. Symphonic Studies, Op. 13 - 4. Etude II [0:03:42.00]
05. Symphonic Studies, Op. 13 - 5. Etude III [0:01:32.00]
06. Symphonic Studies, Op. 13 - 6. Etude IV [0:01:03.05]
07. Symphonic Studies, Op. 13 - 7. Etude V [0:01:29.33]
08. Symphonic Studies, Op. 13 - 8. Posth. Var. IV [0:03:22.37]
09. Symphonic Studies, Op. 13 - 9. Etude VI [0:01:12.25]
10. Symphonic Studies, Op. 13 - 10. Etude VII [0:01:21.13]
11. Symphonic Studies, Op. 13 - 11. Posth. Var. II [0:02:39.25]
12. Symphonic Studies, Op. 13 - 12. Posth. Var. V [0:02:59.50]
13. Symphonic Studies, Op. 13 - 13. Etude VIII [0:01:54.25]
14. Symphonic Studies, Op. 13 - 14. Etude IX [0:00:47.50]
15. Symphonic Studies, Op. 13 - 15. Posth. Var. III [0:01:21.37]
16. Symphonic Studies, Op. 13 - 16. Etude X [0:01:27.38]
17. Symphonic Studies, Op. 13 - 17. Etude XI [0:01:56.37]
18. Symphonic Studies, Op. 13 - 18. Etude XII (Finale) [0:07:38.38]
19. Variations on the name Abegg, op. 1 - 1. Thema [0:00:54.25]
20. Variations on the name Abegg, op. 1 - 2. Var. I [0:01:03.50]
21. Variations on the name Abegg, op. 1 - 3. Var. II [0:01:14.00]
22. Variations on the name Abegg, op. 1 - 4. Var III [0:01:06.37]
23. Variations on the name Abegg, op. 1 - 5. Cantabile [0:01:45.38]
24. Variations on the name Abegg, op. 1 - 6. Finale alla Fantasia [0:03:03.00]
25. Kinderszenen, op. 15 - 1. Von fremden Landern und Menschen [0:01:37.00]
26. Kinderszenen, op. 15 - 2. Kuriose Geschichten [0:01:04.37]
27. Kinderszenen, op. 15 - 3. Hasche-Mann [0:00:32.38]
28. Kinderszenen, op. 15 - 4. Bittendes Kind [0:00:52.62]
29. Kinderszenen, op. 15 - 5. Gluckes genug [0:01:36.25]
30. Kinderszenen, op. 15 - 6. Wichtige Begebenheit [0:00:55.25]
31. Kinderszenen, op. 15 - 7. Traumerei [0:03:02.38]
32. Kinderszenen, op. 15 - 8. Am Kamin [0:01:25.00]
33. Kinderszenen, op. 15 - 9. Ritter vom Steckenpferd [0:00:44.00]
34. Kinderszenen, op. 15 - 10. Fast zu ernst [0:02:05.00]
35. Kinderszenen, op. 15 - 11. Furchtenmachen [0:01:47.00]
36. Kinderszenen, op. 15 - 12. Kind im Einschlummern [0:02:05.37]
37. Kinderszenen, op. 15 - 13. Der Dichter spricht [0:02:22.38]

CD 5:
01. Faschingsschwank aus Wien-1 [0:08:52.00]
02. Faschingsschwank aus Wien-2 [0:02:34.00]
03. Faschingsschwank aus Wien-3 [0:02:19.00]
04. Faschingsschwank aus Wien-4 [0:01:59.00]
05. Faschingsschwank aus Wien-5 [0:06:21.00]
06. Arabesque in C [0:06:12.00]
07. Humoresque in Bb maj-1 [0:02:18.50]
08. Humoresque in Bb maj-2 [0:03:44.25]
09. Humoresque in Bb maj-3 [0:04:30.00]
10. Humoresque in Bb maj-4 [0:02:06.37]
11. Humoresque in Bb maj-5 [0:03:02.25]
12. Humoresque in Bb maj-6 [0:03:03.13]
13. Humoresque in Bb maj-7 [0:03:10.15]
14. Humoresque in Bb maj-8 [0:06:01.60]
15. Papillons [0:15:51.00]

CD 6:
01. Sonata no.1-1 [0:13:50.07]
02. Sonata no.1-2 [0:04:08.58]
03. Sonata no.1-3 [0:05:52.10]
04. Sonata no.1-4 [0:12:40.00]
05. 3 Fantasiestucke, op.111-1 [0:02:04.00]
06. 3 Fantasiestucke, op.111-2 [0:04:29.37]
07. 3 Fantasiestucke, op.111-3 [0:03:21.38]
08. Fantasiestucke, op.12-1 [0:04:14.00]
09. Fantasiestucke, op.12-2 [0:03:36.00]
10. Fantasiestucke, op.12-3 [0:03:15.00]
11. Fantasiestucke, op.12-4 [0:03:24.00]
12. Fantasiestucke, op.12-5 [0:02:00.00]
13. Fantasiestucke, op.12-6 [0:04:05.00]
14. Fantasiestucke, op.12-7 [0:03:04.00]
15. Fantasiestucke, op.12-8 [0:02:33.00]
16. Fantasiestucke, op.12-9 [0:05:09.00]

CD 7:
01. Carnaval, op.9-1 [0:02:24.25]
02. Carnaval, op.9-2 [0:01:43.00]
03. Carnaval, op.9-3 [0:01:03.60]
04. Carnaval, op.9-4 [0:01:57.27]
05. Carnaval, op.9-5 [0:01:53.63]
06. Carnaval, op.9-6 [0:01:01.12]
07. Carnaval, op.9-7 [0:01:37.23]
08. Carnaval, op.9-8 [0:00:53.22]
09. Carnaval, op.9-9 [0:00:46.35]
10. Carnaval, op.9-10 [0:01:06.50]
11. Carnaval, op.9-11 [0:01:22.05]
12. Carnaval, op.9-12 [0:01:26.23]
13. Carnaval, op.9-13 [0:00:42.55]
14. Carnaval, op.9-14 [0:02:02.22]
15. Carnaval, op.9-15 [0:00:58.15]
16. Carnaval, op.9-16 [0:02:11.70]
17. Carnaval, op.9-17 [0:01:11.43]
18. Carnaval, op.9-18 [0:02:35.10]
19. Carnaval, op.9-19 [0:00:19.47]
20. Carnaval, op.9-20 [0:04:06.68]
21. Fantasia in C, op.19-1 [0:14:29.00]
22. Fantasia in C, op.19-2 [0:08:21.00]
23. Fantasia in C, op.19-3 [0:11:40.00]
24. Blumenstuke [0:08:42.00]
Performers:
Claudio Arrau, piano

Exact Audio Copy V1.0 beta 3 from 29. August 2011

EAC extraction logfile from 18. August 2012, 10:46

Claudio Arrau / Schumann - piano works - Arrau (Vol. 1) (Disc 1)

Used drive : HL-DT-STDVDRAM GSA-H10A Adapter: 0 ID: 0

Read mode : Secure
Utilize accurate stream : Yes
Defeat audio cache : Yes
Make use of C2 pointers : No

Read offset correction : 667
Overread into Lead-In and Lead-Out : No
Fill up missing offset samples with silence : Yes
Delete leading and trailing silent blocks : No
Null samples used in CRC calculations : Yes
Used interface : Native Win32 interface for Win NT & 2000

Used output format : User Defined Encoder
Selected bitrate : 1024 kBit/s
Quality : High
Add ID3 tag : No
Command line compressor : C:\Program Files\Exact Audio Copy\Flac\flac.exe
Additional command line options : -8 -V -T "TITLE=%title%" -T "ARTIST=%artist%" -T "ALBUMARTIST=%albumartist%" -T "ALBUM=%albumtitle%" -T "DATE=%year%" -T "TRACKNUMBER=%tracknr%" -T "TRACKTOTAL=%numtracks%" -T "GENRE=%genre%" -T "COMMENT=%comment%" -T "PERFORMER=%albuminterpret%" -T "COMPOSER=%composer%" %source% -o %dest%


TOC of the extracted CD

Track | Start | Length | Start sector | End sector
––––––––––––––––––––––––––––-
1 | 0:00.33 | 5:46.00 | 33 | 25982
2 | 5:46.33 | 6:02.00 | 25983 | 53132
3 | 11:48.33 | 5:07.00 | 53133 | 76157
4 | 16:55.33 | 3:58.00 | 76158 | 94007
5 | 20:53.33 | 9:36.00 | 94008 | 137207
6 | 30:29.33 | 4:18.00 | 137208 | 156557
7 | 34:47.33 | 3:14.00 | 156558 | 171107
8 | 38:01.33 | 11:28.00 | 171108 | 222707
9 | 49:29.33 | 1:52.00 | 222708 | 231107
10 | 51:21.33 | 1:27.00 | 231108 | 237632
11 | 52:48.33 | 1:58.00 | 237633 | 246482
12 | 54:46.33 | 2:50.00 | 246483 | 259232
13 | 57:36.33 | 1:16.00 | 259233 | 264932
14 | 58:52.33 | 2:02.00 | 264933 | 274082
15 | 60:54.33 | 3:02.00 | 274083 | 287732
16 | 63:56.33 | 2:36.00 | 287733 | 299432
17 | 66:32.33 | 3:47.00 | 299433 | 316457


Range status and errors

Selected range

Filename F:\Ripped general\[1040] Schumann - piano works - Arrau (Vol. 1)\cd1\Schumann - piano works - Arrau (Vol. 1) (Disc 1).wav

Peak level 92.8 %
Extraction speed 4.6 X
Range quality 100.0 %
Test CRC 812447C9
Copy CRC 812447C9
Copy OK

No errors occurred


AccurateRip summary

Track 1 accurately ripped (confidence 5) [0B131BE0] (AR v1)
Track 2 accurately ripped (confidence 5) [4AF7354C] (AR v1)
Track 3 accurately ripped (confidence 5) [2CB78817] (AR v1)
Track 4 accurately ripped (confidence 5) [9DD24211] (AR v1)
Track 5 accurately ripped (confidence 5) [2388C4B4] (AR v1)
Track 6 accurately ripped (confidence 5) [F1D43C0A] (AR v1)
Track 7 accurately ripped (confidence 5) [CFBC2914] (AR v1)
Track 8 accurately ripped (confidence 5) [BEF73D0C] (AR v1)
Track 9 accurately ripped (confidence 4) [CA6819CE] (AR v1)
Track 10 accurately ripped (confidence 4) [EC419DEC] (AR v1)
Track 11 accurately ripped (confidence 4) [876C389A] (AR v1)
Track 12 accurately ripped (confidence 4) [5051766A] (AR v1)
Track 13 accurately ripped (confidence 4) [E8AA9D5A] (AR v1)
Track 14 accurately ripped (confidence 4) [F3299FB1] (AR v1)
Track 15 accurately ripped (confidence 4) [B6ED080F] (AR v1)
Track 16 accurately ripped (confidence 4) [DA1867F2] (AR v1)
Track 17 accurately ripped (confidence 4) [E899BECC] (AR v1)

All tracks accurately ripped

End of status report

Exact Audio Copy V1.0 beta 3 from 29. August 2011

EAC extraction logfile from 18. August 2012, 11:53

Claudio Arrau / Schumann - piano works - Arrau (Vol. 1) (Disc 2)

Used drive : HL-DT-STDVDRAM GSA-H10A Adapter: 0 ID: 0

Read mode : Secure
Utilize accurate stream : Yes
Defeat audio cache : Yes
Make use of C2 pointers : No

Read offset correction : 667
Overread into Lead-In and Lead-Out : No
Fill up missing offset samples with silence : Yes
Delete leading and trailing silent blocks : No
Null samples used in CRC calculations : Yes
Used interface : Native Win32 interface for Win NT & 2000

Used output format : User Defined Encoder
Selected bitrate : 1024 kBit/s
Quality : High
Add ID3 tag : No
Command line compressor : C:\Program Files\Exact Audio Copy\Flac\flac.exe
Additional command line options : -8 -V -T "TITLE=%title%" -T "ARTIST=%artist%" -T "ALBUMARTIST=%albumartist%" -T "ALBUM=%albumtitle%" -T "DATE=%year%" -T "TRACKNUMBER=%tracknr%" -T "TRACKTOTAL=%numtracks%" -T "GENRE=%genre%" -T "COMMENT=%comment%" -T "PERFORMER=%albuminterpret%" -T "COMPOSER=%composer%" %source% -o %dest%


TOC of the extracted CD

Track | Start | Length | Start sector | End sector
––––––––––––––––––––––––––––-
1 | 0:00.33 | 2:42.00 | 33 | 12182
2 | 2:42.33 | 2:42.62 | 12183 | 24394
3 | 5:25.20 | 0:38.33 | 24395 | 27277
4 | 6:03.53 | 2:25.02 | 27278 | 38154
5 | 8:28.55 | 3:16.58 | 38155 | 52912
6 | 11:45.38 | 1:47.70 | 52913 | 61007
7 | 13:33.33 | 4:45.00 | 61008 | 82382
8 | 18:18.33 | 4:18.10 | 82383 | 101742
9 | 22:36.43 | 3:28.65 | 101743 | 117407
10 | 26:05.33 | 4:47.37 | 117408 | 138969
11 | 30:52.70 | 2:15.33 | 138970 | 149127
12 | 33:08.28 | 3:49.05 | 149128 | 166307
13 | 36:57.33 | 6:38.00 | 166308 | 196157
14 | 43:35.33 | 5:04.00 | 196158 | 218957
15 | 48:39.33 | 1:51.32 | 218958 | 227314
16 | 50:30.65 | 5:32.43 | 227315 | 252257
17 | 56:03.33 | 6:52.00 | 252258 | 283157
18 | 62:55.33 | 3:33.00 | 283158 | 299132
19 | 66:28.33 | 4:04.00 | 299133 | 317432
20 | 70:32.33 | 7:19.00 | 317433 | 350357


Range status and errors

Selected range

Filename F:\Ripped general\[1040] Schumann - piano works - Arrau (Vol. 1)\cd2\Schumann - piano works - Arrau (Vol. 1) (Disc 2).wav

Peak level 97.5 %
Extraction speed 7.6 X
Range quality 100.0 %
Test CRC 216A8837
Copy CRC 216A8837
Copy OK

No errors occurred


AccurateRip summary

Track 1 accurately ripped (confidence 4) [D17443D5] (AR v1)
Track 2 accurately ripped (confidence 4) [CDA93610] (AR v1)
Track 3 accurately ripped (confidence 4) [7B0C48E4] (AR v1)
Track 4 accurately ripped (confidence 4) [398A2E77] (AR v1)
Track 5 accurately ripped (confidence 4) [E7273BDA] (AR v1)
Track 6 accurately ripped (confidence 4) [5F90A10D] (AR v1)
Track 7 accurately ripped (confidence 4) [A1368A0F] (AR v1)
Track 8 accurately ripped (confidence 4) [1A7E854B] (AR v1)
Track 9 accurately ripped (confidence 4) [3CC3553D] (AR v1)
Track 10 accurately ripped (confidence 4) [D7FD5F81] (AR v1)
Track 11 accurately ripped (confidence 4) [F7D63ECE] (AR v1)
Track 12 accurately ripped (confidence 4) [905420B6] (AR v1)
Track 13 accurately ripped (confidence 5) [AF4ADA65] (AR v1)
Track 14 accurately ripped (confidence 5) [7F355BBF] (AR v1)
Track 15 accurately ripped (confidence 5) [FE02CB85] (AR v1)
Track 16 accurately ripped (confidence 5) [39A80F62] (AR v1)
Track 17 accurately ripped (confidence 5) [1E8C1D78] (AR v1)
Track 18 accurately ripped (confidence 5) [308EE3AB] (AR v1)
Track 19 accurately ripped (confidence 5) [FA472EF8] (AR v1)
Track 20 accurately ripped (confidence 4) [A16AA6D5] (AR v1)

All tracks accurately ripped

End of status report

Exact Audio Copy V1.0 beta 3 from 29. August 2011

EAC extraction logfile from 18. August 2012, 12:51

Claudio Arrau / Schumann - piano works - Arrau (Vol. 1) (Disc 3)

Used drive : HL-DT-STDVDRAM GSA-H10A Adapter: 0 ID: 0

Read mode : Secure
Utilize accurate stream : Yes
Defeat audio cache : Yes
Make use of C2 pointers : No

Read offset correction : 667
Overread into Lead-In and Lead-Out : No
Fill up missing offset samples with silence : Yes
Delete leading and trailing silent blocks : No
Null samples used in CRC calculations : Yes
Used interface : Native Win32 interface for Win NT & 2000

Used output format : User Defined Encoder
Selected bitrate : 1024 kBit/s
Quality : High
Add ID3 tag : No
Command line compressor : C:\Program Files\Exact Audio Copy\Flac\flac.exe
Additional command line options : -8 -V -T "TITLE=%title%" -T "ARTIST=%artist%" -T "ALBUMARTIST=%albumartist%" -T "ALBUM=%albumtitle%" -T "DATE=%year%" -T "TRACKNUMBER=%tracknr%" -T "TRACKTOTAL=%numtracks%" -T "GENRE=%genre%" -T "COMMENT=%comment%" -T "PERFORMER=%albuminterpret%" -T "COMPOSER=%composer%" %source% -o %dest%


TOC of the extracted CD

Track | Start | Length | Start sector | End sector
––––––––––––––––––––––––––––-
1 | 0:00.33 | 1:24.00 | 33 | 6332
2 | 1:24.33 | 1:41.25 | 6333 | 13932
3 | 3:05.58 | 1:32.50 | 13933 | 20882
4 | 4:38.33 | 0:55.37 | 20883 | 25044
5 | 5:33.70 | 1:57.63 | 25045 | 33882
6 | 7:31.58 | 2:00.50 | 33883 | 42932
7 | 9:32.33 | 4:29.25 | 42933 | 63132
8 | 14:01.58 | 1:01.62 | 63133 | 67769
9 | 15:03.45 | 1:32.63 | 67770 | 74732
10 | 16:36.33 | 1:27.65 | 74733 | 81322
11 | 18:04.23 | 1:23.35 | 81323 | 87582
12 | 19:27.58 | 0:51.50 | 87583 | 91457
13 | 20:19.33 | 3:06.00 | 91458 | 105407
14 | 23:25.33 | 3:05.35 | 105408 | 119317
15 | 26:30.68 | 2:02.02 | 119318 | 128469
16 | 28:32.70 | 1:46.40 | 128470 | 136459
17 | 30:19.35 | 4:16.45 | 136460 | 155704
18 | 34:36.05 | 2:23.28 | 155705 | 166457
19 | 36:59.33 | 5:07.00 | 166458 | 189482
20 | 42:06.33 | 4:56.00 | 189483 | 211682
21 | 47:02.33 | 3:46.00 | 211683 | 228632
22 | 50:48.33 | 3:05.00 | 228633 | 242507


Range status and errors

Selected range

Filename F:\Ripped general\[1040] Schumann - piano works - Arrau (Vol. 1)\cd3\Schumann - piano works - Arrau (Vol. 1) (Disc 3).wav

Peak level 84.5 %
Extraction speed 2.0 X
Range quality 100.0 %
Test CRC B1DBB4C7
Copy CRC B1DBB4C7
Copy OK

No errors occurred


AccurateRip summary

Track 1 accurately ripped (confidence 5) [CC168F50] (AR v1)
Track 2 accurately ripped (confidence 5) [43A17D61] (AR v1)
Track 3 accurately ripped (confidence 5) [B9E4F705] (AR v1)
Track 4 accurately ripped (confidence 5) [9B483722] (AR v1)
Track 5 accurately ripped (confidence 5) [113CE08C] (AR v1)
Track 6 accurately ripped (confidence 5) [9DF4AC9F] (AR v1)
Track 7 accurately ripped (confidence 5) [29DAB825] (AR v1)
Track 8 accurately ripped (confidence 5) [CF2BB6FB] (AR v1)
Track 9 accurately ripped (confidence 5) [DE3DBE4C] (AR v1)
Track 10 accurately ripped (confidence 5) [77C64B2A] (AR v1)
Track 11 accurately ripped (confidence 5) [7A460332] (AR v1)
Track 12 accurately ripped (confidence 5) [FC3D2203] (AR v1)
Track 13 accurately ripped (confidence 5) [C505E3D3] (AR v1)
Track 14 accurately ripped (confidence 5) [7CD3E5E7] (AR v1)
Track 15 accurately ripped (confidence 5) [ABA2E683] (AR v1)
Track 16 accurately ripped (confidence 5) [7168DED8] (AR v1)
Track 17 accurately ripped (confidence 5) [A827F3C7] (AR v1)
Track 18 accurately ripped (confidence 5) [60B9D8AF] (AR v1)
Track 19 accurately ripped (confidence 4) [9858ACD2] (AR v1)
Track 20 accurately ripped (confidence 4) [9323467D] (AR v1)
Track 21 accurately ripped (confidence 4) [BEF3C7AD] (AR v1)
Track 22 accurately ripped (confidence 4) [9A88F417] (AR v1)

All tracks accurately ripped

End of status report

Exact Audio Copy V1.0 beta 3 from 29. August 2011

EAC extraction logfile from 18. August 2012, 14:10

Claudio Arrau / Schumann - piano works - Arrau (Vol. 2) (Disc 4)

Used drive : HL-DT-STDVDRAM GSA-H10A Adapter: 0 ID: 0

Read mode : Secure
Utilize accurate stream : Yes
Defeat audio cache : Yes
Make use of C2 pointers : No

Read offset correction : 667
Overread into Lead-In and Lead-Out : No
Fill up missing offset samples with silence : Yes
Delete leading and trailing silent blocks : No
Null samples used in CRC calculations : Yes
Used interface : Native Win32 interface for Win NT & 2000

Used output format : User Defined Encoder
Selected bitrate : 1024 kBit/s
Quality : High
Add ID3 tag : No
Command line compressor : C:\Program Files\Exact Audio Copy\Flac\flac.exe
Additional command line options : -8 -V -T "TITLE=%title%" -T "ARTIST=%artist%" -T "ALBUMARTIST=%albumartist%" -T "ALBUM=%albumtitle%" -T "DATE=%year%" -T "TRACKNUMBER=%tracknr%" -T "TRACKTOTAL=%numtracks%" -T "GENRE=%genre%" -T "COMMENT=%comment%" -T "PERFORMER=%albuminterpret%" -T "COMPOSER=%composer%" %source% -o %dest%


TOC of the extracted CD

Track | Start | Length | Start sector | End sector
––––––––––––––––––––––––––––-
1 | 0:00.33 | 1:34.37 | 33 | 7119
2 | 1:34.70 | 1:26.00 | 7120 | 13569
3 | 3:00.70 | 1:58.00 | 13570 | 22419
4 | 4:58.70 | 3:42.00 | 22420 | 39069
5 | 8:40.70 | 1:32.00 | 39070 | 45969
6 | 10:12.70 | 1:03.05 | 45970 | 50699
7 | 11:16.00 | 1:29.33 | 50700 | 57407
8 | 12:45.33 | 3:22.37 | 57408 | 72594
9 | 16:07.70 | 1:12.25 | 72595 | 78019
10 | 17:20.20 | 1:21.13 | 78020 | 84107
11 | 18:41.33 | 2:39.25 | 84108 | 96057
12 | 21:20.58 | 2:59.50 | 96058 | 109532
13 | 24:20.33 | 1:54.25 | 109533 | 118107
14 | 26:14.58 | 0:47.50 | 118108 | 121682
15 | 27:02.33 | 1:21.37 | 121683 | 127794
16 | 28:23.70 | 1:27.38 | 127795 | 134357
17 | 29:51.33 | 1:56.37 | 134358 | 143094
18 | 31:47.70 | 7:38.38 | 143095 | 177482
19 | 39:26.33 | 0:54.25 | 177483 | 181557
20 | 40:20.58 | 1:03.50 | 181558 | 186332
21 | 41:24.33 | 1:14.00 | 186333 | 191882
22 | 42:38.33 | 1:06.37 | 191883 | 196869
23 | 43:44.70 | 1:45.38 | 196870 | 204782
24 | 45:30.33 | 3:03.00 | 204783 | 218507
25 | 48:33.33 | 1:37.00 | 218508 | 225782
26 | 50:10.33 | 1:04.37 | 225783 | 230619
27 | 51:14.70 | 0:32.38 | 230620 | 233057
28 | 51:47.33 | 0:52.62 | 233058 | 237019
29 | 52:40.20 | 1:36.25 | 237020 | 244244
30 | 54:16.45 | 0:55.25 | 244245 | 248394
31 | 55:11.70 | 3:02.38 | 248395 | 262082
32 | 58:14.33 | 1:25.00 | 262083 | 268457
33 | 59:39.33 | 0:44.00 | 268458 | 271757
34 | 60:23.33 | 2:05.00 | 271758 | 281132
35 | 62:28.33 | 1:47.00 | 281133 | 289157
36 | 64:15.33 | 2:05.37 | 289158 | 298569
37 | 66:20.70 | 2:22.38 | 298570 | 309257


Range status and errors

Selected range

Filename F:\Ripped general\[1041] Schumann - piano works - Arrau (Vol. 2)\cd4\Schumann - piano works - Arrau (Vol. 2) (Disc 4).wav

Peak level 97.8 %
Extraction speed 4.6 X
Range quality 99.9 %
Test CRC 03F58FED
Copy CRC 03F58FED
Copy OK

No errors occurred


AccurateRip summary

Track 1 accurately ripped (confidence 2) [E7FB896A] (AR v1)
Track 2 accurately ripped (confidence 2) [34FD95DD] (AR v1)
Track 3 accurately ripped (confidence 2) [E43791F3] (AR v1)
Track 4 accurately ripped (confidence 2) [5DE66C40] (AR v1)
Track 5 accurately ripped (confidence 2) [ACEEAB50] (AR v1)
Track 6 accurately ripped (confidence 2) [3E0767FB] (AR v1)
Track 7 accurately ripped (confidence 2) [185BE9F9] (AR v1)
Track 8 accurately ripped (confidence 2) [58479FA8] (AR v1)
Track 9 accurately ripped (confidence 2) [5659AB90] (AR v1)
Track 10 accurately ripped (confidence 2) [6FB38220] (AR v1)
Track 11 accurately ripped (confidence 2) [19575582] (AR v1)
Track 12 accurately ripped (confidence 2) [37B294E1] (AR v1)
Track 13 accurately ripped (confidence 2) [EC0E89C0] (AR v1)
Track 14 accurately ripped (confidence 2) [A9D1A916] (AR v1)
Track 15 accurately ripped (confidence 2) [B768F323] (AR v1)
Track 16 accurately ripped (confidence 2) [8B0E4FE0] (AR v1)
Track 17 accurately ripped (confidence 2) [41294A6D] (AR v1)
Track 18 accurately ripped (confidence 2) [C43C9ABB] (AR v1)
Track 19 accurately ripped (confidence 2) [35074EEE] (AR v1)
Track 20 accurately ripped (confidence 2) [718CE430] (AR v1)
Track 21 accurately ripped (confidence 2) [42D8F80E] (AR v1)
Track 22 accurately ripped (confidence 2) [A5AB3362] (AR v1)
Track 23 accurately ripped (confidence 2) [D088F923] (AR v1)
Track 24 accurately ripped (confidence 2) [D65F671A] (AR v1)
Track 25 accurately ripped (confidence 2) [D0B8B4F6] (AR v1)
Track 26 accurately ripped (confidence 2) [49AE2DB8] (AR v1)
Track 27 accurately ripped (confidence 2) [5D5D1F37] (AR v1)
Track 28 accurately ripped (confidence 2) [28574395] (AR v1)
Track 29 accurately ripped (confidence 2) [B5627C68] (AR v1)
Track 30 accurately ripped (confidence 2) [68F3F13C] (AR v1)
Track 31 accurately ripped (confidence 2) [52E1043D] (AR v1)
Track 32 accurately ripped (confidence 2) [3FBDDEF8] (AR v1)
Track 33 accurately ripped (confidence 2) [82EE399B] (AR v1)
Track 34 accurately ripped (confidence 2) [B02712EC] (AR v1)
Track 35 accurately ripped (confidence 2) [D4951E42] (AR v1)
Track 36 accurately ripped (confidence 2) [6C1A155B] (AR v1)
Track 37 accurately ripped (confidence 2) [225015BF] (AR v1)

All tracks accurately ripped

End of status report

Exact Audio Copy V1.0 beta 3 from 29. August 2011

EAC extraction logfile from 18. August 2012, 16:04

Claudio Arrau / Schumann - piano works - Arrau (Vol. 2) (Disc 5)

Used drive : HL-DT-STDVDRAM GSA-H10A Adapter: 0 ID: 0

Read mode : Secure
Utilize accurate stream : Yes
Defeat audio cache : Yes
Make use of C2 pointers : No

Read offset correction : 667
Overread into Lead-In and Lead-Out : No
Fill up missing offset samples with silence : Yes
Delete leading and trailing silent blocks : No
Null samples used in CRC calculations : Yes
Used interface : Native Win32 interface for Win NT & 2000

Used output format : User Defined Encoder
Selected bitrate : 1024 kBit/s
Quality : High
Add ID3 tag : No
Command line compressor : C:\Program Files\Exact Audio Copy\Flac\flac.exe
Additional command line options : -8 -V -T "TITLE=%title%" -T "ARTIST=%artist%" -T "ALBUMARTIST=%albumartist%" -T "ALBUM=%albumtitle%" -T "DATE=%year%" -T "TRACKNUMBER=%tracknr%" -T "TRACKTOTAL=%numtracks%" -T "GENRE=%genre%" -T "COMMENT=%comment%" -T "PERFORMER=%albuminterpret%" -T "COMPOSER=%composer%" %source% -o %dest%


TOC of the extracted CD

Track | Start | Length | Start sector | End sector
––––––––––––––––––––––––––––-
1 | 0:00.33 | 8:52.00 | 33 | 39932
2 | 8:52.33 | 2:34.00 | 39933 | 51482
3 | 11:26.33 | 2:19.00 | 51483 | 61907
4 | 13:45.33 | 1:59.00 | 61908 | 70832
5 | 15:44.33 | 6:21.00 | 70833 | 99407
6 | 22:05.33 | 6:12.00 | 99408 | 127307
7 | 28:17.33 | 2:18.50 | 127308 | 137707
8 | 30:36.08 | 3:44.25 | 137708 | 154532
9 | 34:20.33 | 4:30.00 | 154533 | 174782
10 | 38:50.33 | 2:06.37 | 174783 | 184269
11 | 40:56.70 | 3:02.25 | 184270 | 197944
12 | 43:59.20 | 3:03.13 | 197945 | 211682
13 | 47:02.33 | 3:10.15 | 211683 | 225947
14 | 50:12.48 | 6:01.60 | 225948 | 253082
15 | 56:14.33 | 15:51.00 | 253083 | 324407


Range status and errors

Selected range

Filename F:\Ripped general\[1041] Schumann - piano works - Arrau (Vol. 2)\cd5\Schumann - piano works - Arrau (Vol. 2) (Disc 5).wav

Peak level 96.9 %
Extraction speed 2.1 X
Range quality 100.0 %
Test CRC B86AC054
Copy CRC B86AC054
Copy OK

No errors occurred


AccurateRip summary

Track 1 accurately ripped (confidence 5) [2705B44A] (AR v1)
Track 2 accurately ripped (confidence 5) [20049D1F] (AR v1)
Track 3 accurately ripped (confidence 5) [DCBE42B3] (AR v1)
Track 4 accurately ripped (confidence 5) [3CD13961] (AR v1)
Track 5 accurately ripped (confidence 5) [C7731CB5] (AR v1)
Track 6 accurately ripped (confidence 4) [2331FAAC] (AR v1)
Track 7 accurately ripped (confidence 4) [6284F342] (AR v1)
Track 8 accurately ripped (confidence 5) [3432A494] (AR v1)
Track 9 accurately ripped (confidence 5) [CB0D3B74] (AR v1)
Track 10 accurately ripped (confidence 5) [D99AC5BE] (AR v1)
Track 11 accurately ripped (confidence 5) [173340EE] (AR v1)
Track 12 accurately ripped (confidence 5) [A7924309] (AR v1)
Track 13 accurately ripped (confidence 5) [7C94C285] (AR v1)
Track 14 accurately ripped (confidence 5) [B2874C72] (AR v1)
Track 15 accurately ripped (confidence 4) [3FC7DD94] (AR v1)

All tracks accurately ripped

End of status report

Exact Audio Copy V1.0 beta 3 from 29. August 2011

EAC extraction logfile from 18. August 2012, 16:44

Claudio Arrau / Schumann - piano works - Arrau (Vol. 2) (Disc 6)

Used drive : HL-DT-STDVDRAM GSA-H10A Adapter: 0 ID: 0

Read mode : Secure
Utilize accurate stream : Yes
Defeat audio cache : Yes
Make use of C2 pointers : No

Read offset correction : 667
Overread into Lead-In and Lead-Out : No
Fill up missing offset samples with silence : Yes
Delete leading and trailing silent blocks : No
Null samples used in CRC calculations : Yes
Used interface : Native Win32 interface for Win NT & 2000

Used output format : User Defined Encoder
Selected bitrate : 1024 kBit/s
Quality : High
Add ID3 tag : No
Command line compressor : C:\Program Files\Exact Audio Copy\Flac\flac.exe
Additional command line options : -8 -V -T "TITLE=%title%" -T "ARTIST=%artist%" -T "ALBUMARTIST=%albumartist%" -T "ALBUM=%albumtitle%" -T "DATE=%year%" -T "TRACKNUMBER=%tracknr%" -T "TRACKTOTAL=%numtracks%" -T "GENRE=%genre%" -T "COMMENT=%comment%" -T "PERFORMER=%albuminterpret%" -T "COMPOSER=%composer%" %source% -o %dest%


TOC of the extracted CD

Track | Start | Length | Start sector | End sector
––––––––––––––––––––––––––––-
1 | 0:00.33 | 13:50.07 | 33 | 62289
2 | 13:50.40 | 4:08.58 | 62290 | 80947
3 | 17:59.23 | 5:52.10 | 80948 | 107357
4 | 23:51.33 | 12:40.00 | 107358 | 164357
5 | 36:31.33 | 2:04.00 | 164358 | 173657
6 | 38:35.33 | 4:29.37 | 173658 | 193869
7 | 43:04.70 | 3:21.38 | 193870 | 208982
8 | 46:26.33 | 4:14.00 | 208983 | 228032
9 | 50:40.33 | 3:36.00 | 228033 | 244232
10 | 54:16.33 | 3:15.00 | 244233 | 258857
11 | 57:31.33 | 3:24.00 | 258858 | 274157
12 | 60:55.33 | 2:00.00 | 274158 | 283157
13 | 62:55.33 | 4:05.00 | 283158 | 301532
14 | 67:00.33 | 3:04.00 | 301533 | 315332
15 | 70:04.33 | 2:33.00 | 315333 | 326807
16 | 72:37.33 | 5:09.00 | 326808 | 349982


Range status and errors

Selected range

Filename F:\Ripped general\[1041] Schumann - piano works - Arrau (Vol. 2)\cd6\Schumann - piano works - Arrau (Vol. 2) (Disc 6).wav

Peak level 96.0 %
Extraction speed 4.3 X
Range quality 100.0 %
Test CRC DAE5ADBD
Copy CRC DAE5ADBD
Copy OK

No errors occurred


AccurateRip summary

Track 1 accurately ripped (confidence 4) [E75DD6A4] (AR v1)
Track 2 accurately ripped (confidence 4) [676D23CD] (AR v1)
Track 3 accurately ripped (confidence 4) [71CBAD22] (AR v1)
Track 4 accurately ripped (confidence 4) [49990682] (AR v1)
Track 5 accurately ripped (confidence 4) [8E237E30] (AR v1)
Track 6 accurately ripped (confidence 4) [99C7C6EA] (AR v1)
Track 7 accurately ripped (confidence 4) [77AC949E] (AR v1)
Track 8 accurately ripped (confidence 4) [73EB5CB3] (AR v1)
Track 9 accurately ripped (confidence 4) [B9AF4226] (AR v1)
Track 10 accurately ripped (confidence 4) [BF869624] (AR v1)
Track 11 accurately ripped (confidence 4) [27A77184] (AR v1)
Track 12 accurately ripped (confidence 4) [4F2FA840] (AR v1)
Track 13 accurately ripped (confidence 4) [661FAABC] (AR v1)
Track 14 accurately ripped (confidence 4) [3F586BE9] (AR v1)
Track 15 accurately ripped (confidence 4) [45620124] (AR v1)
Track 16 accurately ripped (confidence 3) [7911C09A] (AR v1)

All tracks accurately ripped

End of status report

Exact Audio Copy V1.0 beta 3 from 29. August 2011

EAC extraction logfile from 18. August 2012, 17:25

Claudio Arrau / Schumann - piano works - Arrau (Vol. 2) (Disc 7)

Used drive : HL-DT-STDVDRAM GSA-H10A Adapter: 0 ID: 0

Read mode : Secure
Utilize accurate stream : Yes
Defeat audio cache : Yes
Make use of C2 pointers : No

Read offset correction : 667
Overread into Lead-In and Lead-Out : No
Fill up missing offset samples with silence : Yes
Delete leading and trailing silent blocks : No
Null samples used in CRC calculations : Yes
Used interface : Native Win32 interface for Win NT & 2000

Used output format : User Defined Encoder
Selected bitrate : 1024 kBit/s
Quality : High
Add ID3 tag : No
Command line compressor : C:\Program Files\Exact Audio Copy\Flac\flac.exe
Additional command line options : -8 -V -T "TITLE=%title%" -T "ARTIST=%artist%" -T "ALBUMARTIST=%albumartist%" -T "ALBUM=%albumtitle%" -T "DATE=%year%" -T "TRACKNUMBER=%tracknr%" -T "TRACKTOTAL=%numtracks%" -T "GENRE=%genre%" -T "COMMENT=%comment%" -T "PERFORMER=%albuminterpret%" -T "COMPOSER=%composer%" %source% -o %dest%


TOC of the extracted CD

Track | Start | Length | Start sector | End sector
––––––––––––––––––––––––––––-
1 | 0:00.33 | 2:24.25 | 33 | 10857
2 | 2:24.58 | 1:43.00 | 10858 | 18582
3 | 4:07.58 | 1:03.60 | 18583 | 23367
4 | 5:11.43 | 1:57.27 | 23368 | 32169
5 | 7:08.70 | 1:53.63 | 32170 | 40707
6 | 9:02.58 | 1:01.12 | 40708 | 45294
7 | 10:03.70 | 1:37.23 | 45295 | 52592
8 | 11:41.18 | 0:53.22 | 52593 | 56589
9 | 12:34.40 | 0:46.35 | 56590 | 60074
10 | 13:21.00 | 1:06.50 | 60075 | 65074
11 | 14:27.50 | 1:22.05 | 65075 | 71229
12 | 15:49.55 | 1:26.23 | 71230 | 77702
13 | 17:16.03 | 0:42.55 | 77703 | 80907
14 | 17:58.58 | 2:02.22 | 80908 | 90079
15 | 20:01.05 | 0:58.15 | 90080 | 94444
16 | 20:59.20 | 2:11.70 | 94445 | 104339
17 | 23:11.15 | 1:11.43 | 104340 | 109707
18 | 24:22.58 | 2:35.10 | 109708 | 121342
19 | 26:57.68 | 0:19.47 | 121343 | 122814
20 | 27:17.40 | 4:06.68 | 122815 | 141332
21 | 31:24.33 | 14:29.00 | 141333 | 206507
22 | 45:53.33 | 8:21.00 | 206508 | 244082
23 | 54:14.33 | 11:40.00 | 244083 | 296582
24 | 65:54.33 | 8:42.00 | 296583 | 335732


Range status and errors

Selected range

Filename F:\Ripped general\[1041] Schumann - piano works - Arrau (Vol. 2)\cd7\Schumann - piano works - Arrau (Vol. 2) (Disc 7).wav

Peak level 92.5 %
Extraction speed 7.6 X
Range quality 100.0 %
Test CRC 5AC58445
Copy CRC 5AC58445
Copy OK

No errors occurred


AccurateRip summary

Track 1 accurately ripped (confidence 2) [D10E509E] (AR v1)
Track 2 accurately ripped (confidence 2) [DE705A6E] (AR v1)
Track 3 accurately ripped (confidence 2) [CA2F3965] (AR v1)
Track 4 accurately ripped (confidence 2) [F6F39A98] (AR v1)
Track 5 accurately ripped (confidence 2) [D484B3ED] (AR v1)
Track 6 accurately ripped (confidence 2) [A3D3E356] (AR v1)
Track 7 accurately ripped (confidence 2) [95792278] (AR v1)
Track 8 accurately ripped (confidence 2) [1220FEC1] (AR v1)
Track 9 accurately ripped (confidence 2) [8F5C7F5F] (AR v1)
Track 10 accurately ripped (confidence 2) [A2A5F873] (AR v1)
Track 11 accurately ripped (confidence 2) [02594D8E] (AR v1)
Track 12 accurately ripped (confidence 2) [EE672DB1] (AR v1)
Track 13 accurately ripped (confidence 2) [55D3CC9E] (AR v1)
Track 14 accurately ripped (confidence 2) [87F05A6B] (AR v1)
Track 15 accurately ripped (confidence 2) [13BCFF25] (AR v1)
Track 16 accurately ripped (confidence 2) [E68039F4] (AR v1)
Track 17 accurately ripped (confidence 2) [625F5521] (AR v1)
Track 18 accurately ripped (confidence 2) [78B8BB1C] (AR v1)
Track 19 accurately ripped (confidence 2) [AC0EF91B] (AR v1)
Track 20 accurately ripped (confidence 2) [DB2D2F61] (AR v1)
Track 21 accurately ripped (confidence 2) [421E6619] (AR v1)
Track 22 accurately ripped (confidence 2) [670FFA20] (AR v1)
Track 23 accurately ripped (confidence 2) [498811DC] (AR v1)
Track 24 accurately ripped (confidence 3) [51299FC7] (AR v1)

All tracks accurately ripped

End of status report

Thanks to the Original ripper (unknown)!

Welcome to my blog!

Download: