Tags
Language
Tags

Claudio Arrau - Virtuoso Philosopher of the Piano (2011) (12CDs Box Set)

Posted By: murena
Claudio Arrau - Virtuoso Philosopher of the Piano (2011) (12CDs Box Set)

Claudio Arrau - Virtuoso Philosopher of the Piano (2011) (12CDs Box Set)
EAC Rip | FLAC (Image+.cue, log) | 8 CDs, 12:10:38 min | 2,85 Gb | Scans->1,15 mb
Genre: Classical / Label: EMI Classics

Claudio Arrau's reputation is built on his special affinity for the music of Brahms, Schumann, Liszt, Chopin and, above all, Beethoven whose complete sonatas he played in many major cities. Born on February 6, 1903, his performances had all the virtuoso technique required but it was accomplished without the least ostentation; for him the music was what should remain in the audience's ear and should not be disturbed by the flamboyance of the pianist in the audience's eye. Twenty years have passed since he departed but these recordings will bring back happy memories for all those lucky enough ever to have attended his concerts.

He received many awards during his student days such that his name was already in circulation when he gave extensive tours in Germany and Scandinavia following his first recital in Berlin in 1914. He embarked on a tour of Europe after WW1. Conductors of the highest calibre – Nikisch, Mengelberg and Furtwängler amongst them – accompanied him.

This big 12 CD set is part of EMI’s Icon series. The set therefore concentrates on mid-period Arrau. Companies such as Marston have brought out editions devoted to his earliest recordings on 78, and the later recordings, for example concerto collaborations with Haitink and Colin Davis, are very well known. Which is not to say that these EMI recordings aren’t well enough known; they certainly are.

This then is an outline of what you’ll find in this box. There’s the 1955-58 cycle of the Beethoven concertos with the Philharmonia and Galliera .in which Arrau excavates a myriad of bass detailing and plays with a measured assurance not always shared by Galliera.

There are nine sonatas including the Appassionata, Waldstein, Les Adieux, Opp.110 and 111, EMI capturing the pianist in a mix of mono and stereo. One can contrast these examples of his 1950s with the Philips recordings of all 32 sonatas made in the 1960s. In the main he is a touch more determined and measured in the later performances, though Philips’ sound is certainly better. His Appassionata is perhaps the very best of the Icon sonatas – intensity, rugged selflessness, a broad conception but one that he sustains perfectly according to his lights. But running it close is op. 101, in which conception and execution are in perfect accord, and the tonal qualities he evinces are wholly impressive. So too for that matter the last two sonatas, brilliantly realised, intense, nobly powerful, shorn of all artifice and false gestures.

Claudio Arrau - Virtuoso Philosopher of the Piano (2011) (12CDs Box Set)

Tracklist:

CD 1
Ludwig van Beethoven 1770-1827
Piano Concerto No. 1 in C, Op.15
[ 1] I. Allegro con brio 16.24
[ 2] II. Largo 10.55
[ 3] III. Rondo: Allegro scherzando 9.25

Piano Concerto No. 2 in B flat, Op.19
[ 4] I. Allegro con brio 14.04
[ 5] II. Adagio 9.02
[ 6] III. Rondo: Molto allegro 6.33

Philharmonia Orchestra
conducted by Alceo Galliera

[ 7] 32 Variations in C minor, WoO.80 12.23

This compilation and digital remastering (P) 1991 by EMI Records Ltd.

CD 2
Ludwig van Beethoven
Piano Concerto No. 3 in C minor, Op.37
[ 1] I. Allegro con brio 16.53
[ 2] II. Largo 10.58
[ 3] III. Rondo: Allegro - Presto 9.24

Piano Concerto No. 5 in E flat, Op.73 "Emperor"
[ 4] I. Allegro 20.29
[ 5] II. Adagio un poco mosso 7.47
[ 6] III. Rondo: Allegro - Piu allegro 10.42

Philharmonia Orchestra
conducted by Alceo Galliera

This compilation and digital remastering (P) 1991 by EMI Records Ltd.

CD 3
Ludwig van Beethoven
Piano Concerto No. 4 in G, Op.58
[ 1] I. Allegro moderato 19.14
[ 2] II. Andante con moto - 5.38
[ 3] III. Rondo: Vivace - Presto 10.06

Philharmonia Orchestra
conducted by Alceo Galliera

Piano Sonata No. 21 in C major, Op. 53 "Waldstein"
[ 4] I. Allegro con brio 12.11
[ 5] II. Introduzione: Adagio molto - 4.17
[ 6] Rondo: Allegretto moderato - Prestissimo 10.39

Piano Sonata No. 26 in E flat major, Op. 81a "Les Adieux"
[ 7] I. Adagio - Allegro (Les Adieux) 6.59
[ 8] II. Andante espressivo (L’Absence) 3.50
[ 9] III. Vivacissimamente (Le Retour) 6.04

This compilation (P) 2011 by EMI Records Ltd. c EMI Records Ltd. 2011

CD 4
Ludwig van Beethoven
Piano Sonata No. 23 in F minor, Op. 57 "Appassionata"
[ 1] I. Allegro assai 10.26
[ 2] II. Andante con moto 7.05
[ 3] III. Allegro ma non troppo - Presto 8.12

Piano Sonata No. 22 in F major, Op. 54
[ 4] I. In tempo d’un Menuetto 5.59
[ 5] II. Allegretto 6.15

Piano Sonata No. 7 in D, Op. 10 No. 3
[ 6] I. Presto c6.37
[ 7] II. Largo e mesto c10.12
[ 8] III. Menuetto: Allegro c2.50
[ 9] IV. Rondo: Allegro c3.55

Piano Sonata No. 24 in F sharp, Op. 78
[10] I. Adagio cantabile - Allegro ma non troppo c7.20
[11] II. Allegro vivace c3.00

Recording first issued in 1959 by EMI Records Ltd. MONO/ADD
Digital remastering (P) 2011 by EMI Records Ltd.

This compilation (P) 2011 by EMI Records Ltd. c EMI Records Ltd. 2011

CD 5
Ludwig van Beethoven
Piano Sonata No. 28 in A major, Op. 101
[ 1] I. Allegretto ma non troppo 4.20
[ 2] II. Vivace alla Marcia 5.06
[ 3] III. Adagio ma non troppo, con affetto - 2.40
[ 4] Allegro 8.07

Piano Sonata No. 31 in A flat major, Op. 110
[ 5] I. Moderato cantabile molto espressivo 7.15
[ 6] II. Allegro molto 2.16
[ 7] III. Adagio ma non troppo - 3.53
[ 8] Fuga: Allegro ma non troppo 7.14

Piano Sonata No. 32 in C minor, Op. 111
[ 9] I. Maestoso - Allegro con brio ed appassionato 9.01
[10] II. Arietta: Adagio molto semplice e cantabile 19.53

This compilation and digital remastering (P) 1991 by EMI Records Ltd.

CD 6
Johannes Brahms 1833-1897
Brahms: Piano Concerto No. 1 in D minor, Op.15
[ 1] I. Maestoso GB-AYC-88-03494 23.28
[ 2] II. Adagio GB-AYC-88-03495 15.06
[ 3] III. Rondo: Allegro non troppo GB-AYC-88-03496 12.54

Philharmonia Orchestra
conducted by Carlo Maria Giulini

(P) 1961 EMI Records Ltd. STEREO/ADD
Digital remastering (P) 1988 by EMI Records Ltd.

CD 7
Carl Maria von Weber 1786-1826
Konzertstuck in F minor, Op. 79
[ 1] Larghetto affettuoso - 6.18
[ 2] Allegro passionato - Adagio - 5.06
[ 3] Tempo di marcia - Piu mosso - 2.25
[ 4] Presto giojoso 4.31

Philharmonia Orchestra
conducted by Alceo Galliera

Brahms: Piano Concerto No. 2 in B flat major, Op.83
[ 5] I. Allegro non troppo GB-AYC-88-03324 19.11
[ 6] II. Allegretto appassionato GB-AYC-88-03325 9.17
[ 7] III. Andante* GB-AYC-88-03326 12.05
[ 8] IV. Allegretto grazioso GB-AYC-88-03327 9.57

* Raymond Clark, cello
Philharmonia Orchestra
conducted by Carlo Maria Giulini

This compilation (P) 2011 by EMI Records Ltd. c EMI Records Ltd. 2011

CD 8
Pyotr Il’yich Tchaikovsky 1840-1893
Piano Concerto No. 1 in B flat minor, Op.23
[ 1] I. Allegro non troppo e molto maestoso - Allegro con spirito 21.20
[ 2] II. Andantino semplice - Prestissimo - Tempo I 7.46
[ 3] III. Allegro con fuoco 7.06

Philharmonia Orchestra
conducted by Alceo Galliera

Edvard Grieg 1843-1907
Piano Concerto in A minor, Op.16
[ 1] I. Allegro molto moderato - Cadenza - Tempo I 14.32
[ 2] II. Adagio 6.55
[ 3] III. Allegro moderato molto e marcato - Andante maestoso 10.46

Philharmonia Orchestra
conducted by Alceo Galliera

This compilation (P) 2011 by EMI Records Ltd. c EMI Records Ltd. 2011

CD 9
Franz Schubert 1797-1828
3 Klavierstucke, D.946
[ 1] Impromptu No. 1 in E flat minor 15.21
[ 2] Impromptu No. 2 in E flat 15.37
[ 3] Impromptu No. 3 in C 5.13

Fantasy in C "Wanderer", D.760
[ 4] Allegro con fuoco ma non troppo 6.32
[ 5] Adagio 7.49
[ 6] Presto 5.15
[ 7] Allegro 3.22

Allegretto in C minor, D.915 c6.05
March in E, D.606 c4.12

This compilation (P) 2011 by EMI Records Ltd. c EMI Records Ltd. 2011

CD 10
Franz Schubert
6 Moments musicaux, D.780
[ 1] No. 1 in C 5.35
[ 2] No. 2 in A flat 7.11
[ 3] No. 3 in F minor 1.59
[ 4] No. 4 in C sharp minor c5.48
[ 5] No. 5 in F minor c2.08
[ 6] No. 6 in A flat major c9.00

Frederic Chopin 1810-1849
Piano Sonata No. 3 in B minor, Op.38
[ 7] I. Allegro maestoso 14.44
[ 8] II. Scherzo: Molto vivace 2.41
[ 9] III. Largo - 10.35
[10] IV. Finale: Presto non tanto 5.19

Recorded: 14, 24 & 25.IV. and 21.VI.1960, No. 3, Abbey Road Studios, London

[11] Fantasy in F minor, Op. 49 13.11

Recorded: 21.VI.1960, No. 3, Abbey Road Studios, London

This compilation (P) 2011 by EMI Records Ltd. c EMI Records Ltd. 2011

CD 11
Frederic Chopin
12 Etudes, Op.10
[ 1] No. 1 in C 1.55
[ 2] No. 2 in A minor 1.22
[ 3] No. 3 in E 4.31
[ 4] No. 4 in C sharp minor 2.16
[ 5] No. 5 in G flat 1.41
[ 6] No. 6 in E flat minor 2.53
[ 7] No. 7 in C 1.37
[ 8] No. 8 in F 2.23
[ 9] No. 9 in F minor 2.09
[10] No. 10 in A flat 2.14
[11] No. 11 in E flat 3.00
[12] No. 12 in C minor 2.27

12 Etudes, Op.25
[13] No. 1 in A flat 2.25
[14] No. 2 in F minor 1.43
[15] No. 3 in F 2.04
[16] No. 4 in A minor 2.18
[17] No. 5 in E minor 3.24
[18] No. 6 in G sharp minor 2.06
[19] No. 7 in C sharp minor 5.18
[20] No. 8 in D flat 1.09
[21] No. 9 in G flat 1.04
[22] No. 10 in B minor 4.29
[23] No. 11 in A minor 3.36
[24] No. 12 in C minor 2.29

3 Nouvelles Etudes
[25] No. 1 in F minor 2.05
[26] No. 2 in D flat 2.24
[27] No. 3 in A flat 2.04

[28] Allegro de concert in A, Op.46 12.22

CD 12
Robert Schumann 1810-1856
Piano Concerto in A minor, Op.54
[ 1] I. Allegro affetuoso - Andante espressivo - Tempo I - Cadenza - Allegro molto 16.45
[ 2] II. Intermezzo (Andantino grazioso) 5.54
[ 3] III. Allegro vivace 11.14

Philharmonia Orchestra
conducted by Alceo Galliera

Carnaval, Op. 9
[ 4] 1. Preambule 2.04
[ 5] 2. Pierrot 0.59
[ 6] 3. Arlequin 0.35
[ 7] 4. Valse noble 1.06
[ 8] 5. Eusebius 2.04
[ 9] 6. Florestan 0.51
[10] 7. Coquette. 0.57
[11] 8. Replique 0.52
[12] 9. Papillons 0.40
[13] 10. A.S.C.H. - S.C.H.A. (Lettres dansantes) 0.46
[14] 11. Chiarina 0.45
[15] 12. Chopin 1.25
[16] 13. Estrella 0.32
[17] 14. Reconnaissance 1.49
[18] 15. Pantalon et Colombine 0.52
[19] 16. Valse allemande 0.31
[20] 17. Paganini (Intermezzo) 1.03
[21] 18. Aveu 1.00
[22] 19. Promenade 2.11
[23] 20. Pause 0.18
[24] 21. Marche des ≫Davidsbundler≪ contre les Philistins 3.32
[25] Tarantelle in A flat, Op.43 2.41
[26] Debussy: Danse (Tarantelle styrienne) 4.54
[27] Debussy: Estampes - No. 3 Jardins sous la pluie 3.35

CD1
Exact Audio Copy V0.99 prebeta 3 from 28. July 2007

EAC extraction logfile from 9. May 2011, 20:57

Claudio Arrau - Early Beethoven recordings (1947-1960) / CD 1 - Piano concertos 1 & 2 - Variations in c minor

Used drive : ATAPI iHAS422 8 Adapter: 9 ID: 0

Read mode : Secure
Utilize accurate stream : Yes
Defeat audio cache : Yes
Make use of C2 pointers : No

Read offset correction : 6
Overread into Lead-In and Lead-Out : No
Fill up missing offset samples with silence : Yes
Delete leading and trailing silent blocks : No
Null samples used in CRC calculations : Yes
Used interface : Installed external ASPI interface

Used output format : Internal WAV Routines
Sample format : 44.100 Hz; 16 Bit; Stereo


TOC of the extracted CD

Track | Start | Length | Start sector | End sector
––––––––––––––––––––––––––––-
1 | 0:00.33 | 16:23.74 | 33 | 73831
2 | 16:24.32 | 10:55.41 | 73832 | 122997
3 | 27:19.73 | 9:30.32 | 122998 | 165779
4 | 36:50.30 | 14:03.62 | 165780 | 229066
5 | 50:54.17 | 9:02.27 | 229067 | 269743
6 | 59:56.44 | 6:38.61 | 269744 | 299654
7 | 66:35.30 | 12:22.68 | 299655 | 355372


Range status and errors

Selected range

Filename F:\Arrau - Icon\CD1.wav

Peak level 91.6 %
Range quality 100.0 %
Copy CRC A9C8F681
Copy OK

No errors occurred


AccurateRip summary

Track 1 not present in database
Track 2 not present in database
Track 3 not present in database
Track 4 not present in database
Track 5 not present in database
Track 6 not present in database
Track 7 not present in database

None of the tracks are present in the AccurateRip database

End of status report


CD2
Exact Audio Copy V0.99 prebeta 3 from 28. July 2007

EAC extraction logfile from 9. May 2011, 21:14

Claudio Arrau - Early Beethoven recordings (1947-1960) / CD 2 Piano concertos 3 & 5

Used drive : ATAPI iHAS422 8 Adapter: 9 ID: 0

Read mode : Secure
Utilize accurate stream : Yes
Defeat audio cache : Yes
Make use of C2 pointers : No

Read offset correction : 6
Overread into Lead-In and Lead-Out : No
Fill up missing offset samples with silence : Yes
Delete leading and trailing silent blocks : No
Null samples used in CRC calculations : Yes
Used interface : Installed external ASPI interface

Used output format : Internal WAV Routines
Sample format : 44.100 Hz; 16 Bit; Stereo


TOC of the extracted CD

Track | Start | Length | Start sector | End sector
––––––––––––––––––––––––––––-
1 | 0:00.33 | 16:52.45 | 33 | 75977
2 | 16:53.03 | 10:58.07 | 75978 | 125334
3 | 27:51.10 | 9:31.03 | 125335 | 168162
4 | 37:22.13 | 20:28.24 | 168163 | 260286
5 | 57:50.37 | 7:47.65 | 260287 | 295376
6 | 65:38.27 | 10:42.66 | 295377 | 343592


Range status and errors

Selected range

Filename F:\Arrau - Icon\CD2.wav

Peak level 99.2 %
Range quality 100.0 %
Copy CRC 9EA96013
Copy OK

No errors occurred


AccurateRip summary

Track 1 not present in database
Track 2 not present in database
Track 3 not present in database
Track 4 not present in database
Track 5 not present in database
Track 6 not present in database

None of the tracks are present in the AccurateRip database

End of status report


CD3
Exact Audio Copy V0.99 prebeta 3 from 28. July 2007

EAC extraction logfile from 9. May 2011, 21:38

Unknown Artist / Unknown Title

Used drive : ATAPI iHAS422 8 Adapter: 9 ID: 0

Read mode : Secure
Utilize accurate stream : Yes
Defeat audio cache : Yes
Make use of C2 pointers : No

Read offset correction : 6
Overread into Lead-In and Lead-Out : No
Fill up missing offset samples with silence : Yes
Delete leading and trailing silent blocks : No
Null samples used in CRC calculations : Yes
Used interface : Installed external ASPI interface

Used output format : Internal WAV Routines
Sample format : 44.100 Hz; 16 Bit; Stereo


TOC of the extracted CD

Track | Start | Length | Start sector | End sector
––––––––––––––––––––––––––––-
1 | 0:00.00 | 19:14.13 | 0 | 86562
2 | 19:14.13 | 5:38.58 | 86563 | 111970
3 | 24:52.71 | 10:13.69 | 111971 | 158014
4 | 35:06.65 | 12:09.74 | 158015 | 212763
5 | 47:16.64 | 4:17.40 | 212764 | 232078
6 | 51:34.29 | 10:46.18 | 232079 | 280546
7 | 62:20.47 | 6:58.47 | 280547 | 311943
8 | 69:19.19 | 3:50.36 | 311944 | 329229
9 | 73:09.55 | 6:05.18 | 329230 | 356622


Range status and errors

Selected range

Filename F:\Arrau - Icon\CD3.wav

Peak level 99.1 %
Range quality 100.0 %
Copy CRC FD696229
Copy OK

No errors occurred


AccurateRip summary

Track 1 not present in database
Track 2 not present in database
Track 3 not present in database
Track 4 not present in database
Track 5 not present in database
Track 6 not present in database
Track 7 not present in database
Track 8 not present in database
Track 9 not present in database

None of the tracks are present in the AccurateRip database

End of status report


CD4
Exact Audio Copy V0.99 prebeta 3 from 28. July 2007

EAC extraction logfile from 9. May 2011, 22:04

Unknown Artist / Unknown Title

Used drive : ATAPI iHAS422 8 Adapter: 9 ID: 0

Read mode : Secure
Utilize accurate stream : Yes
Defeat audio cache : Yes
Make use of C2 pointers : No

Read offset correction : 6
Overread into Lead-In and Lead-Out : No
Fill up missing offset samples with silence : Yes
Delete leading and trailing silent blocks : No
Null samples used in CRC calculations : Yes
Used interface : Installed external ASPI interface

Used output format : Internal WAV Routines
Sample format : 44.100 Hz; 16 Bit; Stereo


TOC of the extracted CD

Track | Start | Length | Start sector | End sector
––––––––––––––––––––––––––––-
1 | 0:00.00 | 10:25.63 | 0 | 46937
2 | 10:25.63 | 7:02.04 | 46938 | 78591
3 | 17:27.67 | 8:24.27 | 78592 | 116418
4 | 25:52.19 | 5:58.31 | 116419 | 143299
5 | 31:50.50 | 6:22.68 | 143300 | 172017
6 | 38:13.43 | 6:47.27 | 172018 | 202569
7 | 45:00.70 | 10:18.09 | 202570 | 248928
8 | 55:19.04 | 2:55.46 | 248929 | 262099
9 | 58:14.50 | 4:04.11 | 262100 | 280410
10 | 62:18.61 | 7:28.48 | 280411 | 314058
11 | 69:47.34 | 2:58.21 | 314059 | 327429


Range status and errors

Selected range

Filename F:\Arrau - Icon\CD4.wav

Peak level 92.1 %
Range quality 100.0 %
Copy CRC 0C8AE2E5
Copy OK

No errors occurred


AccurateRip summary

Track 1 not present in database
Track 2 not present in database
Track 3 not present in database
Track 4 not present in database
Track 5 not present in database
Track 6 not present in database
Track 7 not present in database
Track 8 not present in database
Track 9 not present in database
Track 10 not present in database
Track 11 not present in database

None of the tracks are present in the AccurateRip database

End of status report


CD5
Exact Audio Copy V0.99 prebeta 3 from 28. July 2007

EAC extraction logfile from 9. May 2011, 22:28

Unknown Artist / Unknown Title

Used drive : ATAPI iHAS422 8 Adapter: 9 ID: 0

Read mode : Secure
Utilize accurate stream : Yes
Defeat audio cache : Yes
Make use of C2 pointers : No

Read offset correction : 6
Overread into Lead-In and Lead-Out : No
Fill up missing offset samples with silence : Yes
Delete leading and trailing silent blocks : No
Null samples used in CRC calculations : Yes
Used interface : Installed external ASPI interface

Used output format : Internal WAV Routines
Sample format : 44.100 Hz; 16 Bit; Stereo


TOC of the extracted CD

Track | Start | Length | Start sector | End sector
––––––––––––––––––––––––––––-
1 | 0:00.33 | 4:20.44 | 33 | 19576
2 | 4:21.02 | 5:06.31 | 19577 | 42557
3 | 9:27.33 | 3:07.20 | 42558 | 56602
4 | 12:34.53 | 7:46.22 | 56603 | 91574
5 | 20:21.00 | 7:15.10 | 91575 | 124209
6 | 27:36.10 | 2:16.17 | 124210 | 134426
7 | 29:52.27 | 3:53.31 | 134427 | 151932
8 | 33:45.58 | 7:19.05 | 151933 | 184862
9 | 41:04.63 | 9:01.30 | 184863 | 225467
10 | 50:06.18 | 19:53.40 | 225468 | 314982


Range status and errors

Selected range

Filename F:\Arrau - Icon\CD5.wav

Peak level 98.6 %
Range quality 100.0 %
Copy CRC D31CE9DF
Copy OK

No errors occurred


AccurateRip summary

Track 1 not present in database
Track 2 not present in database
Track 3 not present in database
Track 4 not present in database
Track 5 not present in database
Track 6 not present in database
Track 7 not present in database
Track 8 not present in database
Track 9 not present in database
Track 10 not present in database

None of the tracks are present in the AccurateRip database

End of status report


CD6
Exact Audio Copy V0.99 prebeta 3 from 28. July 2007

EAC extraction logfile from 9. May 2011, 22:51

Claudio Arrau / Johannes Brahms:Piano Concerto No.1

Used drive : ATAPI iHAS422 8 Adapter: 9 ID: 0

Read mode : Secure
Utilize accurate stream : Yes
Defeat audio cache : Yes
Make use of C2 pointers : No

Read offset correction : 6
Overread into Lead-In and Lead-Out : No
Fill up missing offset samples with silence : Yes
Delete leading and trailing silent blocks : No
Null samples used in CRC calculations : Yes
Used interface : Installed external ASPI interface

Used output format : Internal WAV Routines
Sample format : 44.100 Hz; 16 Bit; Stereo


TOC of the extracted CD

Track | Start | Length | Start sector | End sector
––––––––––––––––––––––––––––-
1 | 0:00.00 | 23:34.29 | 0 | 106078
2 | 23:34.29 | 15:06.34 | 106079 | 174062
3 | 38:40.63 | 12:55.62 | 174063 | 232249


Range status and errors

Selected range

Filename F:\Arrau - Icon\CD6.wav

Peak level 91.1 %
Range quality 100.0 %
Copy CRC 11A26A0A
Copy OK

No errors occurred


AccurateRip summary

Track 1 not present in database
Track 2 not present in database
Track 3 not present in database

None of the tracks are present in the AccurateRip database

End of status report


CD7
Exact Audio Copy V0.99 prebeta 3 from 28. July 2007

EAC extraction logfile from 10. May 2011, 9:14

Unknown Artist / Unknown Title

Used drive : ATAPI iHAS422 8 Adapter: 9 ID: 0

Read mode : Secure
Utilize accurate stream : Yes
Defeat audio cache : Yes
Make use of C2 pointers : No

Read offset correction : 6
Overread into Lead-In and Lead-Out : No
Fill up missing offset samples with silence : Yes
Delete leading and trailing silent blocks : No
Null samples used in CRC calculations : Yes
Used interface : Installed external ASPI interface

Used output format : Internal WAV Routines
Sample format : 44.100 Hz; 16 Bit; Stereo


TOC of the extracted CD

Track | Start | Length | Start sector | End sector
––––––––––––––––––––––––––––-
1 | 0:00.00 | 6:18.67 | 0 | 28416
2 | 6:18.67 | 5:06.34 | 28417 | 51400
3 | 11:25.26 | 2:25.27 | 51401 | 62302
4 | 13:50.53 | 4:40.52 | 62303 | 83354
5 | 18:31.30 | 19:16.65 | 83355 | 170119
6 | 37:48.20 | 9:21.72 | 170120 | 212266
7 | 47:10.17 | 12:08.20 | 212267 | 266886
8 | 59:18.37 | 9:59.04 | 266887 | 311815


Range status and errors

Selected range

Filename F:\Arrau - Icon\CD7.wav

Peak level 94.0 %
Range quality 100.0 %
Copy CRC D6144343
Copy OK

No errors occurred


AccurateRip summary

Track 1 not present in database
Track 2 not present in database
Track 3 not present in database
Track 4 not present in database
Track 5 not present in database
Track 6 not present in database
Track 7 not present in database
Track 8 not present in database

None of the tracks are present in the AccurateRip database

End of status report


CD8
Exact Audio Copy V0.99 prebeta 3 from 28. July 2007

EAC extraction logfile from 10. May 2011, 9:26

Unknown Artist / Unknown Title

Used drive : ATAPI iHAS422 8 Adapter: 9 ID: 0

Read mode : Secure
Utilize accurate stream : Yes
Defeat audio cache : Yes
Make use of C2 pointers : No

Read offset correction : 6
Overread into Lead-In and Lead-Out : No
Fill up missing offset samples with silence : Yes
Delete leading and trailing silent blocks : No
Null samples used in CRC calculations : Yes
Used interface : Installed external ASPI interface

Used output format : Internal WAV Routines
Sample format : 44.100 Hz; 16 Bit; Stereo


TOC of the extracted CD

Track | Start | Length | Start sector | End sector
––––––––––––––––––––––––––––-
1 | 0:00.00 | 21:23.64 | 0 | 96288
2 | 21:23.64 | 7:52.01 | 96289 | 131689
3 | 29:15.65 | 7:15.43 | 131690 | 164357
4 | 36:31.33 | 14:29.27 | 164358 | 229559
5 | 51:00.60 | 6:55.23 | 229560 | 260707
6 | 57:56.08 | 10:47.36 | 260708 | 309268


Range status and errors

Selected range

Filename F:\Arrau - Icon\CD8.wav

Peak level 98.7 %
Range quality 99.9 %
Copy CRC 0CEBE715
Copy OK

No errors occurred


AccurateRip summary

Track 1 not present in database
Track 2 not present in database
Track 3 not present in database
Track 4 not present in database
Track 5 not present in database
Track 6 not present in database

None of the tracks are present in the AccurateRip database

End of status report


CD9
Exact Audio Copy V0.99 prebeta 3 from 28. July 2007

EAC extraction logfile from 10. May 2011, 9:37

Unknown Artist / Unknown Title

Used drive : ATAPI iHAS422 8 Adapter: 9 ID: 0

Read mode : Secure
Utilize accurate stream : Yes
Defeat audio cache : Yes
Make use of C2 pointers : No

Read offset correction : 6
Overread into Lead-In and Lead-Out : No
Fill up missing offset samples with silence : Yes
Delete leading and trailing silent blocks : No
Null samples used in CRC calculations : Yes
Used interface : Installed external ASPI interface

Used output format : Internal WAV Routines
Sample format : 44.100 Hz; 16 Bit; Stereo


TOC of the extracted CD

Track | Start | Length | Start sector | End sector
––––––––––––––––––––––––––––-
1 | 0:00.00 | 15:20.62 | 0 | 69061
2 | 15:20.62 | 15:36.65 | 69062 | 139326
3 | 30:57.52 | 5:18.56 | 139327 | 163232
4 | 36:16.33 | 6:31.29 | 163233 | 192586
5 | 42:47.62 | 7:50.01 | 192587 | 227837
6 | 50:37.63 | 5:15.01 | 227838 | 251463
7 | 55:52.64 | 3:31.35 | 251464 | 267323
8 | 59:24.24 | 6:18.22 | 267324 | 295695
9 | 65:42.46 | 4:20.05 | 295696 | 315200


Range status and errors

Selected range

Filename F:\Arrau - Icon\CD9.wav

Peak level 97.6 %
Range quality 100.0 %
Copy CRC 67113B12
Copy OK

No errors occurred


AccurateRip summary

Track 1 not present in database
Track 2 not present in database
Track 3 not present in database
Track 4 not present in database
Track 5 not present in database
Track 6 not present in database
Track 7 not present in database
Track 8 not present in database
Track 9 not present in database

None of the tracks are present in the AccurateRip database

End of status report


CD10
Exact Audio Copy V0.99 prebeta 3 from 28. July 2007

EAC extraction logfile from 10. May 2011, 9:51

Unknown Artist / Unknown Title

Used drive : ATAPI iHAS422 8 Adapter: 9 ID: 0

Read mode : Secure
Utilize accurate stream : Yes
Defeat audio cache : Yes
Make use of C2 pointers : No

Read offset correction : 6
Overread into Lead-In and Lead-Out : No
Fill up missing offset samples with silence : Yes
Delete leading and trailing silent blocks : No
Null samples used in CRC calculations : Yes
Used interface : Installed external ASPI interface

Used output format : Internal WAV Routines
Sample format : 44.100 Hz; 16 Bit; Stereo


TOC of the extracted CD

Track | Start | Length | Start sector | End sector
––––––––––––––––––––––––––––-
1 | 0:00.00 | 5:43.74 | 0 | 25798
2 | 5:43.74 | 7:17.19 | 25799 | 58592
3 | 13:01.18 | 2:03.51 | 58593 | 67868
4 | 15:04.69 | 5:57.66 | 67869 | 94709
5 | 21:02.60 | 2:14.73 | 94710 | 104832
6 | 23:17.58 | 9:16.72 | 104833 | 146604
7 | 32:34.55 | 14:47.10 | 146605 | 213139
8 | 47:21.65 | 2:41.32 | 213140 | 225246
9 | 50:03.22 | 10:38.08 | 225247 | 273104
10 | 60:41.30 | 5:28.42 | 273105 | 297746
11 | 66:09.72 | 13:12.39 | 297747 | 357185


Range status and errors

Selected range

Filename F:\Arrau - Icon\CD10.wav

Peak level 100.0 %
Range quality 99.9 %
Copy CRC 5B722C9A
Copy OK

No errors occurred


AccurateRip summary

Track 1 not present in database
Track 2 not present in database
Track 3 not present in database
Track 4 not present in database
Track 5 not present in database
Track 6 not present in database
Track 7 not present in database
Track 8 not present in database
Track 9 not present in database
Track 10 not present in database
Track 11 not present in database

None of the tracks are present in the AccurateRip database

End of status report


CD11
Exact Audio Copy V0.99 prebeta 3 from 28. July 2007

EAC extraction logfile from 10. May 2011, 10:16

Claudio Arrau / Chopin: �tudes, Allegro de concert

Used drive : ATAPI iHAS422 8 Adapter: 9 ID: 0

Read mode : Secure
Utilize accurate stream : Yes
Defeat audio cache : Yes
Make use of C2 pointers : No

Read offset correction : 6
Overread into Lead-In and Lead-Out : No
Fill up missing offset samples with silence : Yes
Delete leading and trailing silent blocks : No
Null samples used in CRC calculations : Yes
Used interface : Installed external ASPI interface

Used output format : Internal WAV Routines
Sample format : 44.100 Hz; 16 Bit; Stereo


TOC of the extracted CD

Track | Start | Length | Start sector | End sector
––––––––––––––––––––––––––––-
1 | 0:00.00 | 1:55.21 | 0 | 8645
2 | 1:55.21 | 1:22.30 | 8646 | 14825
3 | 3:17.51 | 4:30.73 | 14826 | 35148
4 | 7:48.49 | 2:16.09 | 35149 | 45357
5 | 10:04.58 | 1:41.54 | 45358 | 52986
6 | 11:46.37 | 2:53.25 | 52987 | 65986
7 | 14:39.62 | 1:37.35 | 65987 | 73296
8 | 16:17.22 | 2:23.58 | 73297 | 84079
9 | 18:41.05 | 2:09.55 | 84080 | 93809
10 | 20:50.60 | 2:14.38 | 93810 | 103897
11 | 23:05.23 | 3:00.63 | 103898 | 117460
12 | 26:06.11 | 2:28.70 | 117461 | 128630
13 | 28:35.06 | 2:25.64 | 128631 | 139569
14 | 31:00.70 | 1:43.16 | 139570 | 147310
15 | 32:44.11 | 2:04.35 | 147311 | 156645
16 | 34:48.46 | 2:18.17 | 156646 | 167012
17 | 37:06.63 | 3:24.49 | 167013 | 182361
18 | 40:31.37 | 2:06.56 | 182362 | 191867
19 | 42:38.18 | 5:17.66 | 191868 | 215708
20 | 47:56.09 | 1:09.44 | 215709 | 220927
21 | 49:05.53 | 1:04.49 | 220928 | 225776
22 | 50:10.27 | 4:29.04 | 225777 | 245955
23 | 54:39.31 | 3:36.18 | 245956 | 262173
24 | 58:15.49 | 2:31.25 | 262174 | 273523
25 | 60:46.74 | 2:05.01 | 273524 | 282899
26 | 62:52.00 | 2:24.47 | 282900 | 293746
27 | 65:16.47 | 2:06.59 | 293747 | 303255
28 | 67:23.31 | 12:22.17 | 303256 | 358922


Range status and errors

Selected range

Filename F:\Arrau - Icon\CD11.wav

Peak level 99.8 %
Range quality 100.0 %
Copy CRC DEBDCF7C
Copy OK

No errors occurred


AccurateRip summary

Track 1 accurately ripped (confidence 3) [3D674C0F]
Track 2 accurately ripped (confidence 3) [AA356945]
Track 3 accurately ripped (confidence 3) [E6619F54]
Track 4 accurately ripped (confidence 3) [9FCD544F]
Track 5 accurately ripped (confidence 3) [61618077]
Track 6 accurately ripped (confidence 3) [482EEFC4]
Track 7 accurately ripped (confidence 3) [9ECCB2A3]
Track 8 accurately ripped (confidence 3) [B206DAEC]
Track 9 accurately ripped (confidence 3) [A362464A]
Track 10 accurately ripped (confidence 3) [EA215A4D]
Track 11 accurately ripped (confidence 3) [B7DB4F15]
Track 12 accurately ripped (confidence 3) [F8E12D6F]
Track 13 accurately ripped (confidence 3) [2F8D58DD]
Track 14 accurately ripped (confidence 3) [5A85AF71]
Track 15 accurately ripped (confidence 3) [3CF257BF]
Track 16 accurately ripped (confidence 3) [5BCCC1BD]
Track 17 accurately ripped (confidence 3) [A3FA0E8D]
Track 18 accurately ripped (confidence 3) [211227B4]
Track 19 accurately ripped (confidence 3) [67884E10]
Track 20 accurately ripped (confidence 3) [EAA670F3]
Track 21 accurately ripped (confidence 3) [9A9A1561]
Track 22 accurately ripped (confidence 3) [34D93774]
Track 23 accurately ripped (confidence 3) [18B88790]
Track 24 accurately ripped (confidence 3) [4FE21F44]
Track 25 accurately ripped (confidence 3) [91539C88]
Track 26 accurately ripped (confidence 3) [8571C297]
Track 27 accurately ripped (confidence 3) [D0E8CA37]
Track 28 accurately ripped (confidence 2) [42A171BC]

All tracks accurately ripped

End of status report


CD12
Exact Audio Copy V0.99 prebeta 3 from 28. July 2007

EAC extraction logfile from 10. May 2011, 12:00

Unknown Artist / Unknown Title

Used drive : ATAPI iHAS422 8 Adapter: 9 ID: 0

Read mode : Secure
Utilize accurate stream : Yes
Defeat audio cache : Yes
Make use of C2 pointers : No

Read offset correction : 6
Overread into Lead-In and Lead-Out : No
Fill up missing offset samples with silence : Yes
Delete leading and trailing silent blocks : No
Null samples used in CRC calculations : Yes
Used interface : Installed external ASPI interface

Used output format : Internal WAV Routines
Sample format : 44.100 Hz; 16 Bit; Stereo


TOC of the extracted CD

Track | Start | Length | Start sector | End sector
––––––––––––––––––––––––––––-
1 | 0:00.00 | 16:36.06 | 0 | 74705
2 | 16:36.06 | 5:54.03 | 74706 | 101258
3 | 22:30.09 | 11:25.30 | 101259 | 152663
4 | 33:55.39 | 2:03.42 | 152664 | 161930
5 | 35:59.06 | 0:59.44 | 161931 | 166399
6 | 36:58.50 | 0:35.27 | 166400 | 169051
7 | 37:34.02 | 1:07.02 | 169052 | 174078
8 | 38:41.04 | 2:03.53 | 174079 | 183356
9 | 40:44.57 | 0:50.51 | 183357 | 187157
10 | 41:35.33 | 0:57.29 | 187158 | 191461
11 | 42:32.62 | 0:52.27 | 191462 | 195388
12 | 43:25.14 | 0:39.71 | 195389 | 198384
13 | 44:05.10 | 0:46.73 | 198385 | 201907
14 | 44:52.08 | 0:44.59 | 201908 | 205266
15 | 45:36.67 | 1:24.11 | 205267 | 211577
16 | 47:01.03 | 0:32.01 | 211578 | 213978
17 | 47:33.04 | 1:48.36 | 213979 | 222114
18 | 49:21.40 | 0:53.17 | 222115 | 226106
19 | 50:14.57 | 0:30.74 | 226107 | 228430
20 | 50:45.56 | 1:03.44 | 228431 | 233199
21 | 51:49.25 | 1:00.25 | 233200 | 237724
22 | 52:49.50 | 2:10.39 | 237725 | 247513
23 | 55:00.14 | 0:15.74 | 247514 | 248712
24 | 55:16.13 | 3:34.27 | 248713 | 264789
25 | 58:50.40 | 2:46.41 | 264790 | 277280
26 | 61:37.06 | 4:53.42 | 277281 | 299297
27 | 66:30.48 | 3:30.67 | 299298 | 315114


Range status and errors

Selected range

Filename F:\Arrau - Icon\CD12.wav

Peak level 99.5 %
Range quality 100.0 %
Copy CRC AD7EA53C
Copy OK

No errors occurred


AccurateRip summary

Track 1 not present in database
Track 2 not present in database
Track 3 not present in database
Track 4 not present in database
Track 5 not present in database
Track 6 not present in database
Track 7 not present in database
Track 8 not present in database
Track 9 not present in database
Track 10 not present in database
Track 11 not present in database
Track 12 not present in database
Track 13 not present in database
Track 14 not present in database
Track 15 not present in database
Track 16 not present in database
Track 17 not present in database
Track 18 not present in database
Track 19 not present in database
Track 20 not present in database
Track 21 not present in database
Track 22 not present in database
Track 23 not present in database
Track 24 not present in database
Track 25 not present in database
Track 26 not present in database
Track 27 not present in database

None of the tracks are present in the AccurateRip database

End of status report


Thanks to the original ripper.

**Follow My Music Blog**