Tags
Language
Tags

Claudio Abbado, Simon Bolivar Youth Orchestra of Venezuela, Anna Prohaska - Lucerne Festival at Easter (2010) [Blu-Ray]

Posted By: Vilboa
Claudio Abbado, Simon Bolivar Youth Orchestra of Venezuela, Anna Prohaska - Lucerne Festival at Easter (2010) [Blu-Ray]

Claudio Abbado, Simon Bolivar Youth Orchestra of Venezuela, Anna Prohaska - Lucerne Festival at Easter: Prokofiev, Berg, Mozart, Tchaikovsky (2010) [Blu-Ray]
BluRay | BDMV | MPEG-4 AVC Video / 17761 kbps / 1080i / 29,970 fps | 109 min | 21,1 Gb
Audio1: LPCM Audio / 2.0 / 24-bit | Audio2: DTS-HD Master Audio 5.1 / 48 kHz / 3865 kbps / 24-bit
––––––
BluRay-rip1 | MKV 1920x1080 / 5034 kbps / 29,970 fps | 109 min | 6,74 Gb
BluRay-rip2 | MKV 1280x720 / 2000 kbps / 29,970 fps | 109 min | 4,44 Gb
Classical | Accentus Music

Five years after first conducting the Simón Bolívar Youth Orchestra in their Venezuelan home, Claudio Abbado continues his commitment to this stunning ensemble in this first joint audiovisual concert recording. Prokofiev's extrovert Scythian Suite is a gift for the boundless energy of these young players, while the intricacy and anguish of Berg's Lulu-Suite are an Abbado speciality, with soprano Anna Prohaska, in her Lucerne Festival debut, singing the heroine's dazzling statement of self-justification. The concert ends with an impassioned account of Tchaikovsky's Pathétique, his final symphony, one of the most moving works in music history.

Cast:
Anna Prohaska, soprano
Simón Bolívar Youth Orchestra of Venezuela
Claudio Abbado, conductor

Track:
- Sergei Prokofiev (1891-1953): Scythian Suite, Op. 20
- Alban Berg (1885-1935): Lulu-Suite
- Wolfgang Amadeus Mozart (1756-1791): Ach, ich fühls (Pamina Aria from The Magic Flute)
- Pyotr Ilyich Tchaikovsky (1840-1893): Symphony No. 6 in B minor


Disc Title: LUCERNE_FESTIVAL_2010
Disc Size: 22 749 336 532 bytes
Protection: AACS
BD-Java: No
Playlist: 00002.MPLS
Size: 20 780 224 512 bytes
Length: 1:49:21.321
Total Bitrate: 25,34 Mbps
Video: MPEG-4 AVC Video / 17761 kbps / 1080i / 29,970 fps / 16:9 / High Profile 4.1
Audio: Undetermined / LPCM Audio / 2.0 / 48 kHz / 2304 kbps / 24-bit
Audio: Undetermined / DTS-HD Master Audio / 5.1 / 48 kHz / 3865 kbps / 24-bit (DTS Core: 5.1 / 48 kHz / 1509 kbps / 24-bit)


General
Unique ID : 195125957735692286125131012874565690921 (0x92CBE47A6C86225A8E9DEF43E811A629)
Complete name : C:\LUCERNE_FESTIVAL_2010.mkv
Format : Matroska
Format version : Version 2
File size : 6.75 GiB
Duration : 1h 49mn
Overall bit rate : 8 857 Kbps
Movie name : LUCERNE_FESTIVAL_2010
Encoded date : UTC 2022-07-23 13:54:17
Writing application : DVDFab 9.1.6.8
Writing library : libebml v0.7.8 + libmatroska v0.8.1

Video
ID : 1
Format : AVC
Format/Info : Advanced Video Codec
Format profile : High@L4.1
Format settings, CABAC : Yes
Format settings, ReFrames : 2 frames
Codec ID : V_MPEG4/ISO/AVC
Duration : 1h 49mn
Nominal bit rate : 5 034 Kbps
Width : 1 920 pixels
Height : 1 080 pixels
Display aspect ratio : 16:9
Frame rate mode : Constant
Frame rate : 29.970 fps
Color space : YUV
Chroma subsampling : 4:2:0
Bit depth : 8 bits
Scan type : Progressive
Bits/(Pixel*Frame) : 0.081
Writing library : x264 core 142
Encoding settings : cabac=1 / ref=1 / deblock=1:-1:-1 / analyse=0x3:0 / me=hex / subme=5 / psy=0 / mixed_ref=0 / me_range=16 / chroma_me=1 / trellis=0 / 8x8dct=1 / cqm=0 / deadzone=21,11 / fast_pskip=1 / chroma_qp_offset=0 / threads=8 / lookahead_threads=2 / sliced_threads=0 / nr=0 / decimate=1 / interlaced=0 / bluray_compat=0 / constrained_intra=0 / bframes=2 / b_pyramid=0 / b_adapt=1 / b_bias=0 / direct=1 / weightb=1 / open_gop=0 / weightp=0 / keyint=24 / keyint_min=13 / scenecut=40 / intra_refresh=0 / rc=abr / mbtree=0 / bitrate=5034 / ratetol=1.0 / qcomp=0.60 / qpmin=0 / qpmax=69 / qpstep=4 / ip_ratio=1.40 / pb_ratio=1.30 / aq=1:1.00
Default : Yes
Forced : No
Color primaries : BT.709
Transfer characteristics : BT.709
Matrix coefficients : BT.709
Color range : Limited

Audio #1
ID : 2
Format : PCM
Codec ID : A_PCM/INT/LIT
Duration : 1h 49mn
Bit rate mode : Constant
Channel(s) : 2 channels
Sampling rate : 48.0 KHz
Bit depth : 24 bits
Default : Yes
Forced : No

Audio #2
ID : 3
Format : DTS
Format/Info : Digital Theater Systems
Mode : 16
Format settings, Endianness : Big
Codec ID : A_DTS
Duration : 1h 49mn
Bit rate mode : Constant
Bit rate : 1 509 Kbps
Channel(s) : 6 channels
Channel positions : Front: L C R, Side: L R, LFE
Sampling rate : 48.0 KHz
Bit depth : 24 bits
Compression mode : Lossy
Stream size : 1.15 GiB (17%)
Default : No
Forced : No

Menu
00:00:00.000 : en:Chapter 01
00:00:40.040 : en:Chapter 02
00:05:55.555 : en:Chapter 03
00:08:43.456 : en:Chapter 04
00:14:03.843 : en:Chapter 05
00:20:51.250 : en:Chapter 06
00:52:44.161 : en:Chapter 07
00:57:19.636 : en:Chapter 08
01:16:24.813 : en:Chapter 09
01:24:48.850 : en:Chapter 10
01:33:59.200 : en:Chapter 11
01:47:33.713 : en:Chapter 12
––––––––––––––––––––––––––––––––––––––
General
Unique ID : 254820285050529668582055141210326859806 (0xBFB49A0BBCFA407EB57F820335DC801E)
Complete name : C:\LUCERNE_FESTIVAL_2010.mkv
Format : Matroska
Format version : Version 2
File size : 4.44 GiB
Duration : 1h 49mn
Overall bit rate : 5 822 Kbps
Movie name : LUCERNE_FESTIVAL_2010
Encoded date : UTC 2022-07-23 15:22:17
Writing application : DVDFab 9.1.6.8
Writing library : libebml v0.7.8 + libmatroska v0.8.1

Video
ID : 1
Format : AVC
Format/Info : Advanced Video Codec
Format profile : High@L4.1
Format settings, CABAC : Yes
Format settings, ReFrames : 2 frames
Codec ID : V_MPEG4/ISO/AVC
Duration : 1h 49mn
Nominal bit rate : 2 000 Kbps
Width : 1 280 pixels
Height : 720 pixels
Display aspect ratio : 16:9
Frame rate mode : Constant
Frame rate : 29.970 fps
Color space : YUV
Chroma subsampling : 4:2:0
Bit depth : 8 bits
Scan type : Progressive
Bits/(Pixel*Frame) : 0.072
Writing library : x264 core 142
Encoding settings : cabac=1 / ref=1 / deblock=1:-1:-1 / analyse=0x3:0 / me=hex / subme=5 / psy=0 / mixed_ref=0 / me_range=16 / chroma_me=1 / trellis=0 / 8x8dct=1 / cqm=0 / deadzone=21,11 / fast_pskip=1 / chroma_qp_offset=0 / threads=8 / lookahead_threads=2 / sliced_threads=0 / nr=0 / decimate=1 / interlaced=0 / bluray_compat=0 / constrained_intra=0 / bframes=2 / b_pyramid=0 / b_adapt=1 / b_bias=0 / direct=1 / weightb=1 / open_gop=0 / weightp=0 / keyint=24 / keyint_min=13 / scenecut=40 / intra_refresh=0 / rc=abr / mbtree=0 / bitrate=2000 / ratetol=1.0 / qcomp=0.60 / qpmin=0 / qpmax=69 / qpstep=4 / ip_ratio=1.40 / pb_ratio=1.30 / aq=1:1.00
Default : Yes
Forced : No
Color primaries : BT.709
Transfer characteristics : BT.709
Matrix coefficients : BT.709
Color range : Limited

Audio #1
ID : 2
Format : PCM
Codec ID : A_PCM/INT/LIT
Duration : 1h 49mn
Bit rate mode : Constant
Channel(s) : 2 channels
Sampling rate : 48.0 KHz
Bit depth : 24 bits
Default : Yes
Forced : No

Audio #2
ID : 3
Format : DTS
Format/Info : Digital Theater Systems
Mode : 16
Format settings, Endianness : Big
Codec ID : A_DTS
Duration : 1h 49mn
Bit rate mode : Constant
Bit rate : 1 509 Kbps
Channel(s) : 6 channels
Channel positions : Front: L C R, Side: L R, LFE
Sampling rate : 48.0 KHz
Bit depth : 24 bits
Compression mode : Lossy
Stream size : 1.15 GiB (26%)
Default : No
Forced : No

Menu
00:00:00.000 : en:Chapter 01
00:00:40.040 : en:Chapter 02
00:05:55.555 : en:Chapter 03
00:08:43.456 : en:Chapter 04
00:14:03.843 : en:Chapter 05
00:20:51.250 : en:Chapter 06
00:52:44.161 : en:Chapter 07
00:57:19.636 : en:Chapter 08
01:16:24.813 : en:Chapter 09
01:24:48.850 : en:Chapter 10
01:33:59.200 : en:Chapter 11
01:47:33.713 : en:Chapter 12

All screenshots taken from BDRip

Claudio Abbado, Simon Bolivar Youth Orchestra of Venezuela, Anna Prohaska - Lucerne Festival at Easter (2010) [Blu-Ray]