Subcategories

Cliff Richard - Greatest Hits Vol.1 (2003) {2018, Japanese Reissue}

Posted By: popsakov
Cliff Richard - Greatest Hits Vol.1 (2003) {2018, Japanese Reissue}

Cliff Richard - Greatest Hits Vol.1 (2003) {2018, Japanese Reissue}
EAC Rip | FLAC (Img) + Cue + Log ~ 541 Mb | MP3 CBR320 ~ 184 Mb
Full Scans ~ 58 Mb | 01:16:30 | RAR 5% Recovery
Early Pop Rock, Rock & Roll, British Invasion | Parlophone / Warner Music Japan #WPCR-26326

This Japanese collection features mostly early Cliff Richard hits, beginning with his first, "Move It," which was released in 1958, through his so-called comeback years in the late 1970s, including his only U.S. hit, 1976's "Devil Woman."

In the years after Elvis Presley but before the Beatles, Cliff Richard was the biggest thing in British rock & roll – and in the years after the Beatles, he was never far from the top of the U.K. charts. Arriving in 1958, just a couple of years after skiffle swept Britain, Richard was the first English singer to approximate the hip-shaking rebellion of American rock & roll with his 1958 debut single "Move It." A smash hit right out of the gate, "Move It" kicked off an astonishing five decades' worth of hits (as of 2014, his last time in the U.K. Top 10 was in 2008, when "Thank You for a Lifetime" went to number three). The earliest recordings, most made with his backing band the Shadows, were his hardest-rocking and undoubtedly his most influential, making an impression on nearly the entire first generation of British rock & rollers. Like Presley, who was certainly Richard's key influence, Cliff's popularity wound up pushing him ever so gradually to the status of an all-around entertainer. He moved into movies quickly – the first came just a year after "Move It" – and the Shadows tamed their rockabilly, but the real shift into the mainstream came after the Beatles opened the flood gates for homegrown British rock & roll, banishing Richard to the status of an older generation. Cliff continued to have hits in the '60s, even after he and the Shadows disbanded in 1968, but he split his time between pop and Christian music; in the early '70s, he focused on hosting a variety show on the BBC. Toward the end of the '70s, he made a big pop comeback with 1976's "Devil Woman," which became his first Top 10 hit in the U.S., and over the next five years, he racked up several intercontinental soft rock hits, including 1979's "We Don't Talk Anymore," 1980's "Dreamin'," and the Olivia Newton-John duet "Suddenly," taken from the 1980 soundtrack to Xanadu. This period was his first and last time at the top of the U.S. charts, but throughout the '80s, '90s, and 2000s he remained an institution in the U.K., regularly appearing in the Top Ten charts and on television, releasing 100 full-length albums in the process and, in 1995, he was made a Knight Bachelor in the British kingdom, proof of his iconic status.

~ All Music
***************

Cliff Richard - Greatest Hits Vol.1 (2003) {2018, Japanese Reissue}

Track List:

01. Move It [2:24]
02. Living Doll [2:39]
03. The Young Ones [3:12]
04. Let's Make a Memory [2:06]
05. Bachelor Boy [2:02]
06. Summer Holiday [2:17]
07. Lucky Lips [2:45]
08. It's All in the Game [3:13]
09. Constantly [2:39]
10. On the Beach [2:33]
11. I Could Easily Fall (In Love With You) [2:57]
12. Visions [3:02]
13. In the Country [2:44]
14. The Day I Met Marie [2:17]
15. Congratulations [2:33]
16. Early in the Morning [2:18]
17. Miss You Nights [3:58]
18. Devil Woman [3:36]
19. We Don't Talk Anymore [4:15]
20. Dreamin' [3:38]
21. Wired for Sound [3:40]
22. Daddy's Home [3:01]
23. Some People [3:51]
24. Mistletoe and Wine [3:55]
25. Saviour's Day [4:52]

Exact Audio Copy V1.3 from 2. September 2016

Отчёт EAC об извлечении, выполненном 10. ноября 2019, 22:55

Cliff Richard / Best of Cliff Richard [Japan Import]

Дисковод: PLEXTOR DVDR PX-755A Adapter: 1 ID: 1

Режим чтения : Достоверность
Использование точного потока : Да
Отключение кэша аудио : Да
Использование указателей C2 : Нет

Коррекция смещения при чтении : 30
Способность читать области Lead-in и Lead-out : Нет
Заполнение пропущенных сэмплов тишиной : Да
Удаление блоков с тишиной в начале и конце : Нет
При вычислениях CRC использовались нулевые сэмплы : Да
Интерфейс : Встроенный Win32-интерфейс для Win NT/2000

Выходной формат : Пользовательский кодировщик
Выбранный битрейт : 128 kBit/s
Качество : Высокий
Добавление ID3-тега : Нет
Утилита сжатия : C:\Program Files (x86)\Exact Audio Copy\Flac\flac.exe
Дополнительные параметры : -V -8 -T "Date=%year%" -T "Genre=%genre%" %source%


TOC извлечённого CD

Трек | Старт | Длительность | Начальный сектор | Конечный сектор
––––––––––––––––––––––––––––––––––-
1 | 0:00.00 | 2:24.32 | 0 | 10831
2 | 2:24.32 | 2:39.05 | 10832 | 22761
3 | 5:03.37 | 3:12.10 | 22762 | 37171
4 | 8:15.47 | 2:06.23 | 37172 | 46644
5 | 10:21.70 | 2:01.65 | 46645 | 55784
6 | 12:23.60 | 2:17.22 | 55785 | 66081
7 | 14:41.07 | 2:45.00 | 66082 | 78456
8 | 17:26.07 | 3:13.10 | 78457 | 92941
9 | 20:39.17 | 2:39.23 | 92942 | 104889
10 | 23:18.40 | 2:33.25 | 104890 | 116389
11 | 25:51.65 | 2:57.07 | 116390 | 129671
12 | 28:48.72 | 3:02.30 | 129672 | 143351
13 | 31:51.27 | 2:43.63 | 143352 | 155639
14 | 34:35.15 | 2:16.70 | 155640 | 165909
15 | 36:52.10 | 2:33.05 | 165910 | 177389
16 | 39:25.15 | 2:18.05 | 177390 | 187744
17 | 41:43.20 | 3:57.42 | 187745 | 205561
18 | 45:40.62 | 3:35.43 | 205562 | 221729
19 | 49:16.30 | 4:15.22 | 221730 | 240876
20 | 53:31.52 | 3:38.30 | 240877 | 257256
21 | 57:10.07 | 3:39.73 | 257257 | 273754
22 | 60:50.05 | 3:01.02 | 273755 | 287331
23 | 63:51.07 | 3:51.10 | 287332 | 304666
24 | 67:42.17 | 3:55.18 | 304667 | 322309
25 | 71:37.35 | 4:52.07 | 322310 | 344216


Характеристики диапазона извлечения и сообщения об ошибках

Выбранный диапазон

Имя файла D:\РАЗДАЧА\Cliff Richard - Best of Cliff Richard - 2003 [Japan]\Cliff Richard - Best of Cliff Richard [Japan Import].wav

Пиковый уровень 98.9 %
Скорость извлечения 9.0 X
Качество диапазона 99.9 %
CRC теста 3784E3BC
CRC копии 3784E3BC
Копирование… OK

Ошибок не произошло


AccurateRip: сводка

Трек 1 точность не определена (достоверность 4) [4414711D], AccurateRip вернул [38BC11DE] (AR v2)
Трек 2 точность не определена (достоверность 4) [E1E04B6A], AccurateRip вернул [15FE54D9] (AR v2)
Трек 3 точность не определена (достоверность 4) [29978CA2], AccurateRip вернул [63E9F1D9] (AR v2)
Трек 4 точность не определена (достоверность 4) [F915624D], AccurateRip вернул [BD0D2DFE] (AR v2)
Трек 5 точность не определена (достоверность 4) [F1F23FE3], AccurateRip вернул [E6963082] (AR v2)
Трек 6 точность не определена (достоверность 4) [A33D8E25], AccurateRip вернул [68D9A47B] (AR v2)
Трек 7 точность не определена (достоверность 4) [124FD55D], AccurateRip вернул [CEF9D37A] (AR v2)
Трек 8 точность не определена (достоверность 4) [4E45BAA8], AccurateRip вернул [9A0F9461] (AR v2)
Трек 9 точность не определена (достоверность 4) [A1550B00], AccurateRip вернул [F21E4672] (AR v2)
Трек 10 точность не определена (достоверность 4) [BF54F3CE], AccurateRip вернул [511B5D93] (AR v2)
Трек 11 точность не определена (достоверность 4) [BB79E62F], AccurateRip вернул [5D4C891D] (AR v2)
Трек 12 точность не определена (достоверность 4) [4EC6AFE0], AccurateRip вернул [B553E226] (AR v2)
Трек 13 точность не определена (достоверность 4) [7F1A86EC], AccurateRip вернул [742A0392] (AR v2)
Трек 14 точность не определена (достоверность 4) [6227CB59], AccurateRip вернул [59191A11] (AR v2)
Трек 15 точность не определена (достоверность 4) [BF841082], AccurateRip вернул [7BAF463F] (AR v2)
Трек 16 точность не определена (достоверность 4) [1A8FEA2B], AccurateRip вернул [03983A94] (AR v2)
Трек 17 точность не определена (достоверность 4) [4EA0FD44], AccurateRip вернул [9B50839B] (AR v2)
Трек 18 точность не определена (достоверность 4) [8D3EA6C9], AccurateRip вернул [8EEB8031] (AR v2)
Трек 19 точность не определена (достоверность 4) [8AA15E25], AccurateRip вернул [8D09BAD7] (AR v2)
Трек 20 точность не определена (достоверность 4) [66AD6AD1], AccurateRip вернул [BEBE4672] (AR v2)
Трек 21 точность не определена (достоверность 4) [40402EAF], AccurateRip вернул [B48643D6] (AR v2)
Трек 22 точность не определена (достоверность 4) [18CF078C], AccurateRip вернул [7895B847] (AR v2)
Трек 23 точность не определена (достоверность 4) [824912E6], AccurateRip вернул [B83EE8B2] (AR v2)
Трек 24 точность не определена (достоверность 4) [E80E2CCE], AccurateRip вернул [787B9D39] (AR v2)
Трек 25 точность не определена (достоверность 4) [28BA8A45], AccurateRip вернул [D1E4250B] (AR v2)

Ни один трек не прошёл проверки на точность
В вашей базе может быть иной вариант штамповки диска

Конец отчёта

–– CUETools DB Plugin V2.1.6

[CTDB TOCID: CZnqU44sNBdELZkihxr8kKb7sto-] found
Submit result: CZnqU44sNBdELZkihxr8kKb7sto- has been confirmed
Track | CTDB Status
1 | (18/18) Accurately ripped
2 | (18/18) Accurately ripped
3 | (18/18) Accurately ripped
4 | (18/18) Accurately ripped
5 | (18/18) Accurately ripped
6 | (18/18) Accurately ripped
7 | (18/18) Accurately ripped
8 | (18/18) Accurately ripped
9 | (18/18) Accurately ripped
10 | (18/18) Accurately ripped
11 | (18/18) Accurately ripped
12 | (18/18) Accurately ripped
13 | (18/18) Accurately ripped
14 | (18/18) Accurately ripped
15 | (18/18) Accurately ripped
16 | (18/18) Accurately ripped
17 | (17/18) Accurately ripped
18 | (18/18) Accurately ripped
19 | (18/18) Accurately ripped
20 | (18/18) Accurately ripped
21 | (18/18) Accurately ripped
22 | (18/18) Accurately ripped
23 | (18/18) Accurately ripped
24 | (18/18) Accurately ripped
25 | (16/18) Accurately ripped


==== Контрольная сумма отчёта D2FBCEEAB9ECEE3CB997B799354EE04881A3BE18A7FAB3E98482D93FE25FD222 ====

[CUETools log; Date: 11.11.2019 1:12:19; Version: 2.1.6]
[CTDB TOCID: CZnqU44sNBdELZkihxr8kKb7sto-] found.
Track | CTDB Status
1 | (19/19) Accurately ripped
2 | (19/19) Accurately ripped
3 | (19/19) Accurately ripped
4 | (19/19) Accurately ripped
5 | (19/19) Accurately ripped
6 | (19/19) Accurately ripped
7 | (19/19) Accurately ripped
8 | (19/19) Accurately ripped
9 | (19/19) Accurately ripped
10 | (19/19) Accurately ripped
11 | (19/19) Accurately ripped
12 | (19/19) Accurately ripped
13 | (19/19) Accurately ripped
14 | (19/19) Accurately ripped
15 | (19/19) Accurately ripped
16 | (19/19) Accurately ripped
17 | (18/19) Accurately ripped
18 | (19/19) Accurately ripped
19 | (19/19) Accurately ripped
20 | (19/19) Accurately ripped
21 | (19/19) Accurately ripped
22 | (19/19) Accurately ripped
23 | (19/19) Accurately ripped
24 | (19/19) Accurately ripped
25 | (17/19) Accurately ripped
[AccurateRip ID: 003dc9dd-046d2a9c-5311ed19] found.
Track [ CRC | V2 ] Status
01 [797e8fce|4414711d] (0+0/6) No match
02 [be9f2a82|e1e04b6a] (0+0/6) No match
03 [78cc506e|29978ca2] (0+0/6) No match
04 [7451f0ef|f915624d] (0+0/6) No match
05 [443518b9|f1f23fe3] (0+0/6) No match
06 [d900662f|a33d8e25] (0+0/6) No match
07 [80854b16|124fd55d] (0+0/6) No match
08 [20ed93f3|4e45baa8] (0+0/6) No match
09 [346eafcf|a1550b00] (0+0/6) No match
10 [65e0462b|bf54f3ce] (0+0/6) No match
11 [6988cdaf|bb79e62f] (0+0/6) No match
12 [a59da3bf|4ec6afe0] (0+0/6) No match
13 [040511e3|7f1a86ec] (0+0/6) No match
14 [a4582260|6227cb59] (0+0/6) No match
15 [b790cf12|bf841082] (0+0/6) No match
16 [c883866c|1a8fea2b] (0+0/6) No match
17 [14b71c53|4ea0fd44] (0+0/4) No match
18 [2a849f4f|8d3ea6c9] (0+0/6) No match
19 [58087a00|8aa15e25] (0+0/6) No match
20 [03e692e0|66ad6ad1] (0+0/6) No match
21 [acf73c81|40402eaf] (0+0/6) No match
22 [313d4052|18cf078c] (0+0/6) No match
23 [8ee1dbfd|824912e6] (0+0/6) No match
24 [91cfb4fe|e80e2cce] (0+0/6) No match
25 [eda55071|28ba8a45] (0+0/4) No match
Offsetted by -12:
01 [769ee80e] (0/6) No match (V2 was not tested)
02 [bb1259da] (0/6) No match (V2 was not tested)
03 [3aa4e44e] (0/6) No match (V2 was not tested)
04 [d4d83de7] (0/6) No match (V2 was not tested)
05 [81e74825] (0/6) No match (V2 was not tested)
06 [508b605f] (0/6) No match (V2 was not tested)
07 [4c7faf82] (0/6) No match (V2 was not tested)
08 [fe02f5eb] (0/6) No match (V2 was not tested)
09 [1030763b] (0/6) No match (V2 was not tested)
10 [8a63df03] (0/6) No match (V2 was not tested)
11 [cae437ef] (0/6) No match (V2 was not tested)
12 [bfd61d33] (0/6) No match (V2 was not tested)
13 [0f0c17ef] (0/6) No match (V2 was not tested)
14 [9df31358] (0/6) No match (V2 was not tested)
15 [71f0d1fa] (0/6) No match (V2 was not tested)
16 [f1ae96f8] (0/6) No match (V2 was not tested)
17 [c482a807] (0/4) No match (V2 was not tested)
18 [280457a3] (0/6) No match (V2 was not tested)
19 [4869db54] (0/6) No match (V2 was not tested)
20 [71b90614] (0/6) No match (V2 was not tested)
21 [f9299811] (0/6) No match (V2 was not tested)
22 [bb1e42da] (0/6) No match (V2 was not tested)
23 [37259dd1] (0/6) No match (V2 was not tested)
24 [43c5cdee] (0/6) No match (V2 was not tested)
25 [d9e53d65] (0/4) No match (V2 was not tested)
Offsetted by 18:
01 [fdce0b6e] (0/6) No match (V2 was not tested)
02 [c3f2637e] (0/6) No match (V2 was not tested)
03 [5607729e] (0/6) No match (V2 was not tested)
04 [63887d7b] (0/6) No match (V2 was not tested)
05 [67a9d197] (0/6) No match (V2 was not tested)
06 [a5afeee7] (0/6) No match (V2 was not tested)
07 [4e8db474] (0/6) No match (V2 was not tested)
08 [554d80ff] (0/6) No match (V2 was not tested)
09 [6acc062d] (0/6) No match (V2 was not tested)
10 [af1ae0e7] (0/6) No match (V2 was not tested)
11 [d77fae4f] (0/6) No match (V2 was not tested)
12 [fe48ed91] (0/6) No match (V2 was not tested)
13 [737a88d1] (0/6) No match (V2 was not tested)
14 [2defb8ec] (0/6) No match (V2 was not tested)
15 [a000cab6] (0/6) No match (V2 was not tested)
16 [8ac2ed9a] (0/6) No match (V2 was not tested)
17 [8d05cac5] (0/4) No match (V2 was not tested)
18 [ae450ad1] (0/6) No match (V2 was not tested)
19 [ef766802] (0/6) No match (V2 was not tested)
20 [df2ae612] (0/6) No match (V2 was not tested)
21 [3aabb329] (0/6) No match (V2 was not tested)
22 [626bbc86] (0/6) No match (V2 was not tested)
23 [927c393f] (0/6) No match (V2 was not tested)
24 [06de8f96] (0/6) No match (V2 was not tested)
25 [8b456d03] (0/4) No match (V2 was not tested)
Offsetted by 574:
01 [d848bd2e] (0/6) No match (V2 was not tested)
02 [686ed1e6] (0/6) No match (V2 was not tested)
03 [407f59be] (0/6) No match (V2 was not tested)
04 [95e48f43] (0/6) No match (V2 was not tested)
05 [9269e70b] (0/6) No match (V2 was not tested)
06 [02ddfc37] (0/6) No match (V2 was not tested)
07 [b8e6dce8] (0/6) No match (V2 was not tested)
08 [fc6ec5c7] (0/6) No match (V2 was not tested)
09 [fa0f1ca1] (0/6) No match (V2 was not tested)
10 [689ee1cf] (0/6) No match (V2 was not tested)
11 [8df41e0f] (0/6) No match (V2 was not tested)
12 [94baf23d] (0/6) No match (V2 was not tested)
13 [748a70a5] (0/6) No match (V2 was not tested)
14 [00e4c6b4] (0/6) No match (V2 was not tested)
15 [e4a0440e] (0/6) No match (V2 was not tested)
16 [174ceeee] (0/6) No match (V2 was not tested)
17 [112ed731] (0/4) No match (V2 was not tested)
18 [ccd2039d] (0/6) No match (V2 was not tested)
19 [18811fce] (0/6) No match (V2 was not tested)
20 [febeb6fe] (0/6) No match (V2 was not tested)
21 [c58e7619] (0/6) No match (V2 was not tested)
22 [18b2473e] (0/6) No match (V2 was not tested)
23 [738e248b] (0/6) No match (V2 was not tested)
24 [d1540c26] (0/6) No match (V2 was not tested)
25 [73b38a2f] (0/4) No match (V2 was not tested)
Offsetted by 1060:
01 [ccaac70e] (0/6) No match (V2 was not tested)
02 [f835d47a] (0/6) No match (V2 was not tested)
03 [95bbf4ce] (0/6) No match (V2 was not tested)
04 [d0a56207] (0/6) No match (V2 was not tested)
05 [4fb96675] (0/6) No match (V2 was not tested)
06 [9961679f] (0/6) No match (V2 was not tested)
07 [73c9f9d2] (0/6) No match (V2 was not tested)
08 [828cc60b] (0/6) No match (V2 was not tested)
09 [b5e7388b] (0/6) No match (V2 was not tested)
10 [21cd33a3] (0/6) No match (V2 was not tested)
11 [26fdceef] (0/6) No match (V2 was not tested)
12 [eecbbb63] (0/6) No match (V2 was not tested)
13 [35edfbbf] (0/6) No match (V2 was not tested)
14 [83e1a778] (0/6) No match (V2 was not tested)
15 [686fce5a] (0/6) No match (V2 was not tested)
16 [93fcd0c8] (0/6) No match (V2 was not tested)
17 [c17b3d37] (0/4) No match (V2 was not tested)
18 [b21d5a53] (0/6) No match (V2 was not tested)
19 [11193a04] (0/6) No match (V2 was not tested)
20 [1ef37d44] (0/6) No match (V2 was not tested)
21 [b796f9d1] (0/6) No match (V2 was not tested)
22 [489960ba] (0/6) No match (V2 was not tested)
23 [d4d5fa81] (0/6) No match (V2 was not tested)
24 [29e51a2e] (0/6) No match (V2 was not tested)
25 [13968d95] (0/4) No match (V2 was not tested)

Track Peak [ CRC32 ] [W/O NULL] [ LOG ]
– 98,9 [3784E3BC] [E813D1E6] CRC32
01 95,3 [E1C3AA43] [453BC7E4]
02 95,3 [E652B0DB] [0EFC38CB]
03 97,5 [600F0AAF] [691F69BB]
04 98,8 [9682987E] [6C96507E]
05 94,4 [E794009B] [AE3FD28C]
06 98,8 [5C5B98C5] [BFFDF6E8]
07 95,3 [1439F096] [9BFB1ED2]
08 98,8 [D265C4FC] [7667473D]
09 95,3 [BEE8F198] [FDB1ECEF]
10 97,7 [236C9E7A] [5F5E288D]
11 98,8 [6D0779CF] [4BC2AF72]
12 98,8 [DB97D3BA] [17F35C14]
13 98,9 [EF1FEFEE] [6C7853F2]
14 97,7 [9DE1945E] [FE08F0C6]
15 85,0 [8564773E] [18AB970B]
16 98,8 [AECD130F] [51526AAC]
17 97,8 [BCE1107E] [344396C2]
18 96,5 [01053342] [CA32A7C3]
19 95,3 [5D2E6B76] [5114A22D]
20 98,8 [219D5D56] [4ADB682A]
21 98,8 [BF565372] [1A397E5A]
22 95,3 [2DEC69A7] [C1DB3C7E]
23 95,3 [1924D279] [2C4AFE5A]
24 98,8 [BA70FC3B] [C4ED4BA0]
25 98,8 [BBA12F07] [BA5D5DC2]

Cliff Richard - Greatest Hits Vol.1 (2003) {2018, Japanese Reissue}


All thanks go to pishin

>>> Cliff Richard in my Blog <<<

DOWNLOAD: