Subcategories

Clifford Jordan - Clifford Jordan In The World (1969) [Japanese Reissue 2006] Re-Up

Posted By: Designol
Clifford Jordan - Clifford Jordan In The World (1969) [Japanese Reissue 2006] Re-Up

Clifford Jordan - Clifford Jordan In The World (1969) [Japanese Reissue 2006]
EAC | FLAC | Tracks (Cue&Log) ~ 273 Mb | Mp3 (CBR320) ~ 108 Mb | Scans included
Hard Bop, Post-Bop | Label: P-Vine Records | # PCD-23842 | Time: 00:39:54

Whether at the helm of a record date or as a sideman, Clifford Jordan was known for giving his all. These studio recordings were originally made for Strata East, a label known for its adventurous spirit. The tenor saxophonist leads two separate groups. The sextet selections include trombonist Julian Priester, pianist Wynton Kelly, bassists Wilbur Ware and Richard Davis, drummer Albert Heath, and trumpeter Don Cherry. Jordan's pensive "Vienna" is given an extended workout, with Cherry's somewhat abstract playing fitting in rather well. The second piece, Jordan's "Doug's Prelude," is also a bit brooding, showcasing the leader, Priester, and Kelly.

Review by Ken Dryden, Allmusic.com

Clifford Jordan - Clifford Jordan In The World (1969) [Japanese Reissue 2006] Re-Up



Performers:

Clifford Jordan - tenor saxophone
Julian Priester - trombone
Don Cherry (#1,2), Kenny Dorham (#3,4) - trumpet
Wynton Kelly - piano
Wilbur Ware (#1,3), Richard Davis - bass
Al Heath (#1,2), Roy Haynes (#3,4), Ed Blackwell (#3,4) - drums

Recorded at Town Sound Studios, Englewood, NJ in Spring 1969.

Tracklist:

01. Vienna (17:04)
02. Doug's Prelude (04:47)
03. Ouagoudougou (10:47)
04. 872 (07:14)


Exact Audio Copy V0.99 prebeta 4 from 23. January 2008

EAC extraction logfile from 6. August 2010, 6:31

Clifford Jordan / In The World

Used drive : _NEC DVD_RW ND-3520A Adapter: 1 ID: 0

Read mode : Secure
Utilize accurate stream : Yes
Defeat audio cache : Yes
Make use of C2 pointers : No

Read offset correction : 48
Overread into Lead-In and Lead-Out : No
Fill up missing offset samples with silence : Yes
Delete leading and trailing silent blocks : No
Null samples used in CRC calculations : Yes
Used interface : Installed external ASPI interface
Gap handling : Appended to previous track

Used output format : User Defined Encoder
Selected bitrate : 1024 kBit/s
Quality : High
Add ID3 tag : No
Command line compressor : C:\Program Files\FLAC\flac.exe
Additional command line options : -8 -V -T "ARTIST=%a" -T "TITLE=%t" -T "ALBUM=%g" -T "DATE=%y" -T "TRACKNUMBER=%n" -T "GENRE=%m" -T "COMMENT=EAC FLAC -8" %s


TOC of the extracted CD

Track | Start | Length | Start sector | End sector
––––––––––––––––––––––––––––-
1 | 0:00.00 | 17:04.46 | 0 | 76845
2 | 17:04.46 | 4:47.24 | 76846 | 98394
3 | 21:51.70 | 10:47.63 | 98395 | 146982
4 | 32:39.58 | 7:14.64 | 146983 | 179596


Track 1

Filename C:\Documents and Settings\All Users\Documents\Uploads\Ex\Clifford Jordan - Clifford Jordan In The World (1969) [FLAC] {Strata-East}\01 - Vienna.wav

Pre-gap length 0:00:02.00

Peak level 92.7 %
Track quality 100.0 %
Test CRC A2CD81CD
Copy CRC A2CD81CD
Accurately ripped (confidence 1) [477F1797]
Copy OK

Track 2

Filename C:\Documents and Settings\All Users\Documents\Uploads\Ex\Clifford Jordan - Clifford Jordan In The World (1969) [FLAC] {Strata-East}\02 - Doug's Prelude.wav

Pre-gap length 0:00:01.32

Peak level 91.0 %
Track quality 99.9 %
Test CRC D5F33168
Copy CRC D5F33168
Accurately ripped (confidence 1) [F3F68B10]
Copy OK

Track 3

Filename C:\Documents and Settings\All Users\Documents\Uploads\Ex\Clifford Jordan - Clifford Jordan In The World (1969) [FLAC] {Strata-East}\03 - Ouagoudougou.wav

Pre-gap length 0:00:01.82

Peak level 91.1 %
Track quality 99.9 %
Test CRC 9996C1BC
Copy CRC 9996C1BC
Accurately ripped (confidence 1) [62637564]
Copy OK

Track 4

Filename C:\Documents and Settings\All Users\Documents\Uploads\Ex\Clifford Jordan - Clifford Jordan In The World (1969) [FLAC] {Strata-East}\04 - 872.wav

Pre-gap length 0:00:01.22

Peak level 91.7 %
Track quality 100.0 %
Test CRC C6DAAF29
Copy CRC C6DAAF29
Accurately ripped (confidence 1) [B332B88C]
Copy OK


All tracks accurately ripped

No errors occurred

End of status report

foobar2000 1.2 / Dynamic Range Meter 1.1.1
log date: 2015-10-23 14:16:33

––––––––––––––––––––––––––––––––––––––––
Analyzed: Clifford Jordan / Clifford Jordan in the World
––––––––––––––––––––––––––––––––––––––––

DR Peak RMS Duration Track
––––––––––––––––––––––––––––––––––––––––
DR10 -0.65 dB -14.25 dB 17:05 01-Vienna
DR11 -0.81 dB -14.98 dB 4:47 02-Doug's Prelude
DR11 -0.81 dB -15.92 dB 10:48 03-Ouagoudougou
DR10 -0.74 dB -13.49 dB 7:15 04-872
––––––––––––––––––––––––––––––––––––––––

Number of tracks: 4
Official DR value: DR11

Samplerate: 44100 Hz
Channels: 2
Bits per sample: 16
Bitrate: 946 kbps
Codec: FLAC
================================================================================

Clifford Jordan - Clifford Jordan In The World (1969) [Japanese Reissue 2006] Re-Up

Clifford Jordan - Clifford Jordan In The World (1969) [Japanese Reissue 2006] Re-Up

All thanks to original releaser - jv66

More interesting music in My Blog