Subcategories
Tags
Language
Tags

Clive Stevens & Friends - Atmospheres (1974) {ESC}

Posted By: tiburon
Clive Stevens & Friends - Atmospheres (1974) {ESC}

Clive Stevens & Friends - Atmospheres (1974) {ESC}
EAC 1.1 | FLAC tracks level 8 | Cue+Log+M3U | Full Scans 300dpi | 246MB + 5% Recovery
MP3 CBR 320 Kbps | 93MB + 5% Recovery
Genre: Jazz, Fusion, Jazz-Rock
Clive Stevens & Friends - Atmospheres (1974) {ESC}

Saxman / keyboard player Clive Stevens from Bristol, England, was among the earliest to explore the nexus of jazzrock and electric jazz in his two 1974 albums. And both releases, “Atmospheres” and “Voyage to Uranus” have stood the test of time. “Atmospheres” was finished in one day with no rehearsals in New York City.

This was a super session of the highest level with bassist Rick Laird and drummer Billy Cobham’s only recording together outside John Mclaughlin’s Mahavishnu Orchestra.

The world class guitarists Steve Khan and John Abercrombiefeeding off of each others’ incredible talent, Ralph Towner on electric piano/ring modulator in awesome form and Harry Wilkinson added later on percussion.

The raw power of the session was electric, beyond belief. So don't expect to hear something mellow, this is dark, sometimes scary music for those late nights. Still compelling after all these year, something like a blast from the past.
Track List
1. Earth Spirit - 5:32
2. Nova '72 - 5:55
3. Yesterday, Today & Tomorrow - 6:35
4. Astral Dreams - 9:24
5. All Day Next Week - 6:51
6. The Parameters Of Saturn - 5:49

musicians
Tenor Saxophone [Acoustic & Electric], Soprano Saxophone, Percussion – Clive Stevens
Bass – Rick Laird
Drums – Billy Cobham
Electric Guitar – John Abercrombie
Electric Guitar [6 And 12 String] – Steve Khan
Electric Piano, Effects [Ring Modulator] – Ralph Towner
Percussion – Harry Wilkinson

Produced by Martin Stevens


Exact Audio Copy V1.1 from 23. June 2015

EAC extraction logfile from 31. January 2017, 18:30

Clive Stevens & Friends / Atmospheres

Used drive : Optiarc DVD RW AD-7940H Adapter: 1 ID: 0

Read mode : Secure
Utilize accurate stream : Yes
Defeat audio cache : Yes
Make use of C2 pointers : No

Read offset correction : 48
Overread into Lead-In and Lead-Out : No
Fill up missing offset samples with silence : Yes
Delete leading and trailing silent blocks : No
Null samples used in CRC calculations : Yes
Used interface : Native Win32 interface for Win NT & 2000
Gap handling : Appended to previous track

Used output format : User Defined Encoder
Selected bitrate : 1024 kBit/s
Quality : High
Add ID3 tag : No
Command line compressor : C:\Program Files\Exact Audio Copy\Flac\flac.exe
Additional command line options : -8 -e -V -T "ARTIST=%artist%" -T "TITLE=%title%" -T "ALBUM=%albumtitle%" -T "DATE=%year%" -T "TRACKNUMBER=%tracknr%" -T "GENRE=%genre%" -T "PERFORMER=%albuminterpret%" -T "COMPOSER=%composer%" %haslyrics%–tag-from-file=LYRICS="%lyricsfile%"%haslyrics% -T "ALBUMARTIST=%albumartist%" -T "DISCNUMBER=%cdnumber%" -T "TOTALDISCS=%totalcds%" -T "TOTALTRACKS=%numtracks%" -T "COMMENT=%comment%" %source% -o %dest%


TOC of the extracted CD

Track | Start | Length | Start sector | End sector
––––––––––––––––––––––––––––-
1 | 0:00.00 | 5:32.19 | 0 | 24918
2 | 5:32.19 | 5:54.66 | 24919 | 51534
3 | 11:27.10 | 6:35.41 | 51535 | 81200
4 | 18:02.51 | 9:23.40 | 81201 | 123465
5 | 27:26.16 | 6:51.54 | 123466 | 154344
6 | 34:17.70 | 5:48.10 | 154345 | 180454


Track 1

Filename Z:\home\enconding\FLAC\Clive Stevens & Friends - Atmospheres (1974)\01 - Earth Spirit.wav

Pre-gap length 0:00:02.00

Peak level 99.9 %
Extraction speed 1.3 X
Track quality 100.0 %
Test CRC 3638D1DB
Copy CRC 3638D1DB
Accurately ripped (confidence 1) [F5DCC81C] (AR v1)
Copy OK

Track 2

Filename Z:\home\enconding\FLAC\Clive Stevens & Friends - Atmospheres (1974)\02 - Nova '72.wav

Peak level 99.9 %
Extraction speed 1.3 X
Track quality 99.9 %
Test CRC 814B0FDF
Copy CRC 814B0FDF
Accurately ripped (confidence 1) [9B121F76] (AR v1)
Copy OK

Track 3

Filename Z:\home\enconding\FLAC\Clive Stevens & Friends - Atmospheres (1974)\03 - Yesterday, Today & Tomorrow.wav

Peak level 99.9 %
Extraction speed 1.7 X
Track quality 100.0 %
Test CRC 3E3CFED5
Copy CRC 3E3CFED5
Accurately ripped (confidence 1) [CF58958D] (AR v1)
Copy OK

Track 4

Filename Z:\home\enconding\FLAC\Clive Stevens & Friends - Atmospheres (1974)\04 - Astral Dreams.wav

Peak level 99.9 %
Extraction speed 1.9 X
Track quality 100.0 %
Test CRC 5F907F2B
Copy CRC 5F907F2B
Accurately ripped (confidence 1) [F18C54F2] (AR v1)
Copy OK

Track 5

Filename Z:\home\enconding\FLAC\Clive Stevens & Friends - Atmospheres (1974)\05 - All Day Next Week.wav

Peak level 100.0 %
Extraction speed 2.1 X
Track quality 100.0 %
Test CRC F35A1763
Copy CRC F35A1763
Accurately ripped (confidence 1) [175D7691] (AR v1)
Copy OK

Track 6

Filename Z:\home\enconding\FLAC\Clive Stevens & Friends - Atmospheres (1974)\06 - The Parameters of Saturn.wav

Peak level 99.9 %
Extraction speed 2.2 X
Track quality 100.0 %
Test CRC D4C5EF31
Copy CRC D4C5EF31
Accurately ripped (confidence 1) [37B44A37] (AR v1)
Copy OK


All tracks accurately ripped

No errors occurred

End of status report

==== Log checksum 522071689C2C2014317EEAE9739AA28387C26BE1EEACDD7129E393F6C949C1A4 ====

Clive Stevens & Friends - Atmospheres (1974) {ESC}
Clive Stevens & Friends - Atmospheres (1974) {ESC}


Thanks to the original ripper