Tags
Language
Tags

Coil - Constant Shallowness Leads To Evil (2000)

Posted By: gribovar
Coil - Constant Shallowness Leads To Evil (2000)

Coil - Constant Shallowness Leads To Evil (2000)
EAC Rip | FLAC (image+.cue+log) - 377 MB | MP3 CBR 320 kbps (LAME 3.93) - 146 MB | Covers included
Genre: Electronic, Experimental, Ambient, Noise | RAR 3% Rec. | Label: Eskaton (Eskaton 024)

A sly and nasty riposte to domestication, Constant Shallowness Leads to Evil is a bloody-minded record, at times sounding like a cattle-prod surge delivered directly to the spine. A stocktaking of the previous four decades of outsider blare - from La Monte Young, to Metal Machine Music, to even the earliest Butthole Surfers - Coil soils their pawn-shop electronics in blood and sweat, a muscular return to industrial roots. The nominal normal track, "I Am the Green Child," stumbles along like Krautrock coupled with the Exorcist soundtrack. Singer John Balance intones a pretentious and portentous text, voice almost drown in a thick gauze of processing. After this wheezing discourse crawls to a halt, several tracks follow like the lament of a dying washing machine. Finally, in a curious silence thrown into even sharper relief by what follows, Balance sings a few more lines about death and all hell breaks loose, a torrential downpour of upended machine jabber. From the opening of gallows sine waves to the final 16 minutes of revolving noise loops, Coil are implacably devoted to proving their aphorism "persistence is all."
Tracklist:
01. Higher Beings Command
02. I Am The Green Child
03. Beige
04. Lowest Common Abominator
05. Freebase Chakra
06. Tunnel Of Goats
07. Tunnel Of Goats
08. Tunnel Of Goats
09. Tunnel Of Goats
10. Tunnel Of Goats
11. Tunnel Of Goats
12. Tunnel Of Goats
13. Tunnel Of Goats
14. Tunnel Of Goats
15. Tunnel Of Goats
16. Tunnel Of Goats
17. Tunnel Of Goats
18. Tunnel Of Goats
19. Tunnel Of Goats
20. Tunnel Of Goats
21. Tunnel Of Goats
22. Tunnel Of Goats
23. Tunnel Of Goats

Total time: 01:01:44

Exact Audio Copy V0.99 prebeta 5 from 4. May 2009

EAC extraction logfile from 17. August 2009, 15:34

Coil / Constant Shallowness Leads To Evil

Used drive : _NEC DVD_RW ND-4570A Adapter: 1 ID: 0

Read mode : Secure
Utilize accurate stream : Yes
Defeat audio cache : Yes
Make use of C2 pointers : No

Read offset correction : 48
Overread into Lead-In and Lead-Out : No
Fill up missing offset samples with silence : Yes
Delete leading and trailing silent blocks : No
Null samples used in CRC calculations : Yes
Used interface : Native Win32 interface for Win NT & 2000

Used output format : User Defined Encoder
Selected bitrate : 1024 kBit/s
Quality : High
Add ID3 tag : No
Command line compressor : C:\Program Files\Exact Audio Copy\FLAC\FLAC.EXE
Additional command line options : -6 -V -T "ARTIST=%a" -T "TITLE=%t" -T "ALBUM=%g" -T "DATE=%y" -T "TRACKNUMBER=%n" -T "GENRE=%m" -T "COMMENT=%e" %s -o %d


TOC of the extracted CD

Track | Start | Length | Start sector | End sector
––––––––––––––––––––––––––––-
1 | 0:00.00 | 4:10.00 | 0 | 18749
2 | 4:10.00 | 13:45.00 | 18750 | 80624
3 | 17:55.00 | 5:57.00 | 80625 | 107399
4 | 23:52.00 | 5:00.00 | 107400 | 129899
5 | 28:52.00 | 5:14.60 | 129900 | 153509
6 | 34:06.60 | 5:00.00 | 153510 | 176009
7 | 39:06.60 | 0:29.15 | 176010 | 178199
8 | 39:36.00 | 0:21.60 | 178200 | 179834
9 | 39:57.60 | 0:23.00 | 179835 | 181559
10 | 40:20.60 | 2:00.00 | 181560 | 190559
11 | 42:20.60 | 2:00.00 | 190560 | 199559
12 | 44:20.60 | 2:00.00 | 199560 | 208559
13 | 46:20.60 | 2:00.00 | 208560 | 217559
14 | 48:20.60 | 2:00.00 | 217560 | 226559
15 | 50:20.60 | 2:00.00 | 226560 | 235559
16 | 52:20.60 | 2:00.00 | 235560 | 244559
17 | 54:20.60 | 2:00.00 | 244560 | 253559
18 | 56:20.60 | 2:00.00 | 253560 | 262559
19 | 58:20.60 | 1:00.00 | 262560 | 267059
20 | 59:20.60 | 1:00.00 | 267060 | 271559
21 | 60:20.60 | 0:15.15 | 271560 | 272699
22 | 60:36.00 | 0:51.00 | 272700 | 276524
23 | 61:27.00 | 0:16.57 | 276525 | 277781


Range status and errors

Selected range

Filename E:\раздача\Coil - Constant Shallowness Leads To Evil\Coil - Constant Shallowness Leads To Evil.wav

Peak level 100.0 %
Range quality 100.0 %
Test CRC 6516D30F
Copy CRC 6516D30F
Copy OK

No errors occurred


AccurateRip summary

Track 1 accurately ripped (confidence 6) [2866FB79]
Track 2 accurately ripped (confidence 6) [57F633FC]
Track 3 accurately ripped (confidence 6) [6271CCC6]
Track 4 accurately ripped (confidence 6) [32BFE580]
Track 5 accurately ripped (confidence 6) [DEB14181]
Track 6 accurately ripped (confidence 6) [AADE381E]
Track 7 accurately ripped (confidence 6) [77314AF1]
Track 8 accurately ripped (confidence 6) [C3570065]
Track 9 accurately ripped (confidence 6) [E714421F]
Track 10 accurately ripped (confidence 6) [AD54A65F]
Track 11 accurately ripped (confidence 6) [347A8F2A]
Track 12 accurately ripped (confidence 6) [F71CC206]
Track 13 accurately ripped (confidence 6) [F6408043]
Track 14 accurately ripped (confidence 6) [6079053B]
Track 15 accurately ripped (confidence 6) [64C001D8]
Track 16 accurately ripped (confidence 6) [B5998A3B]
Track 17 accurately ripped (confidence 6) [C50EB00E]
Track 18 accurately ripped (confidence 6) [C57A6638]
Track 19 accurately ripped (confidence 6) [14A04CBB]
Track 20 accurately ripped (confidence 6) [FEA6506B]
Track 21 accurately ripped (confidence 6) [28F73275]
Track 22 accurately ripped (confidence 6) [9D6A42FF]
Track 23 accurately ripped (confidence 6) [76006777]

All tracks accurately ripped

End of status report

[CUETools log; Date: 09.11.2021 15:46:10; Version: 2.1.4]
[CTDB TOCID: a5u2CqahQ9kRfTylha38KA5K0z4-] found.
Track | CTDB Status
1 | (35/40) Accurately ripped
2 | (36/40) Accurately ripped
3 | (38/40) Accurately ripped
4 | (40/40) Accurately ripped
5 | (38/40) Accurately ripped
6 | (38/40) Accurately ripped
7 | (40/40) Accurately ripped
8 | (40/40) Accurately ripped
9 | (40/40) Accurately ripped
10 | (40/40) Accurately ripped
11 | (39/40) Accurately ripped
12 | (39/40) Accurately ripped
13 | (39/40) Accurately ripped
14 | (39/40) Accurately ripped
15 | (39/40) Accurately ripped
16 | (39/40) Accurately ripped
17 | (38/40) Accurately ripped
18 | (38/40) Accurately ripped
19 | (40/40) Accurately ripped
20 | (40/40) Accurately ripped
21 | (40/40) Accurately ripped
22 | (40/40) Accurately ripped
23 | (40/40) Accurately ripped
[AccurateRip ID: 00465999-04258294-4a0e7717] found.
Track [ CRC | V2 ] Status
01 [2866fb79|bedb907a] (16+09/25) Accurately ripped
02 [57f633fc|dcf5f928] (14+09/23) Accurately ripped
03 [6271ccc6|8fd4c7d7] (16+09/25) Accurately ripped
04 [32bfe580|92e51cf1] (16+09/25) Accurately ripped
05 [deb14181|38555577] (15+09/24) Accurately ripped
06 [aade381e|d7823a89] (16+09/25) Accurately ripped
07 [77314af1|2173177a] (16+09/25) Accurately ripped
08 [c3570065|8cfc3b76] (16+09/25) Accurately ripped
09 [e714421f|c4e8d4e2] (16+09/25) Accurately ripped
10 [ad54a65f|70a91f95] (16+09/25) Accurately ripped
11 [347a8f2a|de4aa0a7] (16+09/25) Accurately ripped
12 [f71cc206|d5791c81] (16+09/25) Accurately ripped
13 [f6408043|886f76e7] (16+09/25) Accurately ripped
14 [6079053b|ee0e9467] (16+09/25) Accurately ripped
15 [64c001d8|de84c5ed] (16+09/25) Accurately ripped
16 [b5998a3b|8df671d0] (16+09/25) Accurately ripped
17 [c50eb00e|e11ca20b] (16+08/24) Accurately ripped
18 [c57a6638|ff81de2e] (16+08/24) Accurately ripped
19 [14a04cbb|6887aba9] (16+09/25) Accurately ripped
20 [fea6506b|cb18de8c] (16+09/25) Accurately ripped
21 [28f73275|4cd73fee] (16+09/25) Accurately ripped
22 [9d6a42ff|79dc2cf9] (16+11/27) Accurately ripped
23 [76006777|7d44acb8] (16+09/25) Accurately ripped
Offsetted by -2939:
01 [8ac07a5b] (00/25) No match
02 [3209e55b] (00/23) No match
03 [5af60fb4] (00/25) No match
04 [2340a78e] (00/25) No match
05 [3ed77c1e] (00/24) No match
06 [d637e91d] (00/25) No match
07 [6fe23468] (00/25) No match
08 [caf00f38] (00/25) No match
09 [67f8da42] (00/25) No match
10 [22d0c250] (00/25) No match
11 [72e9c5bd] (00/25) No match
12 [ef21ca21] (00/25) No match
13 [813b2f15] (00/25) No match
14 [b5a0bb68] (00/25) No match
15 [51d90304] (00/25) No match
16 [3f1b55a2] (00/25) No match
17 [f55f95f7] (00/24) No match
18 [8b583d5a] (00/24) No match
19 [a1fb2020] (00/25) No match
20 [3ff80629] (00/25) No match
21 [b79ca5d2] (00/25) No match
22 [f0a9ff61] (00/27) No match (V2 was not tested)
23 [a9ed4faa] (00/25) No match
Offsetted by -2938:
01 [f2b0c97d] (00/25) No match
02 [985eabc8] (00/23) No match
03 [6e27e7b9] (00/25) No match
04 [443d9fbe] (00/25) No match
05 [ae09d053] (00/24) No match
06 [728f8bd8] (00/25) No match
07 [04e57d05] (00/25) No match
08 [5e590ce1] (00/25) No match
09 [c59410ae] (00/25) No match
10 [cd1cffea] (00/25) No match
11 [57f6b54a] (00/25) No match
12 [d7bfae96] (00/25) No match
13 [f67db584] (00/25) No match
14 [ee83f5c9] (00/25) No match
15 [db713633] (00/25) No match
16 [1902e531] (00/25) No match
17 [a2f53e50] (00/24) No match
18 [be8ba584] (00/24) No match
19 [b9c73bdc] (00/25) No match
20 [c1ea0715] (00/25) No match
21 [f4809a71] (00/25) No match
22 [124cb278] (00/27) No match (V2 was not tested)
23 [f06bb872] (00/25) No match
Offsetted by -2937:
01 [ae0b7665] (00/25) No match
02 [d42e99ce] (00/23) No match
03 [aee21177] (00/25) No match
04 [d0a95d13] (00/25) No match
05 [1bf01f73] (00/24) No match
06 [35fd92b5] (00/25) No match
07 [935a4450] (00/25) No match
08 [766938c3] (00/25) No match
09 [7d7b28f4] (00/25) No match
10 [ea1830b8] (00/25) No match
11 [d3e46898] (00/25) No match
12 [e072367d] (00/25) No match
13 [8f102d33] (00/25) No match
14 [fa7a04b5] (00/25) No match
15 [990be7aa] (00/25) No match
16 [5cc3465e] (00/25) No match
17 [fd0e65e5] (00/24) No match
18 [8d5e51f4] (00/24) No match
19 [420128da] (00/25) No match
20 [52235842] (00/25) No match
21 [ff06fb3c] (00/25) No match
22 [1e71919e] (00/27) No match (V2 was not tested)
23 [0f67e2c8] (00/25) No match
Offsetted by -2936:
01 [cc1bcbbd] (00/25) No match
02 [a9a6af72] (00/23) No match
03 [f472f358] (00/25) No match
04 [1e12e880] (00/25) No match
05 [5e983e4a] (00/24) No match
06 [d9e12f67] (00/25) No match
07 [e76edab3] (00/25) No match
08 [9825e2ad] (00/25) No match
09 [54f4a116] (00/25) No match
10 [62d97eb5] (00/25) No match
11 [3b39e14a] (00/25) No match
12 [ea0c1373] (00/25) No match
13 [132c95b9] (00/25) No match
14 [7389a7e6] (00/25) No match
15 [0e3b58a9] (00/25) No match
16 [92129fdb] (00/25) No match
17 [d143cc27] (00/24) No match
18 [b8c5430f] (00/24) No match
19 [50152ddd] (00/25) No match
20 [b6167fd6] (00/25) No match
21 [3ef157aa] (00/25) No match
22 [0ac19c1d] (00/27) No match (V2 was not tested)
23 [28dc4f3f] (00/25) No match
Offsetted by -2935:
01 [264253d9] (00/25) No match
02 [8e3eec67] (00/23) No match
03 [c2623332] (00/25) No match
04 [b082d38c] (00/25) No match
05 [9fdc571b] (00/24) No match
06 [dc397ae2] (00/25) No match
07 [555ea239] (00/25) No match
08 [2b065807] (00/25) No match
09 [6d1ceea3] (00/25) No match
10 [27bb3895] (00/25) No match
11 [9e9d1fcf] (00/25) No match
12 [e1b48f60] (00/25) No match
13 [495cef22] (00/25) No match
14 [fc10a091] (00/25) No match
15 [7f62081e] (00/25) No match
16 [2eaec4c6] (00/25) No match
17 [622c7171] (00/24) No match
18 [4573f77f] (00/24) No match
19 [9096c6ae] (00/25) No match
20 [1bf26a43] (00/25) No match
21 [5aa985c4] (00/25) No match
22 [cf89d267] (00/27) No match (V2 was not tested)
23 [66a50719] (00/25) No match
Offsetted by -2934:
01 [9dcca088] (00/25) No match
02 [f8c97749] (00/23) No match
03 [41938065] (00/25) No match
04 [7ab149f5] (00/25) No match
05 [dfb06995] (00/24) No match
06 [da9cd89b] (00/25) No match
07 [2f9fa49b] (00/25) No match
08 [34ac179c] (00/25) No match
09 [0dbe37d0] (00/25) No match
10 [eeb25725] (00/25) No match
11 [f982cd58] (00/25) No match
12 [ec35dffd] (00/25) No match
13 [761b39a9] (00/25) No match
14 [c5256dd2] (00/25) No match
15 [0da4b786] (00/25) No match
16 [202b21c6] (00/25) No match
17 [3226d5bf] (00/24) No match
18 [f2b9afc4] (00/24) No match
19 [d6921864] (00/25) No match
20 [c2104f35] (00/25) No match
21 [f149ef14] (00/25) No match
22 [697733bf] (00/27) No match (V2 was not tested)
23 [9cb2f129] (00/25) No match
Offsetted by -2933:
01 [3d96bbe4] (00/25) No match
02 [0d4128b8] (00/23) No match
03 [55752fcf] (00/25) No match
04 [885d8b3d] (00/25) No match
05 [1de07546] (00/24) No match
06 [b49d8bc9] (00/25) No match
07 [7e3df1c0] (00/25) No match
08 [6882daeb] (00/25) No match
09 [ccbfa799] (00/25) No match
10 [74fd786f] (00/25) No match
11 [bc717f29] (00/25) No match
12 [41f60c49] (00/25) No match
13 [1f2ef520] (00/25) No match
14 [470fd1d7] (00/25) No match
15 [70a324f3] (00/25) No match
16 [0445043d] (00/25) No match
17 [836d7929] (00/24) No match
18 [42a16b41] (00/24) No match
19 [8d26dfee] (00/25) No match
20 [84bb0e5a] (00/25) No match
21 [5181212f] (00/25) No match
22 [d984c0ae] (00/27) No match (V2 was not tested)
23 [ca39d9bb] (00/25) No match
Offsetted by -2932:
01 [a217fbb3] (00/25) No match
02 [cb5600a5] (00/23) No match
03 [ec798cb6] (00/25) No match
04 [d223b8ec] (00/25) No match
05 [5a5a7a29] (00/24) No match
06 [89db8f86] (00/25) No match
07 [52179069] (00/25) No match
08 [51364da4] (00/25) No match
09 [7ac72ed4] (00/25) No match
10 [58a62292] (00/25) No match
11 [3a9c4d71] (00/25) No match
12 [7603da23] (00/25) No match
13 [865f6203] (00/25) No match
14 [cff5ca7f] (00/25) No match
15 [11fe1257] (00/25) No match
16 [312d1ecf] (00/25) No match
17 [d7b51bf4] (00/24) No match
18 [f594e9b7] (00/24) No match
19 [55ac4075] (00/25) No match
20 [b44f2a58] (00/25) No match
21 [67378829] (00/25) No match
22 [21d478e0] (00/27) No match (V2 was not tested)
23 [2a16046f] (00/25) No match
Offsetted by -2931:
01 [503963b8] (00/25) No match
02 [081fb0cc] (00/23) No match
03 [ee300ef2] (00/25) No match
04 [4d581b7c] (00/25) No match
05 [94ea77d1] (00/24) No match
06 [affc6ca3] (00/25) No match
07 [6070935e] (00/25) No match
08 [6a6af3c5] (00/25) No match
09 [fb33e3d0] (00/25) No match
10 [6b755839] (00/25) No match
11 [597e8518] (00/25) No match
12 [b9c65c2b] (00/25) No match
13 [ee240024] (00/25) No match
14 [aa745b10] (00/25) No match
15 [cc163d47] (00/25) No match
16 [2b91bae8] (00/25) No match
17 [aa45bd71] (00/24) No match
18 [4aecab43] (00/24) No match
19 [05daf8e0] (00/25) No match
20 [5030d981] (00/25) No match
21 [4188b7dd] (00/25) No match
22 [4bab58b1] (00/27) No match (V2 was not tested)
23 [65940b17] (00/25) No match
Offsetted by -2930:
01 [d8850091] (00/25) No match
02 [c6406034] (00/23) No match
03 [8e9eca30] (00/25) No match
04 [65221b0c] (00/25) No match
05 [cf5c4559] (00/24) No match
06 [80161bc6] (00/25) No match
07 [7179fe71] (00/25) No match
08 [07a5d347] (00/25) No match
09 [c8ff0c9e] (00/25) No match
10 [8104bf7c] (00/25) No match
11 [41f7b449] (00/25) No match
12 [5021116d] (00/25) No match
13 [57860f93] (00/25) No match
14 [f523806a] (00/25) No match
15 [0f54e86b] (00/25) No match
16 [9c2f0f5a] (00/25) No match
17 [736e1ef8] (00/24) No match
18 [02826fac] (00/24) No match
19 [554ccb7a] (00/25) No match
20 [c71fe696] (00/25) No match
21 [4f1e1322] (00/25) No match
22 [65d31edc] (00/27) No match (V2 was not tested)
23 [6ba0428b] (00/25) No match
Offsetted by -2929:
01 [13411f8c] (00/25) No match
02 [dc4de76b] (00/23) No match
03 [7ced974e] (00/25) No match
04 [ffc83287] (00/25) No match
05 [de620e1b] (00/24) No match
06 [20286665] (00/25) No match
07 [eb7b64d1] (00/25) No match
08 [305fcf0a] (00/25) No match
09 [c525de4d] (00/25) No match
10 [b8830c5d] (00/25) No match
11 [8a4877d1] (00/25) No match
12 [edb5bdd6] (00/25) No match
13 [813790e7] (00/25) No match
14 [fafcbf10] (00/25) No match
15 [f802ce5c] (00/25) No match
16 [8eaee1db] (00/25) No match
17 [936bbf93] (00/24) No match
18 [db2376ed] (00/24) No match
19 [0f87173d] (00/25) No match
20 [d088817d] (00/25) No match
21 [83b2d3b2] (00/25) No match
22 [7c7cc386] (00/27) No match (V2 was not tested)
23 [3ce255d9] (00/25) No match
Offsetted by -2928:
01 [861cf10f] (00/25) No match
02 [4be66d68] (00/23) No match
03 [c519145a] (00/25) No match
04 [6d50d86b] (00/25) No match
05 [ec51d122] (00/24) No match
06 [4868048c] (00/25) No match
07 [6915025d] (00/25) No match
08 [5abbeb21] (00/25) No match
09 [976542b5] (00/25) No match
10 [fccbc18f] (00/25) No match
11 [76f0508d] (00/25) No match
12 [5c5edada] (00/25) No match
13 [2bb3c3c4] (00/25) No match
14 [9737d243] (00/25) No match
15 [b8e0b3e4] (00/25) No match
16 [79522ba1] (00/25) No match
17 [a2b860af] (00/24) No match
18 [d4c040ac] (00/24) No match
19 [a3d0fde9] (00/25) No match
20 [f8eb5ad2] (00/25) No match
21 [83657327] (00/25) No match
22 [977a49b7] (00/27) No match (V2 was not tested)
23 [d0a30159] (00/25) No match
Offsetted by -2927:
01 [1c2f5ba5] (00/25) No match
02 [168119c4] (00/23) No match
03 [c0337e71] (00/25) No match
04 [049c3fe5] (00/25) No match
05 [f91a8e04] (00/24) No match
06 [ca86bd34] (00/25) No match
07 [ba5eee89] (00/25) No match
08 [0808bba3] (00/25) No match
09 [d5d5b53e] (00/25) No match
10 [63be3921] (00/25) No match
11 [cfcc4eb8] (00/25) No match
12 [213b2a13] (00/25) No match
13 [544e2881] (00/25) No match
14 [c1457f9e] (00/25) No match
15 [7641037d] (00/25) No match
16 [33347147] (00/25) No match
17 [f52180d8] (00/24) No match
18 [30df0c62] (00/24) No match
19 [afe89f55] (00/25) No match
20 [0a937dc2] (00/25) No match
21 [5d1310c7] (00/25) No match
22 [be12f055] (00/27) No match (V2 was not tested)
23 [6b118a11] (00/25) No match
Offsetted by -2926:
01 [87df1419] (00/25) No match
02 [ed47ed53] (00/23) No match
03 [8d06fe0d] (00/25) No match
04 [055d6f4f] (00/25) No match
05 [049f441e] (00/24) No match
06 [33408b85] (00/25) No match
07 [adfa0d44] (00/25) No match
08 [f7f5879c] (00/25) No match
09 [9642b39f] (00/25) No match
10 [51d20042] (00/25) No match
11 [22377bd3] (00/25) No match
12 [ce75f0de] (00/25) No match
13 [f871bf2c] (00/25) No match
14 [80404145] (00/25) No match
15 [84fe73e8] (00/25) No match
16 [11236e60] (00/25) No match
17 [0f312222] (00/24) No match
18 [2c669ad3] (00/24) No match
19 [f5f3fc80] (00/25) No match
20 [32d1bef5] (00/25) No match
21 [a13eeefb] (00/25) No match
22 [fa7ec8f3] (00/27) No match (V2 was not tested)
23 [aeb3ac77] (00/25) No match
Offsetted by -2925:
01 [8e821b8a] (00/25) No match
02 [7fe6c149] (00/23) No match
03 [fefef684] (00/25) No match
04 [e89bee14] (00/25) No match
05 [0ed2f324] (00/24) No match
06 [4733d30e] (00/25) No match
07 [537b5201] (00/25) No match
08 [39513614] (00/25) No match
09 [484b3e33] (00/25) No match
10 [da89d2c8] (00/25) No match
11 [0ecc7bd4] (00/25) No match
12 [ede53d62] (00/25) No match
13 [11b7c886] (00/25) No match
14 [affa1dea] (00/25) No match
15 [da85dd13] (00/25) No match
16 [3d97665f] (00/25) No match
17 [c1230236] (00/24) No match
18 [471c2b7a] (00/24) No match
19 [9f03156a] (00/25) No match
20 [31bfe686] (00/25) No match
21 [543b1bb5] (00/25) No match
22 [5625ce40] (00/27) No match (V2 was not tested)
23 [acbcf14f] (00/25) No match
Offsetted by -2924:
01 [d6687d8c] (00/25) No match
02 [57976e46] (00/23) No match
03 [c20a40da] (00/25) No match
04 [deaf322c] (00/25) No match
05 [178c9ab6] (00/24) No match
06 [2a7d55d2] (00/25) No match
07 [eccdb475] (00/25) No match
08 [840baf44] (00/25) No match
09 [0137dd44] (00/25) No match
10 [63bd75ba] (00/25) No match
11 [cdccf518] (00/25) No match
12 [8717dba8] (00/25) No match
13 [1b94048d] (00/25) No match
14 [ca2c4c8e] (00/25) No match
15 [d213c85d] (00/25) No match
16 [3ded626b] (00/25) No match
17 [c712644f] (00/24) No match
18 [3e28fe64] (00/24) No match
19 [b232aaee] (00/25) No match
20 [2704cbf6] (00/25) No match
21 [a447a474] (00/25) No match
22 [d45302b0] (00/27) No match (V2 was not tested)
23 [6d201d0f] (00/25) No match
Offsetted by -2923:
01 [315ae634] (00/25) No match
02 [b34d1aca] (00/23) No match
03 [9300cac7] (00/25) No match
04 [ce1684c6] (00/25) No match
05 [1f9e0fd0] (00/24) No match
06 [d7df4d21] (00/25) No match
07 [7989bcf2] (00/25) No match
08 [bd408e6f] (00/25) No match
09 [96c5c505] (00/25) No match
10 [872c3d33] (00/25) No match
11 [ab5c522c] (00/25) No match
12 [2031d2cf] (00/25) No match
13 [0ed3735b] (00/25) No match
14 [d76396a8] (00/25) No match
15 [63a0675c] (00/25) No match
16 [4a0dc38b] (00/25) No match
17 [ee1c4535] (00/24) No match
18 [d07e12e6] (00/24) No match
19 [b508bd0c] (00/25) No match
20 [7c81f4cb] (00/25) No match
21 [fbacfb25] (00/25) No match
22 [71e863ce] (00/27) No match (V2 was not tested)
23 [4df7b87e] (00/25) No match
More than 16 offsets match!

Track Peak [ CRC32 ] [W/O NULL] [ LOG ]
– 100,0 [6516D30F] [A6D61B3E] CRC32
01 100,0 [43E0CD9A] [51E4C318]
02 96,1 [FE51F61F] [7AFE3D41]
03 84,9 [4155354E] [667BFA9E]
04 88,3 [13B9C1EB] [6B5052D3]
05 95,7 [06193D2C] [EDF485E9]
06 91,1 [E22AB62B] [17E5AD01]
07 63,6 [992C1DF3] [FEBFEA4E]
08 88,5 [A82496F0] [F87BA39D]
09 69,3 [7B5D6990] [55CFB659]
10 82,9 [C79BB573] [D159BC70]
11 100,0 [6158D900] [DDA33341]
12 100,0 [265482B0] [CE3A4FE1]
13 61,2 [D1D9C5D2] [CD318267]
14 59,5 [D4D9863C] [0DE515D4]
15 57,5 [4DB2C7A0] [3C79C691]
16 60,7 [5CFE934F] [DF4EBABD]
17 60,7 [524D00AB] [5008BC37]
18 58,5 [CD2F3616] [AAF8DDFE]
19 63,8 [8920D46B] [B4D54385]
20 68,0 [E7BE3C9E] [7579BF5F]
21 58,5 [BB4E816C] [67C964F7]
22 47,6 [FB41A760] [FB41A760]
23 54,4 [43B306B5] [77CF85AD]

Thanks to unbalance

See also: