Subcategories

Christophe Coin, Christopher Hogwood - Antonio Vivaldi: 6 Cello Sonatas (1989)

Posted By: Designol
Christophe Coin, Christopher Hogwood - Antonio Vivaldi: 6 Cello Sonatas (1989)

Antonio Vivaldi: 6 Cello Sonatas (1989)
Christophe Coin, cello; Christopher Hogwood, harpsichord

EAC | FLAC | Tracks (Cue&Log) ~ 305 Mb | Mp3 (CBR320) ~ 165 Mb | Scans ~ 48 Mb
Classical, Baroque | Label: Decca, L'Oiseau-Lyre | # 421 060-2 | 01:11:50

Nine cello sonatas by Vivaldi have survived. Six of them were published as a set in Paris in about 1740; that set, mistakenly known as the composer's Op. 14, contains the sonatas recorded in this release. The three remaining sonatas come from manuscript collections. All but one of the six works are cast in the slow-fast-slow-fast pattern of movements of the sonata da chiesa. The odd one out, RV46, in fact, retains the four movement sequence but inclines towards the sonata da camera in the use of dance titles.

The music of these sonatas is almost consistently interesting, often reaching high points of expressive eloquence, as we find, for example, in the justifiably popular Sonata in E minor, RV40. It is in slow movements, perhaps, that Vivaldi's understanding of the instrument's cantabile possibilities is most readily apparent; faster movements, on the other hand, are tautly and idiomatically constructed. Everywhere Vivaldi reveals a pleasing feel for gesture and, indeed it would seem at times, caricature. Some of the gestures are bold as, for instance, those which introduce the opening movement of the A minor, RV43, whereas others are more flamboyant. In short, there is a considerable variation in mood ranging from athletic high spirits to profound elegy.

Christophe Coin brings to life these details in the music with technical assurance and a spirit evidently responsive to its poetic content. Particularly affecting instances of this occur in the third movements of the A minor and the E minor Sonatas where Coin shapes each phrase, lovingly achieving at the same time a beautifully sustained cantabile. In the E minor, furthermore, the guitar accompaniment adds gilt to the gingerbread. Fast movements are played with disciplined panache and with lightly articulated bowing. Intonation is very sure for the most part yet occasionally even an artist of this calibre has difficulty in finding the centre of his notes. This was a weak area in the otherwise fine CRD account of the same sonatas given by Susan Sheppard and L'Ecole d'Orphee. Whilst Coin has the edge over Sheppard in technical matters I would not hesitate to place her interpretations on a comparable level. Coin can be more demonstrative and he is freer in his approach to ornaments, but both artists have highly developed feelings for the poignant content of the music. There is a greater variety of continuo colour in the new issue, for whereas Susan Sheppard is accompanied by cello and harpsichord, Coin has a baroque guitar, archlute, cello and harpsichord variously at his disposal; CRD, however, offer all nine sonatas on two discs (available separately).

To sum up, this is a difficult choice. I shall require both versions since not only does the music itself amply justify several interpretations but also both these performances are fine ones.

Review by Nicholas Anderson, Gramophone [4/1989]

Christophe Coin, Christopher Hogwood - Antonio Vivaldi: 6 Cello Sonatas (1989)



Christophe Coin, Christopher Hogwood - Antonio Vivaldi: 6 Cello Sonatas (1989)



Christophe Coin, Christopher Hogwood - Antonio Vivaldi: 6 Cello Sonatas (1989)



Christophe Coin, Christopher Hogwood - Antonio Vivaldi: 6 Cello Sonatas (1989)


Christophe Coin, cello
Christopher Hogwood, harpsichord
Ageet Zweistra, cello
Tom Finucane, archlute
Eugène Ferré, baroque guitar

Recording location: Studio I, Abbey Road, London, February 1987.

Tracklist:

Sonata No. 1 in B flat major, RV47
01. I. Largo (4:06)
02. II. Allegro (2:03)
03. III. Largo (3:31)
04. IV. Allegro (2:02)

Sonata No. 2 in F major, RV41
05. I. Largo (3:15)
06. II. Allegro (2:39)
07. III. Largo (3:19)
08. IV. Allegro (2:19)

Sonata No. 3 in A minor, RV43
09. I. Largo (2:56)
10. II. Allegro (2:22)
11. III. Largo (3:21)
12. IV. Allegro (2:56)

Sonata No. 4 in B flat major, RV45
13. I. Largo (3:45)
14. II. Allegro (2:46)
15. III. Largo (4:29)
16. IV. Allegro (2:42)

Sonata No. 5 in E minor, RV40
17. I. Largo (3:54)
18. II. Allegro (3:03)
19. III. Largo (3:21)
20. IV. Allegro (2:01)

Sonata No. 6 in B flat major, RV46
21. I. Preludio:largo (2:51)
22. II. Allemande:allegro (2:42)
23. III. Largo (2:40)
24. IV. Corrente:allegro (2:47)


Exact Audio Copy V0.99 prebeta 4 from 23. January 2008

EAC extraction logfile from 14. April 2010, 16:57

Antonio Vivaldi / 6 Cello Sonatas - Christophe Coin, Christopher Hogwood

Used drive : PIONEER DVD-RW DVR-112D Adapter: 0 ID: 0

Read mode : Secure
Utilize accurate stream : Yes
Defeat audio cache : Yes
Make use of C2 pointers : No

Read offset correction : 48
Overread into Lead-In and Lead-Out : No
Fill up missing offset samples with silence : Yes
Delete leading and trailing silent blocks : No
Null samples used in CRC calculations : Yes
Used interface : Native Win32 interface for Win NT & 2000
Gap handling : Appended to previous track

Used output format : User Defined Encoder
Selected bitrate : 768 kBit/s
Quality : High
Add ID3 tag : No
Command line compressor : C:\Program Files\Exact Audio Copy\FLAC\FLAC.EXE
Additional command line options : -6 -V -T "ARTIST=%a" -T "TITLE=%t" -T "ALBUM=%g" -T "DATE=%y" -T "TRACKNUMBER=%n" -T "GENRE=%m" -T "COMMENT=%e" %s -o %d


TOC of the extracted CD

Track | Start | Length | Start sector | End sector
––––––––––––––––––––––––––––-
1 | 0:00.33 | 4:05.50 | 33 | 18457
2 | 4:06.08 | 2:03.25 | 18458 | 27707
3 | 6:09.33 | 3:31.12 | 27708 | 43544
4 | 9:40.45 | 2:02.00 | 43545 | 52694
5 | 11:42.45 | 3:14.63 | 52695 | 67307
6 | 14:57.33 | 2:39.00 | 67308 | 79232
7 | 17:36.33 | 3:19.37 | 79233 | 94194
8 | 20:55.70 | 2:19.25 | 94195 | 104644
9 | 23:15.20 | 2:55.50 | 104645 | 117819
10 | 26:10.70 | 2:21.58 | 117820 | 128452
11 | 28:32.53 | 3:21.17 | 128453 | 143544
12 | 31:53.70 | 2:56.13 | 143545 | 156757
13 | 34:50.08 | 3:45.22 | 156758 | 173654
14 | 38:35.30 | 2:45.53 | 173655 | 186082
15 | 41:21.08 | 4:29.07 | 186083 | 206264
16 | 45:50.15 | 2:41.68 | 206265 | 218407
17 | 48:32.08 | 3:54.00 | 218408 | 235957
18 | 52:26.08 | 3:03.12 | 235958 | 249694
19 | 55:29.20 | 3:20.68 | 249695 | 264762
20 | 58:50.13 | 2:01.20 | 264763 | 273857
21 | 60:51.33 | 2:51.37 | 273858 | 286719
22 | 63:42.70 | 2:41.38 | 286720 | 298832
23 | 66:24.33 | 2:39.50 | 298833 | 310807
24 | 69:04.08 | 2:46.62 | 310808 | 323319


Track 1

Filename E:\MUSIC\Vivaldi - Six Cello Sonatas Op. 14 - Coin, Hogwood\01 - Sonata No. 1 in B flat major, RV47 - I. Largo - Antonio Vivaldi.wav

Pre-gap length 0:00:02.33

Peak level 39.4 %
Track quality 100.0 %
Copy CRC 0790C25C
Cannot be verified as accurate (confidence 14) [D0077C35], AccurateRip returned [141B07CB]
Copy OK

Track 2

Filename E:\MUSIC\Vivaldi - Six Cello Sonatas Op. 14 - Coin, Hogwood\02 - Sonata No. 1 in B flat major, RV47 - II. Allegro - Antonio Vivaldi.wav

Peak level 36.9 %
Track quality 100.0 %
Copy CRC 9160B811
Cannot be verified as accurate (confidence 15) [2D02633E], AccurateRip returned [28E36257]
Copy OK

Track 3

Filename E:\MUSIC\Vivaldi - Six Cello Sonatas Op. 14 - Coin, Hogwood\03 - Sonata No. 1 in B flat major, RV47 - III. Largo - Antonio Vivaldi.wav

Peak level 44.6 %
Track quality 99.9 %
Copy CRC 85E869C4
Cannot be verified as accurate (confidence 15) [C8F055CC], AccurateRip returned [D37BF180]
Copy OK

Track 4

Filename E:\MUSIC\Vivaldi - Six Cello Sonatas Op. 14 - Coin, Hogwood\04 - Sonata No. 1 in B flat major, RV47 - IV. Allegro - Antonio Vivaldi.wav

Peak level 40.5 %
Track quality 100.0 %
Copy CRC F34B4E5B
Cannot be verified as accurate (confidence 14) [C9C56671], AccurateRip returned [0524534B]
Copy OK

Track 5

Filename E:\MUSIC\Vivaldi - Six Cello Sonatas Op. 14 - Coin, Hogwood\05 - Sonata No. 2 in F major, RV41 - I. Largo - Antonio Vivaldi.wav

Pre-gap length 0:00:04.00

Peak level 52.1 %
Track quality 99.9 %
Copy CRC 01572A0B
Cannot be verified as accurate (confidence 15) [461E0779], AccurateRip returned [2304007C]
Copy OK

Track 6

Filename E:\MUSIC\Vivaldi - Six Cello Sonatas Op. 14 - Coin, Hogwood\06 - Sonata No. 2 in F major, RV41 - II. Allegro - Antonio Vivaldi.wav

Peak level 50.1 %
Track quality 100.0 %
Copy CRC 619E111A
Cannot be verified as accurate (confidence 15) [5A3EE555], AccurateRip returned [8D019C54]
Copy OK

Track 7

Filename E:\MUSIC\Vivaldi - Six Cello Sonatas Op. 14 - Coin, Hogwood\07 - Sonata No. 2 in F major, RV41 - III. Largo - Antonio Vivaldi.wav

Peak level 24.4 %
Track quality 99.7 %
Copy CRC D701B074
Cannot be verified as accurate (confidence 15) [FE27C22F], AccurateRip returned [FA5CC9C8]
Copy OK

Track 8

Filename E:\MUSIC\Vivaldi - Six Cello Sonatas Op. 14 - Coin, Hogwood\08 - Sonata No. 2 in F major, RV41 - IV. Allegro - Antonio Vivaldi.wav

Peak level 44.6 %
Track quality 100.0 %
Copy CRC 5B2DF568
Cannot be verified as accurate (confidence 15) [88495A3A], AccurateRip returned [E8BA5DCB]
Copy OK

Track 9

Filename E:\MUSIC\Vivaldi - Six Cello Sonatas Op. 14 - Coin, Hogwood\09 - Sonata No. 3 in A minor, RV43 - I. Largo - Antonio Vivaldi.wav

Pre-gap length 0:00:03.50

Peak level 34.1 %
Track quality 99.9 %
Copy CRC A6ABB46A
Cannot be verified as accurate (confidence 15) [3B51CE69], AccurateRip returned [640EEC01]
Copy OK

Track 10

Filename E:\MUSIC\Vivaldi - Six Cello Sonatas Op. 14 - Coin, Hogwood\10 - Sonata No. 3 in A minor, RV43 - II. Allegro - Antonio Vivaldi.wav

Peak level 37.5 %
Track quality 99.9 %
Copy CRC 3E611284
Cannot be verified as accurate (confidence 15) [59247412], AccurateRip returned [15FFEC9E]
Copy OK

Track 11

Filename E:\MUSIC\Vivaldi - Six Cello Sonatas Op. 14 - Coin, Hogwood\11 - Sonata No. 3 in A minor, RV43 - III. Largo - Antonio Vivaldi.wav

Peak level 24.3 %
Track quality 99.9 %
Copy CRC CCED1415
Cannot be verified as accurate (confidence 15) [9644E65E], AccurateRip returned [EA416F8E]
Copy OK

Track 12

Filename E:\MUSIC\Vivaldi - Six Cello Sonatas Op. 14 - Coin, Hogwood\12 - Sonata No. 3 in A minor, RV43 - IV. Allegro - Antonio Vivaldi.wav

Peak level 46.5 %
Track quality 99.9 %
Copy CRC FAACEA49
Cannot be verified as accurate (confidence 15) [4DDD756F], AccurateRip returned [B2288D17]
Copy OK

Track 13

Filename E:\MUSIC\Vivaldi - Six Cello Sonatas Op. 14 - Coin, Hogwood\13 - Sonata No. 4 in B flat major, RV45 - I. Largo - Antonio Vivaldi.wav

Pre-gap length 0:00:04.13

Peak level 37.5 %
Track quality 100.0 %
Copy CRC E2AE951D
Cannot be verified as accurate (confidence 15) [56334500], AccurateRip returned [D8F3A083]
Copy OK

Track 14

Filename E:\MUSIC\Vivaldi - Six Cello Sonatas Op. 14 - Coin, Hogwood\14 - Sonata No. 4 in B flat major, RV45 - II. Allegro - Antonio Vivaldi.wav

Peak level 43.9 %
Track quality 99.9 %
Copy CRC 0C1DF02B
Cannot be verified as accurate (confidence 15) [DFD9AC07], AccurateRip returned [D006992B]
Copy OK

Track 15

Filename E:\MUSIC\Vivaldi - Six Cello Sonatas Op. 14 - Coin, Hogwood\15 - Sonata No. 4 in B flat major, RV45 - III. Largo - Antonio Vivaldi.wav

Peak level 35.0 %
Track quality 100.0 %
Copy CRC F4B4A3B2
Cannot be verified as accurate (confidence 15) [1C794F62], AccurateRip returned [C90F33F4]
Copy OK

Track 16

Filename E:\MUSIC\Vivaldi - Six Cello Sonatas Op. 14 - Coin, Hogwood\16 - Sonata No. 4 in B flat major, RV45 - IV. Allegro - Antonio Vivaldi.wav

Peak level 46.0 %
Track quality 100.0 %
Copy CRC 202DE8F6
Cannot be verified as accurate (confidence 14) [70558027], AccurateRip returned [C3AF84B1]
Copy OK

Track 17

Filename E:\MUSIC\Vivaldi - Six Cello Sonatas Op. 14 - Coin, Hogwood\17 - Sonata No. 5 in E minor, RV40 - I. Largo - Antonio Vivaldi.wav

Pre-gap length 0:00:03.25

Peak level 33.0 %
Track quality 100.0 %
Copy CRC A8B6D977
Cannot be verified as accurate (confidence 14) [391CE3A5], AccurateRip returned [133E438E]
Copy OK

Track 18

Filename E:\MUSIC\Vivaldi - Six Cello Sonatas Op. 14 - Coin, Hogwood\18 - Sonata No. 5 in E minor, RV40 - II. Allegro - Antonio Vivaldi.wav

Peak level 33.9 %
Track quality 100.0 %
Copy CRC D509CA85
Cannot be verified as accurate (confidence 14) [D84D7D2F], AccurateRip returned [AA3202D2]
Copy OK

Track 19

Filename E:\MUSIC\Vivaldi - Six Cello Sonatas Op. 14 - Coin, Hogwood\19 - Sonata No. 5 in E minor, RV40 - III. Largo - Antonio Vivaldi.wav

Peak level 24.3 %
Track quality 99.9 %
Copy CRC 1305DEE0
Cannot be verified as accurate (confidence 13) [D7669032], AccurateRip returned [37FAF77D]
Copy OK

Track 20

Filename E:\MUSIC\Vivaldi - Six Cello Sonatas Op. 14 - Coin, Hogwood\20 - Sonata No. 5 in E minor, RV40 - IV. Allegro - Antonio Vivaldi.wav

Peak level 27.8 %
Track quality 100.0 %
Copy CRC 664C8514
Cannot be verified as accurate (confidence 13) [9626C53D], AccurateRip returned [AEB289AB]
Copy OK

Track 21

Filename E:\MUSIC\Vivaldi - Six Cello Sonatas Op. 14 - Coin, Hogwood\21 - Sonata No. 6 in B flat major, RV46 - I. Preludio-largo - Antonio Vivaldi.wav

Pre-gap length 0:00:04.25

Peak level 33.7 %
Track quality 100.0 %
Copy CRC 47529C1D
Cannot be verified as accurate (confidence 14) [F7A791BB], AccurateRip returned [156548FC]
Copy OK

Track 22

Filename E:\MUSIC\Vivaldi - Six Cello Sonatas Op. 14 - Coin, Hogwood\22 - Sonata No. 6 in B flat major, RV46 - II. Allemande-allegro - Antonio Vivaldi.wav

Peak level 41.3 %
Track quality 100.0 %
Copy CRC A73B9242
Cannot be verified as accurate (confidence 14) [72F711F4], AccurateRip returned [23492857]
Copy OK

Track 23

Filename E:\MUSIC\Vivaldi - Six Cello Sonatas Op. 14 - Coin, Hogwood\23 - Sonata No. 6 in B flat major, RV46 - III. Largo - Antonio Vivaldi.wav

Peak level 43.6 %
Track quality 100.0 %
Copy CRC 46BF4AE5
Cannot be verified as accurate (confidence 13) [E3B154A1], AccurateRip returned [2E4AE0D1]
Copy OK

Track 24

Filename E:\MUSIC\Vivaldi - Six Cello Sonatas Op. 14 - Coin, Hogwood\24 - Sonata No. 6 in B flat major, RV46 - IV. Corrente-allegro - Antonio Vivaldi.wav

Peak level 94.0 %
Track quality 100.0 %
Copy CRC 57FCE4CE
Cannot be verified as accurate (confidence 13) [CE46794C], AccurateRip returned [8201F56B]
Copy OK


No tracks could be verified as accurate
You may have a different pressing from the one(s) in the database

No errors occurred

End of status report

[CUETools log; Date: 09.09.2017 17:31:15; Version: 2.1.4]
Pregap length 00:00:33.
[CTDB TOCID: fgE7hUV8C2OkAdo7NsZkCKWflh0-] found.
Track | CTDB Status
1 | (42/46) Accurately ripped
2 | (41/46) Accurately ripped
3 | (41/46) Accurately ripped
4 | (41/46) Accurately ripped
5 | (41/46) Accurately ripped
6 | (41/46) Accurately ripped
7 | (41/46) Accurately ripped
8 | (41/46) Accurately ripped
9 | (41/46) Accurately ripped
10 | (41/46) Accurately ripped
11 | (41/46) Accurately ripped
12 | (41/46) Accurately ripped
13 | (40/46) Accurately ripped
14 | (41/46) Accurately ripped
15 | (41/46) Accurately ripped
16 | (41/46) Accurately ripped
17 | (41/46) Accurately ripped
18 | (41/46) Accurately ripped
19 | (40/46) Accurately ripped
20 | (41/46) Accurately ripped
21 | (41/46) Accurately ripped
22 | (40/46) Accurately ripped
23 | (40/46) Accurately ripped
24 | ( 1/46) Accurately ripped, or (36/46) differs in 6317 samples @02:09:28-02:09:30,02:34:63-02:34:66
[AccurateRip ID: 003dfe2a-0434a872-6a10d618] found.
Track [ CRC | V2 ] Status
01 [d0077c35|9328a124] (02+03/70) Accurately ripped
02 [2d02633e|fe3a3e0c] (02+03/71) Accurately ripped
03 [c8f055cc|90d7e593] (02+03/71) Accurately ripped
04 [c9c56671|3af83588] (02+03/70) Accurately ripped
05 [461e0779|35f6d2b2] (02+03/70) Accurately ripped
06 [5a3ee555|e44f216f] (02+03/69) Accurately ripped
07 [fe27c22f|89306882] (02+03/69) Accurately ripped
08 [88495a3a|c3b05145] (02+03/70) Accurately ripped
09 [3b51ce69|c3aeaede] (02+03/70) Accurately ripped
10 [59247412|8309c22e] (02+03/70) Accurately ripped
11 [9644e65e|f418ad47] (02+03/70) Accurately ripped
12 [4ddd756f|5b037e78] (02+03/70) Accurately ripped
13 [56334500|506dc818] (02+03/70) Accurately ripped
14 [dfd9ac07|ba22fd40] (02+03/69) Accurately ripped
15 [1c794f62|d6f69091] (02+03/66) Accurately ripped
16 [70558027|09d2bf6b] (02+03/67) Accurately ripped
17 [391ce3a5|f66f01d9] (00+03/64) Accurately ripped
18 [d84d7d2f|fe6c5c9a] (02+03/68) Accurately ripped
19 [d7669032|24ee658b] (02+03/66) Accurately ripped
20 [9626c53d|1cc7922d] (02+03/66) Accurately ripped
21 [f7a791bb|b0fe4cef] (02+03/65) Accurately ripped
22 [72f711f4|9c9f46ef] (02+03/65) Accurately ripped
23 [e3b154a1|17a624c1] (02+03/64) Accurately ripped
24 [ce46794c|5a466596] (02+03/66) Accurately ripped
Offsetted by 324:
01 [8af0fc18] (02/70) Accurately ripped
02 [107e77d7] (02/71) Accurately ripped
03 [e994a5f3] (02/71) Accurately ripped
04 [587df2fe] (02/70) Accurately ripped
05 [4e692448] (02/70) Accurately ripped
06 [5a94fc03] (00/69) No match (V2 was not tested)
07 [0f393ff9] (00/69) No match (V2 was not tested)
08 [23487bc7] (02/70) Accurately ripped
09 [69577bac] (02/70) Accurately ripped
10 [4b3fcf81] (02/70) Accurately ripped
11 [5a31163b] (02/70) Accurately ripped
12 [743bc1b0] (02/70) Accurately ripped
13 [6d5f2bdf] (02/70) Accurately ripped
14 [9adbddda] (02/69) Accurately ripped
15 [cec3b037] (00/66) No match (V2 was not tested)
16 [49df22bb] (00/67) No match (V2 was not tested)
17 [19d38a7c] (00/64) No match (V2 was not tested)
18 [b1074fde] (02/68) Accurately ripped
19 [8c6603c0] (02/66) Accurately ripped
20 [b82298ef] (02/66) Accurately ripped
21 [ef109d33] (00/65) No match (V2 was not tested)
22 [2b340158] (00/65) No match (V2 was not tested)
23 [294c01e1] (00/64) No match (V2 was not tested)
24 [18fb82ec] (00/66) No match (V2 was not tested)
Offsetted by 681:
01 [141b07cb] (22/70) Accurately ripped
02 [28e36257] (23/71) Accurately ripped
03 [d37bf180] (23/71) Accurately ripped
04 [0524534b] (22/70) Accurately ripped
05 [2304007c] (22/70) Accurately ripped
06 [8d019c54] (23/69) Accurately ripped
07 [fa5cc9c8] (23/69) Accurately ripped
08 [e8ba5dcb] (23/70) Accurately ripped
09 [640eec01] (23/70) Accurately ripped
10 [15ffec9e] (23/70) Accurately ripped
11 [ea416f8e] (23/70) Accurately ripped
12 [b2288d17] (23/70) Accurately ripped
13 [d8f3a083] (23/70) Accurately ripped
14 [d006992b] (22/69) Accurately ripped
15 [c90f33f4] (22/66) Accurately ripped
16 [c3af84b1] (22/67) Accurately ripped
17 [133e438e] (22/64) Accurately ripped
18 [aa3202d2] (22/68) Accurately ripped
19 [37faf77d] (20/66) Accurately ripped
20 [aeb289ab] (21/66) Accurately ripped
21 [156548fc] (21/65) Accurately ripped
22 [23492857] (22/65) Accurately ripped
23 [2e4ae0d1] (21/64) Accurately ripped
24 [168b9715] (00/66) No match (V2 was not tested)

Track Peak [ CRC32 ] [W/O NULL] [ LOG ]
– 94,0 [F795E3D5] [93DB2FF7]
01 39,4 [0790C25C] [F9DFAFB3] CRC32
02 36,9 [9160B811] [764287C4] CRC32
03 44,6 [85E869C4] [995F968F] CRC32
04 40,5 [F34B4E5B] [53D56DAF] CRC32
05 52,1 [01572A0B] [7CE6AE6D] CRC32
06 50,1 [619E111A] [0DA13375] CRC32
07 24,4 [D701B074] [AB57E0B0] CRC32
08 44,6 [5B2DF568] [EC7DAEAE] CRC32
09 34,1 [A6ABB46A] [861A33A6] CRC32
10 37,5 [3E611284] [C1026DA5] CRC32
11 24,3 [CCED1415] [F1486429] CRC32
12 46,5 [FAACEA49] [89177058] CRC32
13 37,5 [E2AE951D] [7F982694] CRC32
14 43,9 [0C1DF02B] [B3408824] CRC32
15 35,0 [F4B4A3B2] [D66C0B6E] CRC32
16 46,0 [202DE8F6] [FCE58C03] CRC32
17 33,0 [A8B6D977] [0DD19E43] CRC32
18 33,9 [D509CA85] [758CCEE9] CRC32
19 24,3 [1305DEE0] [D54C4D9E] CRC32
20 27,8 [664C8514] [A350D708] CRC32
21 33,7 [47529C1D] [E5A4131D] CRC32
22 41,3 [A73B9242] [4AC2B352] CRC32
23 43,6 [46BF4AE5] [C3B0E596] CRC32
24 94,0 [57FCE4CE] [A82F99D4] CRC32

foobar2000 1.2 / Dynamic Range Meter 1.1.1
log date: 2017-09-09 16:25:16

––––––––––––––––––––––––––––––––––––––––
Analyzed: Antonio Vivaldi / 6 Cello Sonatas - Christophe Coin, Christopher Hogwood
––––––––––––––––––––––––––––––––––––––––

DR Peak RMS Duration Track
––––––––––––––––––––––––––––––––––––––––
DR12 -8.07 dB -24.97 dB 4:06 01-Sonata No. 1 in B flat major, RV47 - I. Largo
DR13 -8.66 dB -25.04 dB 2:03 02-Sonata No. 1 in B flat major, RV47 - II. Allegro
DR13 -7.01 dB -24.81 dB 3:31 03-Sonata No. 1 in B flat major, RV47 - III. Largo
DR13 -7.85 dB -25.47 dB 2:02 04-Sonata No. 1 in B flat major, RV47 - IV. Allegro
DR12 -5.66 dB -23.21 dB 3:15 05-Sonata No. 2 in F major, RV41 - I. Largo
DR14 -5.99 dB -23.14 dB 2:39 06-Sonata No. 2 in F major, RV41 - II. Allegro
DR13 -12.23 dB -31.07 dB 3:19 07-Sonata No. 2 in F major, RV41 - III. Largo
DR12 -7.01 dB -23.70 dB 2:19 08-Sonata No. 2 in F major, RV41 - IV. Allegro
DR12 -9.34 dB -26.20 dB 2:56 09-Sonata No. 3 in A minor, RV43 - I. Largo
DR13 -8.51 dB -25.07 dB 2:22 10-Sonata No. 3 in A minor, RV43 - II. Allegro
DR12 -12.27 dB -29.62 dB 3:21 11-Sonata No. 3 in A minor, RV43 - III. Largo
DR13 -6.64 dB -23.97 dB 2:56 12-Sonata No. 3 in A minor, RV43 - IV. Allegro
DR13 -8.51 dB -25.83 dB 3:45 13-Sonata No. 4 in B flat major, RV45 - I. Largo
DR13 -7.13 dB -23.94 dB 2:46 14-Sonata No. 4 in B flat major, RV45 - II. Allegro
DR14 -9.10 dB -27.87 dB 4:29 15-Sonata No. 4 in B flat major, RV45 - III. Largo
DR14 -6.73 dB -24.68 dB 2:42 16-Sonata No. 4 in B flat major, RV45 - IV. Allegro
DR12 -9.63 dB -26.49 dB 3:54 17-Sonata No. 5 in E minor, RV40 - I. Largo
DR13 -9.37 dB -25.94 dB 3:03 18-Sonata No. 5 in E minor, RV40 - II. Allegro
DR12 -12.28 dB -28.94 dB 3:21 19-Sonata No. 5 in E minor, RV40 - III. Largo
DR11 -11.10 dB -24.87 dB 2:01 20-Sonata No. 5 in E minor, RV40 - IV. Allegro
DR12 -9.44 dB -24.85 dB 2:51 21-Sonata No. 6 in B flat major, RV46 - I. Preludio:largo
DR13 -7.68 dB -23.99 dB 2:42 22-Sonata No. 6 in B flat major, RV46 - II. Allemande:allegro
DR13 -7.21 dB -25.42 dB 2:40 23-Sonata No. 6 in B flat major, RV46 - III. Largo
DR14 -0.53 dB -24.92 dB 2:47 24-Sonata No. 6 in B flat major, RV46 - IV. Corrente:allegro
––––––––––––––––––––––––––––––––––––––––

Number of tracks: 24
Official DR value: DR13

Samplerate: 44100 Hz
Channels: 2
Bits per sample: 16
Bitrate: 533 kbps
Codec: FLAC
================================================================================

Christophe Coin, Christopher Hogwood - Antonio Vivaldi: 6 Cello Sonatas (1989)