Tags
Language
Tags

Cold Blood - First Taste Of Sin (1972/2021)

Posted By: v3122
Cold Blood - First Taste Of Sin (1972/2021)

Cold Blood - First Taste Of Sin (1972/2021)
EAC | Flac(Image) + Cue + Log & MP3 CBR 320Kbps
Collectables, COL-CD-6155 | RU | ~ 240 or 87 Mb | Artwork(jpg) -> 13 Mb
Funk, Soul, Psychedelic Rock

Founding guitarist Larry Field left before this album was recorded, resulting in an emphasis on keyboardist Raul Matute and sax player Danny Hull. The result is, surprisingly, somewhat tighter playing by the band, with the horn section reined in to provide percussive punches on guitar- and keyboard-driven songs. The Escovedos drop in to provide Latin percussion on such funk monsters as "Down to the Bone," and the band sounds both confident and aggressive in the tightly wound rave-up of "All My Honey." The album takes an unusual turn toward soulfully bittersweet blues on "You Had to Know"; while the song takes entirely too long to resolve, it's still an admirable showcase for Lydia Pense's bruised vocals. Trumpeter Max Haskett also steps in to provide vocals on a couple tracks, but they're an unavoidable letdown after the explosive power of Pense's singing.

by Paul Collins, allmusic
Cold Blood - First Taste Of Sin (1972/2021)

Cold Blood - First Taste Of Sin (1972/2021):

Cold Blood - First Taste Of Sin (1972/2021)

Tracklist:

01. Visions 3:24
02. Lo And Behold 4:41
03. Down To The Bone 5:15
04. You Had To Know 5:48
05. My Lady Woman 4:06
06. No Way Home 3:28
07. Inside Your Soul 3:29
08. All My Honey 3:31
09. Valdez In The Country 3:42

Exact Audio Copy V1.6 from 23. October 2020

Отчёт EAC об извлечении, выполненном 12. октября 2021, 13:46

Cold Blood / First Taste Of Sin

Дисковод: ATAPI iHAS122 F Adapter: 1 ID: 0

Режим чтения : Достоверность
Использование точного потока : Да
Отключение кэша аудио : Да
Использование указателей C2 : Нет

Коррекция смещения при чтении : 6
Способность читать области Lead-in и Lead-out : Нет
Заполнение пропущенных сэмплов тишиной : Да
Удаление блоков с тишиной в начале и конце : Нет
При вычислениях CRC использовались нулевые сэмплы : Да
Интерфейс : Встроенный Win32-интерфейс для Win NT/2000

Выходной формат : Пользовательский кодировщик
Выбранный битрейт : 1024 kBit/s
Качество : Высокий
Добавление ID3-тега : Нет
Утилита сжатия : C:\Program Files (x86)\Exact Audio Copy\FLAC\FLAC.EXE
Дополнительные параметры : -6 -V -T "ARTIST=%artist%" -T "TITLE=%title%" -T "ALBUM=%albumtitle%" -T "DATE=%year%" -T "TRACKNUMBER=%tracknr%" -T "GENRE=%genre%" -T "COMMENT=%comment%" -T "BAND=%albuminterpret%" -T "ALBUMARTIST=%albuminterpret%" -T "COMPOSER=%composer%" %haslyrics%–tag-from-file=LYRICS="%lyricsfile%"%haslyrics% -T "DISCNUMBER=%cdnumber%" -T "TOTALDISCS=%totalcds%" -T "TOTALTRACKS=%numtracks%" %hascover%–picture="%coverfile%"%hascover% %source% -o %dest%


TOC извлечённого CD

Трек | Старт | Длительность | Начальный сектор | Конечный сектор
––––––––––––––––––––––––––––––––––-
1 | 0:00.00 | 3:23.63 | 0 | 15287
2 | 3:23.63 | 4:40.70 | 15288 | 36357
3 | 8:04.58 | 5:14.49 | 36358 | 59956
4 | 13:19.32 | 5:48.19 | 59957 | 86075
5 | 19:07.51 | 4:05.53 | 86076 | 104503
6 | 23:13.29 | 3:27.56 | 104504 | 120084
7 | 26:41.10 | 3:29.21 | 120085 | 135780
8 | 30:10.31 | 3:31.14 | 135781 | 151619
9 | 33:41.45 | 3:42.20 | 151620 | 168289


Характеристики диапазона извлечения и сообщения об ошибках

Выбранный диапазон

Имя файла E:\Torrents-seed\Cold Blood\1972 - First Taste Of Sin\Cold Blood - First Taste Of Sin.wav

Пиковый уровень 100.0 %
Скорость извлечения 8.5 X
Качество диапазона 100.0 %
CRC теста 68E4DA6D
CRC копии 68E4DA6D
Копирование… OK

Ошибок не произошло


AccurateRip: сводка

Трек 1 отсутствует в базе данных
Трек 2 отсутствует в базе данных
Трек 3 отсутствует в базе данных
Трек 4 отсутствует в базе данных
Трек 5 отсутствует в базе данных
Трек 6 отсутствует в базе данных
Трек 7 отсутствует в базе данных
Трек 8 отсутствует в базе данных
Трек 9 отсутствует в базе данных

Ни одного трека нет в базе AccurateRip

Конец отчёта

==== Контрольная сумма отчёта 64DB97D3D88F804AAF4213DC966446B4607B7DD7B001A354DC14A413B87990DB ====


[CUETools log; Date: 14.10.2021 12:11:22; Version: 2.1.4]
[AccurateRip ID: 000d6587-0061d3c6-6208c309] disk not present in database.

Track Peak [ CRC32 ] [W/O NULL] [ LOG ]
– 100,0 [68E4DA6D] [05966AE6] CRC32
01 100,0 [BCBE0A83] [3F888655]
02 99,9 [8D21F02D] [8FBB2C7F]
03 100,0 [B75EB28D] [E9C6C0AC]
04 100,0 [ED8F69CF] [B60E3788]
05 100,0 [A1F47620] [BDA75117]
06 100,0 [C75951A7] [534DB0F4]
07 99,9 [471D2619] [7468F939]
08 100,0 [8A1FC32C] [063F799C]
09 100,0 [6876FB67] [DC466A7C]


Cold Blood - First Taste Of Sin (1972/2021)

All thanks go to the original releaser

Cold Blood in my Blog

Download Cold Blood - First Taste Of Sin (1972/2021):