Tags
Language
Tags

Collegium Vocale Gent, Philippe Herreweghe - J.S. Bach: Advent & Christmas Cantatas (2010)

Posted By: tirexiss
Collegium Vocale Gent, Philippe Herreweghe - J.S. Bach: Advent & Christmas Cantatas (2010)

Collegium Vocale Gent, Philippe Herreweghe - J.S. Bach: Advent & Christmas Cantatas (2010)
EAC | FLAC (image+.cue, log) | Covers Included | 02:59:59 | 850 MB
Genre: Classical | Label: Harmonia Mundi | Catalog: 5908369

"Philippe Herreweghe has always seemed well-attuned to the more mystical aspects of Bach’s music, an empathy clearly evident on his new CD of Advent cantatas. Though the opening chorus of BWV 36 seems a touch reserved, those of BWV 61 and 62 match precision with vigour, and Herreweghe’s team of soloists are in fine voice throughout. BWV 36 is a parody, based on an earlier tribute to a local teacher. Bach retained his original music for the arias, but replaced the recitatives with chorales, so the cantata alternates delightfully between dance movements and more formal hymn settings. (An even more dramatic juxtaposition occurs in the opening movement of BWV 61, a sacred cantata from the outset, where Bach sets the traditional chorale melody within a fashionable French overture.)" – BBC Music Magazine

Collegium Vocale Gent, Philippe Herreweghe - J.S. Bach: Advent & Christmas Cantatas (2010)

Track List:

CD 1:
01. Cantata No. 36, -Schwingt freudig euch empor,- BWV 36 (BC A3)- 1. Chorus. Schwingt freudig euch empor zu den erhabenen Sternen [0:04:01.00]
02. Cantata No. 36, -Schwingt freudig euch empor,- BWV 36 (BC A3)- 2. Choral. Nun komm, der Heiden Heiland [0:03:33.38]
03. Cantata No. 36, -Schwingt freudig euch empor,- BWV 36 (BC A3)- 3. Aria. Die Liebe zieht mit sanften Schritten [0:05:57.00]
04. Cantata No. 36, -Schwingt freudig euch empor,- BWV 36 (BC A3)- 4. Choral. Zwingt die Saiten in Cythara [0:01:23.37]
05. Cantata No. 36, -Schwingt freudig euch empor,- BWV 36 (BC A3)- 5. Aria. Willkommen, werter Schatz! [0:03:36.25]
06. Cantata No. 36, -Schwingt freudig euch empor,- BWV 36 (BC A3)- 6. Choral. Der du bist dem Vater gleich [0:01:48.43]
07. Cantata No. 36, -Schwingt freudig euch empor,- BWV 36 (BC A3)- 7. Aria. Auch mit gedämpften, schwachen Stimmen [0:08:36.15]
08. Cantata No. 36, -Schwingt freudig euch empor,- BWV 36 (BC A3)- 8. Choral. Lob sei Gott dem Vater ton [0:00:41.15]
09. Cantata No. 61, -Nun komm, der Heiden Heiland,- BWV 61 (BC A1)- 1. Ouvertüre. Nun komm, der Heiden Heiland [0:03:20.27]
10. Cantata No. 61, -Nun komm, der Heiden Heiland,- BWV 61 (BC A1)- 2. Recitativo. Der Heiland ist gekommen [0:01:32.00]
11. Cantata No. 61, -Nun komm, der Heiden Heiland,- BWV 61 (BC A1)- 3. Aria. Komm, Jesu, komm zu deiner Kirche [0:03:26.50]
12. Cantata No. 61, -Nun komm, der Heiden Heiland,- BWV 61 (BC A1)- 4. Recitativo. Siehe, ich stehe vor der Tür und klopfe an [0:00:59.13]
13. Cantata No. 61, -Nun komm, der Heiden Heiland,- BWV 61 (BC A1)- 5. Recitativo. Öffne dich, mein ganzes Herze [0:04:14.37]
14. Cantata No. 61, -Nun komm, der Heiden Heiland,- BWV 61 (BC A1)- 6. Choral. Amen, amen! [0:00:53.00]
15. Cantata No. 62, -Nun komm, der Heiden Heiland,- BWV 62 (BC A2)- 1. Choral. Nun komm, der Heiden Heiland [0:04:42.63]
16. Cantata No. 62, -Nun komm, der Heiden Heiland,- BWV 62 (BC A2)- 2. Aria. Bewundert, o Menschen, dies große Geheimnis? [0:06:51.32]
17. Cantata No. 62, -Nun komm, der Heiden Heiland,- BWV 62 (BC A2)- 3. Recitativo. So geht aus Gottes Herrlichkeit und Thron [0:00:49.40]
18. Cantata No. 62, -Nun komm, der Heiden Heiland,- BWV 62 (BC A2)- 4. Aria. Streite, siege, starker Held! [0:04:50.28]
19. Cantata No. 62, -Nun komm, der Heiden Heiland,- BWV 62 (BC A2)- 5. Recitativo. Wir ehren diese Herrlichkeit [0:00:53.20]
20. Cantata No. 62, -Nun komm, der Heiden Heiland,- BWV 62 (BC A2)- 6. Choral. Lob sei Gott dem Vater ton [0:00:36.42]

CD 2:
01. BWV 91 Choral "Gelobet seist du, Jesu Christ" [0:02:57.53]
02. Recitativo "Der Glanz der höchsten Herrlichkeit" [0:01:51.14]
03. Aria "Gott dem der Erden Kreis zu klein" [0:02:47.05]
04. Recitativo "O Christenheit!" [0:01:16.02]
05. Aria "Die Armut, so Gott auf sich nimmt" [0:06:54.14]
06. Choral "Das hat er alles uns getan" [0:00:57.43]
07. BWV 121 Choral "Christum wir sollen loben schon" [0:02:43.15]
08. Aria "O du von Gott erhöhte Kreatur" [0:05:39.32]
09. Recitativo "Der Gnade unermeßlichs Wesen" [0:01:17.52]
10. Aria "Johannis freudenvolles Springen" [0:07:27.34]
11. Recitativo "Doch wie erblickt es dich in deiner Krippen" [0:00:57.32]
12. Choral "Lob, Ehr und Dank sei dir gesagt" [0:01:07.30]
13. BWV 133 Choral "Ich freue mich in dir" [0:04:13.44]
14. Aria "Getrost! es faßt ein heiliger Leib" [0:04:33.73]
15. Recitativo "Ein Adam mag sich voller Schrecken" [0:01:04.16]
16. Aria "Wie lieblich klingt es in den Ohren" [0:07:34.50]
17. Recitativo "Wohlan! des Todes Furcht und Schmerz" [0:00:59.28]
18. Choral "Wohlan, so will ich" [0:01:09.28]

CD 3:
01. Cantata BWV 122 Das neugeborne Kindelein pf31.XII.1724: xx. Choral. Das neugeborne Kindelein [0:03:08.10]
02. Cantata BWV 122 Das neugeborne Kindelein pf31.XII.1724: II. Aria. O Menschen, die ihr täglich sündigt (Baß) [0:05:12.15]
03. Cantata BWV 122 Das neugeborne Kindelein pf31.XII.1724: III. Recitativo. Die Engel, welche sich zuvor (Sopran) [0:01:21.68]
04. Cantata BWV 122 Das neugeborne Kindelein pf31.XII.1724: IV. Aria. Ist Gott versöhnt und unser Freund (Sopran, Alt u. Tenor) [0:02:12.02]
05. Cantata BWV 122 Das neugeborne Kindelein pf31.XII.1724: V. Recitativo. Dies ist ein Tag, den selbst der Herr gemacht (Baß) [0:01:10.50]
06. Cantata BWV 122 Das neugeborne Kindelein pf31.XII.1724: VI. Choral. Es bringt das rechte Jubeljahr [0:00:47.70]
07. Cantate BWV 110 Unser Mund sei voll Lachens pf25.XII.1725: I. Chor. Unser Mund sei voll Lachens [0:06:38.73]
08. Cantate BWV 110 Unser Mund sei voll Lachens pf25.XII.1725: III. Aria. Ihr Gedanken und ihr Sinnen (Tenor) [0:04:24.37]
09. Cantate BWV 110 Unser Mund sei voll Lachens pf25.XII.1725: III. Recitativo. Dir, Herr, ist niemand gleich (Baß) [0:00:31.20]
10. Cantate BWV 110 Unser Mund sei voll Lachens pf25.XII.1725: IV. Aria. Ach Herr, was ist ein Menschenkind (Alt) [0:04:32.25]
11. Cantate BWV 110 Unser Mund sei voll Lachens pf25.XII.1725: V. Duetto. Ehre sei Gott in der Höhe (Sopran, Tenor) [0:03:46.03]
12. Cantate BWV 110 Unser Mund sei voll Lachens pf25.XII.1725: VI. Aria. Wacht auf, ihr Adern und ihr Glieder (Baß) [0:03:42.22]
13. Cantate BWV 110 Unser Mund sei voll Lachens pf25.XII.1725: VII. Choral. Alleluja! Gelobt sei Gott [0:01:05.48]
14. Cantate BWV 57 Selig ist der Mann pf26.XII.1725: I. Aria. Selig ist der Mann (Baß) [0:03:35.62]
15. Cantate BWV 57 Selig ist der Mann pf26.XII.1725: II. Recitativo. Ach! dieser süsse Trost (Sopran) [0:01:26.70]
16. Cantate BWV 57 Selig ist der Mann pf26.XII.1725: III. Aria. Ich wünschte mir den Tod (Sopran) [0:05:35.28]
17. Cantate BWV 57 Selig ist der Mann pf26.XII.1725: IV. Recitativo. Ich reiche dir die Hand (Sopran, Baß) [0:00:24.60]
18. Cantate BWV 57 Selig ist der Mann pf26.XII.1725: V. Aria. Ja, ja, ich kann die Feinde schlagen (Baß) [0:05:32.52]
19. Cantate BWV 57 Selig ist der Mann pf26.XII.1725: VI. Recitativo. In meiner Schoss liegt Ruh und Leben (Sopran, Baß) [0:01:29.70]
20. Cantate BWV 57 Selig ist der Mann pf26.XII.1725: VII. Aria. Ich ende behende (Sopran) [0:04:12.08]
21. Cantate BWV 57 Selig ist der Mann pf26.XII.1725: VIII. Choral: "Richte dich, Liebste, nach meinem Gefallen" [0:00:48.32]

Performers:
Dorothee Mields - soprano
Vasilika Jezovšek - soprano
Sibylla Rubens - soprano
Sarah Connolly - contralto
Ingeborg Danz - contralto
Mark Padmore - tenor
Christoph Prégardien - tenor
Peter Kooy - bass
Collegium Vocale Gent [on period instruments]
Philippe Herreweghe - conductor

Exact Audio Copy V1.0 beta 3 from 29. August 2011

EAC extraction logfile from 2. December 2013, 17:37

Philippe Herreweghe / Bach - Advent & Christmas Cantatas - Herreweghe (Disc 1)

Used drive : TSSTcorpCDDVDW SH-222BB Adapter: 2 ID: 1

Read mode : Secure
Utilize accurate stream : Yes
Defeat audio cache : Yes
Make use of C2 pointers : No

Read offset correction : 6
Overread into Lead-In and Lead-Out : No
Fill up missing offset samples with silence : Yes
Delete leading and trailing silent blocks : No
Null samples used in CRC calculations : Yes
Used interface : Native Win32 interface for Win NT & 2000

Used output format : User Defined Encoder
Selected bitrate : 1024 kBit/s
Quality : High
Add ID3 tag : No
Command line compressor : C:\Program Files\Exact Audio Copy\Flac\flac.exe
Additional command line options : -8 -V -T "TITLE=%title%" -T "ARTIST=%artist%" -T "ALBUMARTIST=%albumartist%" -T "ALBUM=%albumtitle%" -T "DATE=%year%" -T "TRACKNUMBER=%tracknr%" -T "TRACKTOTAL=%numtracks%" -T "GENRE=%genre%" -T "COMMENT=%comment%" -T "PERFORMER=%albuminterpret%" -T "COMPOSER=%composer%" %source% -o %dest%


TOC of the extracted CD

Track | Start | Length | Start sector | End sector
––––––––––––––––––––––––––––-
1 | 0:00.32 | 4:01.00 | 32 | 18106
2 | 4:01.32 | 3:33.38 | 18107 | 34119
3 | 7:34.70 | 5:57.00 | 34120 | 60894
4 | 13:31.70 | 1:23.37 | 60895 | 67156
5 | 14:55.32 | 3:36.25 | 67157 | 83381
6 | 18:31.57 | 1:48.43 | 83382 | 91524
7 | 20:20.25 | 8:36.15 | 91525 | 130239
8 | 28:56.40 | 0:41.15 | 130240 | 133329
9 | 29:37.55 | 3:20.27 | 133330 | 148356
10 | 32:58.07 | 1:32.00 | 148357 | 155256
11 | 34:30.07 | 3:26.50 | 155257 | 170756
12 | 37:56.57 | 0:59.13 | 170757 | 175194
13 | 38:55.70 | 4:14.37 | 175195 | 194281
14 | 43:10.32 | 0:53.00 | 194282 | 198256
15 | 44:03.32 | 4:42.63 | 198257 | 219469
16 | 48:46.20 | 6:51.32 | 219470 | 250326
17 | 55:37.52 | 0:49.40 | 250327 | 254041
18 | 56:27.17 | 4:50.28 | 254042 | 275819
19 | 61:17.45 | 0:53.20 | 275820 | 279814
20 | 62:10.65 | 0:36.42 | 279815 | 282556


Range status and errors

Selected range

Filename G:\Ripped general\[8322] Bach – Advent & Christmas Cantatas – Herreweghe\cd1\Bach - Advent & Christmas Cantatas - Herreweghe (Disc 1).wav

Peak level 97.3 %
Extraction speed 2.3 X
Range quality 100.0 %
Test CRC D4AC463E
Copy CRC D4AC463E
Copy OK

No errors occurred


AccurateRip summary

Track 1 accurately ripped (confidence 6) [BD0AFDFA] (AR v2)
Track 2 accurately ripped (confidence 6) [5E76B3CB] (AR v2)
Track 3 accurately ripped (confidence 6) [3A771BBC] (AR v2)
Track 4 accurately ripped (confidence 6) [406734D6] (AR v2)
Track 5 accurately ripped (confidence 6) [B1773841] (AR v2)
Track 6 accurately ripped (confidence 6) [7A094C18] (AR v2)
Track 7 accurately ripped (confidence 6) [07EB93E6] (AR v2)
Track 8 accurately ripped (confidence 6) [3344C3C7] (AR v2)
Track 9 accurately ripped (confidence 6) [DE0D183B] (AR v2)
Track 10 accurately ripped (confidence 6) [BE9C91BF] (AR v2)
Track 11 accurately ripped (confidence 6) [6885C7F4] (AR v2)
Track 12 accurately ripped (confidence 6) [40FD154B] (AR v2)
Track 13 accurately ripped (confidence 6) [3397F70C] (AR v2)
Track 14 accurately ripped (confidence 6) [773CC24C] (AR v2)
Track 15 accurately ripped (confidence 6) [F4401942] (AR v2)
Track 16 accurately ripped (confidence 6) [A5D6AFE9] (AR v2)
Track 17 accurately ripped (confidence 6) [D3FD4A0C] (AR v2)
Track 18 accurately ripped (confidence 6) [5EF91C4C] (AR v2)
Track 19 accurately ripped (confidence 7) [5850596B] (AR v2)
Track 20 accurately ripped (confidence 7) [9BDD7FC8] (AR v2)

All tracks accurately ripped

End of status report

Exact Audio Copy V1.0 beta 3 from 29. August 2011

EAC extraction logfile from 2. December 2013, 17:47

Philippe Herreweghe / Bach - Advent & Christmas Cantatas - Herreweghe (Disc 2)

Used drive : TSSTcorpCDDVDW SH-222BB Adapter: 2 ID: 1

Read mode : Secure
Utilize accurate stream : Yes
Defeat audio cache : Yes
Make use of C2 pointers : No

Read offset correction : 6
Overread into Lead-In and Lead-Out : No
Fill up missing offset samples with silence : Yes
Delete leading and trailing silent blocks : No
Null samples used in CRC calculations : Yes
Used interface : Native Win32 interface for Win NT & 2000

Used output format : User Defined Encoder
Selected bitrate : 1024 kBit/s
Quality : High
Add ID3 tag : No
Command line compressor : C:\Program Files\Exact Audio Copy\Flac\flac.exe
Additional command line options : -8 -V -T "TITLE=%title%" -T "ARTIST=%artist%" -T "ALBUMARTIST=%albumartist%" -T "ALBUM=%albumtitle%" -T "DATE=%year%" -T "TRACKNUMBER=%tracknr%" -T "TRACKTOTAL=%numtracks%" -T "GENRE=%genre%" -T "COMMENT=%comment%" -T "PERFORMER=%albuminterpret%" -T "COMPOSER=%composer%" %source% -o %dest%


TOC of the extracted CD

Track | Start | Length | Start sector | End sector
––––––––––––––––––––––––––––-
1 | 0:00.00 | 2:57.53 | 0 | 13327
2 | 2:57.53 | 1:51.14 | 13328 | 21666
3 | 4:48.67 | 2:47.05 | 21667 | 34196
4 | 7:35.72 | 1:16.02 | 34197 | 39898
5 | 8:51.74 | 6:54.14 | 39899 | 70962
6 | 15:46.13 | 0:57.43 | 70963 | 75280
7 | 16:43.56 | 2:43.15 | 75281 | 87520
8 | 19:26.71 | 5:39.32 | 87521 | 112977
9 | 25:06.28 | 1:17.52 | 112978 | 118804
10 | 26:24.05 | 7:27.34 | 118805 | 152363
11 | 33:51.39 | 0:57.32 | 152364 | 156670
12 | 34:48.71 | 1:07.30 | 156671 | 161725
13 | 35:56.26 | 4:13.44 | 161726 | 180744
14 | 40:09.70 | 4:33.73 | 180745 | 201292
15 | 44:43.68 | 1:04.16 | 201293 | 206108
16 | 45:48.09 | 7:34.50 | 206109 | 240208
17 | 53:22.59 | 0:59.28 | 240209 | 244661
18 | 54:22.12 | 1:09.28 | 244662 | 249864


Range status and errors

Selected range

Filename G:\Ripped general\[8322] Bach – Advent & Christmas Cantatas – Herreweghe\cd2\Bach - Advent & Christmas Cantatas - Herreweghe (Disc 2).wav

Peak level 100.0 %
Extraction speed 7.0 X
Range quality 100.0 %
Test CRC 77D2CABA
Copy CRC 77D2CABA
Copy OK

No errors occurred


AccurateRip summary

Track 1 accurately ripped (confidence 7) [E8924DF6] (AR v2)
Track 2 accurately ripped (confidence 7) [95F14217] (AR v2)
Track 3 accurately ripped (confidence 7) [B642EA0E] (AR v2)
Track 4 accurately ripped (confidence 7) [789954CF] (AR v2)
Track 5 accurately ripped (confidence 7) [46658CA7] (AR v2)
Track 6 accurately ripped (confidence 7) [CA668BBB] (AR v2)
Track 7 accurately ripped (confidence 7) [1D49CEA5] (AR v2)
Track 8 accurately ripped (confidence 7) [0F798AEF] (AR v2)
Track 9 accurately ripped (confidence 7) [A6D5BBD4] (AR v2)
Track 10 accurately ripped (confidence 7) [57C48CE7] (AR v2)
Track 11 accurately ripped (confidence 7) [EB9068A5] (AR v2)
Track 12 accurately ripped (confidence 7) [08B064FC] (AR v2)
Track 13 accurately ripped (confidence 7) [3FF182FD] (AR v2)
Track 14 accurately ripped (confidence 7) [63069E7A] (AR v2)
Track 15 accurately ripped (confidence 7) [686C705E] (AR v2)
Track 16 accurately ripped (confidence 7) [3D42301B] (AR v2)
Track 17 accurately ripped (confidence 7) [EFA8E806] (AR v2)
Track 18 accurately ripped (confidence 7) [2DA74E0E] (AR v2)

All tracks accurately ripped

End of status report

Exact Audio Copy V1.0 beta 3 from 29. August 2011

EAC extraction logfile from 2. December 2013, 18:15

Philippe Herreweghe / Bach - Advent & Christmas Cantatas - Herreweghe (Disc 3)

Used drive : TSSTcorpCDDVDW SH-222BB Adapter: 2 ID: 1

Read mode : Secure
Utilize accurate stream : Yes
Defeat audio cache : Yes
Make use of C2 pointers : No

Read offset correction : 6
Overread into Lead-In and Lead-Out : No
Fill up missing offset samples with silence : Yes
Delete leading and trailing silent blocks : No
Null samples used in CRC calculations : Yes
Used interface : Native Win32 interface for Win NT & 2000

Used output format : User Defined Encoder
Selected bitrate : 1024 kBit/s
Quality : High
Add ID3 tag : No
Command line compressor : C:\Program Files\Exact Audio Copy\Flac\flac.exe
Additional command line options : -8 -V -T "TITLE=%title%" -T "ARTIST=%artist%" -T "ALBUMARTIST=%albumartist%" -T "ALBUM=%albumtitle%" -T "DATE=%year%" -T "TRACKNUMBER=%tracknr%" -T "TRACKTOTAL=%numtracks%" -T "GENRE=%genre%" -T "COMMENT=%comment%" -T "PERFORMER=%albuminterpret%" -T "COMPOSER=%composer%" %source% -o %dest%


TOC of the extracted CD

Track | Start | Length | Start sector | End sector
––––––––––––––––––––––––––––-
1 | 0:00.32 | 3:08.10 | 32 | 14141
2 | 3:08.42 | 5:12.15 | 14142 | 37556
3 | 8:20.57 | 1:21.68 | 37557 | 43699
4 | 9:42.50 | 2:12.02 | 43700 | 53601
5 | 11:54.52 | 1:10.50 | 53602 | 58901
6 | 13:05.27 | 0:47.70 | 58902 | 62496
7 | 13:53.22 | 6:38.73 | 62497 | 92419
8 | 20:32.20 | 4:24.37 | 92420 | 112256
9 | 24:56.57 | 0:31.20 | 112257 | 114601
10 | 25:28.02 | 4:32.25 | 114602 | 135026
11 | 30:00.27 | 3:46.03 | 135027 | 151979
12 | 33:46.30 | 3:42.22 | 151980 | 168651
13 | 37:28.52 | 1:05.48 | 168652 | 173574
14 | 38:34.25 | 3:35.62 | 173575 | 189761
15 | 42:10.12 | 1:26.70 | 189762 | 196281
16 | 43:37.07 | 5:35.28 | 196282 | 221434
17 | 49:12.35 | 0:24.60 | 221435 | 223294
18 | 49:37.20 | 5:32.52 | 223295 | 248246
19 | 55:09.72 | 1:29.70 | 248247 | 254991
20 | 56:39.67 | 4:12.08 | 254992 | 273899
21 | 60:52.00 | 0:48.32 | 273900 | 277531


Range status and errors

Selected range

Filename G:\Ripped general\[8322] Bach – Advent & Christmas Cantatas – Herreweghe\cd3\Bach - Advent & Christmas Cantatas - Herreweghe (Disc 3).wav

Peak level 98.0 %
Extraction speed 2.3 X
Range quality 100.0 %
Test CRC A8E33D07
Copy CRC A8E33D07
Copy OK

No errors occurred


AccurateRip summary

Track 1 accurately ripped (confidence 6) [E504D2D4] (AR v2)
Track 2 accurately ripped (confidence 6) [AF5F2BF5] (AR v2)
Track 3 accurately ripped (confidence 6) [E898F8AA] (AR v2)
Track 4 accurately ripped (confidence 6) [2DFFA20D] (AR v2)
Track 5 accurately ripped (confidence 6) [29FBB5D1] (AR v2)
Track 6 accurately ripped (confidence 6) [D1818D45] (AR v2)
Track 7 accurately ripped (confidence 6) [943D056F] (AR v2)
Track 8 accurately ripped (confidence 6) [0893A7E0] (AR v2)
Track 9 accurately ripped (confidence 5) [BDBA2DCA] (AR v2)
Track 10 accurately ripped (confidence 5) [5BD85251] (AR v2)
Track 11 accurately ripped (confidence 5) [4C058F82] (AR v2)
Track 12 accurately ripped (confidence 5) [833D0708] (AR v2)
Track 13 accurately ripped (confidence 5) [0D756F27] (AR v2)
Track 14 accurately ripped (confidence 5) [9746BAAA] (AR v2)
Track 15 accurately ripped (confidence 5) [B1119BAD] (AR v2)
Track 16 accurately ripped (confidence 5) [74FFE08B] (AR v2)
Track 17 accurately ripped (confidence 5) [01DDED1B] (AR v2)
Track 18 accurately ripped (confidence 4) [857663BE] (AR v2)
Track 19 accurately ripped (confidence 5) [33575F6F] (AR v2)
Track 20 accurately ripped (confidence 5) [70FF84EB] (AR v2)
Track 21 accurately ripped (confidence 6) [806BB0C4] (AR v2)

All tracks accurately ripped

End of status report

Thanks to the Original ripper (unknown)!

Welcome to my blog!

Download: