Subcategories

Cowboy Junkies - Acoustic Junk (2009) [Limited Edition]

Posted By: Designol
Cowboy Junkies - Acoustic Junk (2009) [Limited Edition]

Cowboy Junkies - Acoustic Junk (2009) [Limited Edition]
EAC | FLAC | Tracks (Cue&Log) ~ 285 Mb | Mp3 (CBR320) ~ 108 Mb | Scans included | 00:46:33
Country-Blues, Alt. Country, Acoustic Country-Rock | Label: Latent | # LATEXCD25

2009 acoustic album by Cowboy Junkies, available only at shows. Packaged in card sleeve.

Cowboy Junkies are a Canadian alternative country/blues/folk rock band. The group was formed in Toronto in 1985 by Margo Timmins (vocalist), Michael Timmins (songwriter, guitarist), Peter Timmins (drummer) and Alan Anton (bassist).

The Junkies first performed publicly at the Beverley Tavern and other clubs in Toronto’s Queen Street West, including The Rivoli. Their 1986 debut album, produced by Canadian producer Peter Moore, was the blues-inspired Whites Off Earth Now!!, recorded using an ambisonic microphone in the family garage.

The group’s fame spread with their second album, The Trinity Session,recorded in 1987 at Toronto’s Church of the Holy Trinity. Their sound, again using the ambisonic microphone, and their mix of blues, country, folk, rock andjazz earned them both critical attention and a cult following. The Los Angeles Times named the recording as one of the ten best albums of 1988.

The band was nominated for Group of the Year at the Juno Awards in 1990 and 1991. In the early 1990s Margo Timmins was named “one of the fifty most beautiful people in the world” by People Magazine. The group has continued to tour North America, Europe, Japan and Australia with extensive North American and European tours following album releases in 2002 and 2004. In 2008, they released Trinity Revisited in celebration of the 20th anniversary of the original recording of The Trinity Session.

Cowboy Junkies - Acoustic Junk (2009) [Limited Edition]



Tracklist:

01. In My Time Of Need (5:19)
02. He Will Call You Baby (4:37)
03. Those Final Feet (4:05)
04. Cold Evening Wind (4:46)
05. Cutting Board Blues (3:17)
06. Sun Comes Up, It's Tuesday Morning (4:20)
07. To Love Is To Bury (3:36)
08. Tired Eyes (4:41)
09. Rake (3:33)
10. Spiral Down (3:35)
11. A Horse In The Country (4:15)


Exact Audio Copy V0.99 prebeta 5 from 4. May 2009

EAC extraction logfile from 8. December 2009, 20:06

Cowboy Junkies / Acoustic Junk

Used drive : LITE-ON DVDRW SHW-160P6S Adapter: 2 ID: 1

Read mode : Secure
Utilize accurate stream : Yes
Defeat audio cache : Yes
Make use of C2 pointers : No

Read offset correction : 6
Overread into Lead-In and Lead-Out : No
Fill up missing offset samples with silence : Yes
Delete leading and trailing silent blocks : No
Null samples used in CRC calculations : No
Used interface : Installed external ASPI interface
Gap handling : Not detected, thus appended to previous track

Used output format : User Defined Encoder
Selected bitrate : 768 kBit/s
Quality : High
Add ID3 tag : No
Command line compressor : C:\Program Files\Exact Audio Copy\FLAC\FLAC.EXE
Additional command line options : -6 -V -T "ARTIST=%a" -T "TITLE=%t" -T "ALBUM=%g" -T "DATE=%y" -T "TRACKNUMBER=%n" -T "GENRE=%m" -T "COMMENT=%e" %s -o %d


TOC of the extracted CD

Track | Start | Length | Start sector | End sector
––––––––––––––––––––––––––––-
1 | 0:00.00 | 5:21.50 | 0 | 24124
2 | 5:21.50 | 4:40.06 | 24125 | 45130
3 | 10:01.56 | 4:08.19 | 45131 | 63749
4 | 14:10.00 | 4:49.20 | 63750 | 85444
5 | 18:59.20 | 3:20.25 | 85445 | 100469
6 | 22:19.45 | 4:22.40 | 100470 | 120159
7 | 26:42.10 | 3:38.49 | 120160 | 136558
8 | 30:20.59 | 4:43.59 | 136559 | 157842
9 | 35:04.43 | 3:35.61 | 157843 | 174028
10 | 38:40.29 | 3:38.19 | 174029 | 190397
11 | 42:18.48 | 4:14.58 | 190398 | 209505


Track 1

Filename H:\Music\01 In My Time Of Need.wav

Peak level 98.8 %
Track quality 100.0 %
Copy CRC 50DDBF66
Accurately ripped (confidence 6) [4A9EA16F]
Copy OK

Track 2

Filename H:\Music\02 He Will Call You Baby.wav

Peak level 98.8 %
Track quality 100.0 %
Copy CRC 082EBF4B
Accurately ripped (confidence 6) [4D689C16]
Copy OK

Track 3

Filename H:\Music\03 Those Final Feet.wav

Peak level 98.8 %
Track quality 100.0 %
Copy CRC 0CB55540
Accurately ripped (confidence 6) [20C8EF2C]
Copy OK

Track 4

Filename H:\Music\04 Cold Evening Wind.wav

Peak level 98.8 %
Track quality 100.0 %
Copy CRC DD6EFEEC
Accurately ripped (confidence 6) [B99E0221]
Copy OK

Track 5

Filename H:\Music\05 Cutting Board Blues.wav

Peak level 98.8 %
Track quality 100.0 %
Copy CRC A7D100CE
Accurately ripped (confidence 6) [CBDC7B4E]
Copy OK

Track 6

Filename H:\Music\06 Sun Comes Up, It's Tuesday Morning.wav

Peak level 98.8 %
Track quality 100.0 %
Copy CRC BBB43222
Accurately ripped (confidence 6) [B283FC86]
Copy OK

Track 7

Filename H:\Music\07 To Love Is To Bury.wav

Peak level 98.8 %
Track quality 100.0 %
Copy CRC 8C648535
Accurately ripped (confidence 6) [359CBCC4]
Copy OK

Track 8

Filename H:\Music\08 Tired Eyes.wav

Peak level 98.8 %
Track quality 100.0 %
Copy CRC 4E2511BC
Accurately ripped (confidence 6) [EDFEBA82]
Copy OK

Track 9

Filename H:\Music\09 Rake.wav

Peak level 98.8 %
Track quality 100.0 %
Copy CRC 9EF6BAF3
Accurately ripped (confidence 6) [6D7EC773]
Copy OK

Track 10

Filename H:\Music\10 Spiral Down.wav

Peak level 98.8 %
Track quality 100.0 %
Copy CRC 8CDF406D
Accurately ripped (confidence 6) [F5935903]
Copy OK

Track 11

Filename H:\Music\11 A Horse In The Country.wav

Peak level 98.8 %
Track quality 100.0 %
Copy CRC B2DA730B
Accurately ripped (confidence 6) [1F484E0E]
Copy OK


All tracks accurately ripped

No errors occurred

End of status report

[CUETools log; Date: 06.06.2017 19:00:50; Version: 2.1.4]
[CTDB TOCID: c66XABjOSFajQCOO9z.DSY9G.N8-] found.
Track | CTDB Status
1 | (8/8) Accurately ripped
2 | (8/8) Accurately ripped
3 | (8/8) Accurately ripped
4 | (8/8) Accurately ripped
5 | (8/8) Accurately ripped
6 | (8/8) Accurately ripped
7 | (8/8) Accurately ripped
8 | (8/8) Accurately ripped
9 | (8/8) Accurately ripped
10 | (8/8) Accurately ripped
11 | (8/8) Accurately ripped
[AccurateRip ID: 0013f318-00aa7718-670ae90b] found.
Track [ CRC | V2 ] Status
01 [4a9ea16f|9e57f5b9] (08+03/11) Accurately ripped
02 [4d689c16|e82a3cda] (08+03/11) Accurately ripped
03 [20c8ef2c|664375fe] (08+03/11) Accurately ripped
04 [b99e0221|6c6db53b] (08+03/11) Accurately ripped
05 [cbdc7b4e|3ae511be] (08+03/11) Accurately ripped
06 [b283fc86|da4323e4] (08+03/11) Accurately ripped
07 [359cbcc4|f7fccf0e] (08+03/11) Accurately ripped
08 [edfeba82|4b24851b] (08+03/11) Accurately ripped
09 [6d7ec773|76292a6b] (08+03/11) Accurately ripped
10 [f5935903|5d9c68fe] (08+03/11) Accurately ripped
11 [1f484e0e|1c5a1d40] (08+03/11) Accurately ripped

Track Peak [ CRC32 ] [W/O NULL] [ LOG ]
– 98,8 [C39CFADB] [766D4B43]
01 98,8 [3531DB9E] [50DDBF66] W/O NULL
02 98,8 [7FA50D82] [082EBF4B] W/O NULL
03 98,8 [27D6A251] [0CB55540] W/O NULL
04 98,8 [5D3D9307] [DD6EFEEC] W/O NULL
05 98,8 [02951BBB] [A7D100CE] W/O NULL
06 98,8 [96C5F134] [BBB43222] W/O NULL
07 98,8 [A207B793] [8C648535] W/O NULL
08 98,8 [8F5EA979] [4E2511BC] W/O NULL
09 98,8 [38A114EE] [9EF6BAF3] W/O NULL
10 98,8 [892690EB] [8CDF406D] W/O NULL
11 98,8 [AB5F00CA] [B2DA730B] W/O NULL

foobar2000 1.2 / Dynamic Range Meter 1.1.1
log date: 2017-06-06 19:02:39

––––––––––––––––––––––––––––––––––––––––
Analyzed: Cowboy Junkies / Acoustic Junk
––––––––––––––––––––––––––––––––––––––––

DR Peak RMS Duration Track
––––––––––––––––––––––––––––––––––––––––
DR10 -0.10 dB -13.06 dB 5:22 01-In My Time Of Need
DR10 -0.10 dB -12.14 dB 4:40 02-He Will Call You Baby
DR11 -0.10 dB -13.93 dB 4:08 03-Those Final Feet
DR11 -0.10 dB -13.94 dB 4:49 04-Cold Evening Wind
DR10 -0.10 dB -11.64 dB 3:20 05-Cutting Board Blues
DR10 -0.10 dB -11.60 dB 4:23 06-Sun Comes Up, It's Tuesday Morning
DR10 -0.10 dB -12.35 dB 3:39 07-To Love Is To Bury
DR9 -0.10 dB -12.61 dB 4:44 08-Tired Eyes
DR11 -0.10 dB -13.16 dB 3:36 09-Rake
DR10 -0.10 dB -14.28 dB 3:38 10-Spiral Down
DR9 -0.10 dB -12.00 dB 4:15 11-A Horse In The Country
––––––––––––––––––––––––––––––––––––––––

Number of tracks: 11
Official DR value: DR10

Samplerate: 44100 Hz
Channels: 2
Bits per sample: 16
Bitrate: 967 kbps
Codec: FLAC
================================================================================

Cowboy Junkies - Acoustic Junk (2009) [Limited Edition]

Cowboy Junkies - Acoustic Junk (2009) [Limited Edition]