Subcategories

VA - Crossroads Eric Clapton Guitar Festival (2013) [2CD + 2DVD + 2xBlu-ray]

Posted By: v3122
VA - Crossroads Eric Clapton Guitar Festival (2013) [2CD + 2DVD + 2xBlu-ray]

VA - Crossroads Eric Clapton Guitar Festival (2013)
EAC | Flac(Image) + Cue + Log & MP3 CBR 320Kbps
Rhino, 8122796170 | ~ or Mb | Artwork(png) -> Mb
2xBlu-ray: MPEG-4 1080p, 23,976 fps, 16:9, High Profile 4.1
LPCM 2.0, 48 kHz, 24-bit / DTS-HD MA 5.1, 48 kHz, 24-bit
2xDVD: NTSC 16:9 (720x480) VBR | DTS 755kbps, 5.1 / PCM 1536kbps, Stereo
Blues, Blues Rock

Eric Clapton's Crossroads Festival, which features world-class guitar players from all over the globe and has been held every three years since 2004, works as a fundraiser for the Crossroads Centre in Antigua, a treatment and educational center Clapton founded in 1998 to help people suffering from chemical dependency. The first three concerts were single-day outdoor events held in Dallas in 2004, and in Chicago in 2007 and 2010, with the fourth, the concert represented by this two-disc set, moving indoors to Madison Square Garden in New York and expanding to two nights in 2013. Both shows were filmed and recorded for DVD and CD release. Clapton, who might be the most modest and unassuming star guitarist of his considerably talented generation, opens and closes these shows, and in between is a steady parade of the planet's best guitar players, often in interesting combinations. This set collects some of the key performances from the two-night event, and among the highlights of these are Clapton and Vince Gill's bright, shuffling version of "Lay Down Sally," John Mayer and Keith Urban putting together a surprisingly moving rendition of the Beatles' "Don't Let Me Down," Gill and Albert Lee's take on Rodney Crowell's "I Ain't Living Long Like This," and Keb' Mo' and Taj Mahal's intimate acoustic version of Sleepy John Estes' "Diving Duck Blues," but all of the tracks here feature striking and spirited guitar work with star players like Jeff Beck, Buddy Guy, Sonny Landreth, Robert Cray, Steve Cropper, Earl Klugh, Doyle Bramhall II, Gary Clark, Jr., Jimmie Vaughan, Derek Trucks, Warren Haynes, and Robert Randolph, among even others, lending a hand and a whole lot of great licks.

by Steve Leggett, allmusic
VA - Crossroads Eric Clapton Guitar Festival (2013):

VA - Crossroads Eric Clapton Guitar Festival (2013) [2CD + 2DVD + 2xBlu-ray]

Tracklist CD1:

01. Eric Clapton - Tears In Heaven - 4:49
02. Eric Clapton with Vince Gill - Lay Down Sally - 4:39
03. Booker T. with Steve Cropper, Keb’ Mo’, Blake Mills, Matt “Guitar” Murphy & A… - Green Onions - 7:26
04. Kurt Rosenwinkel - Heavenly Bodies - 5:24
05. Earl Klugh - This Time - 2:14
06. Earl Klugh - Mirabella - 1:18
07. The Robert Cray Band - Great Big Old House - 5:33
08. Doyle Bramhall II with Gary Clark Jr. - She's Alright - 6:16
09. Doyle Bramhall II with Citizen Cope - Bullet and a Target - 4:14
10. John Mayer - Queen of California - 8:17
11. John Mayer with Keith Urban - Don't Let Me Down - 6:45
12. Gary Clark Jr - Next Door Neighbor Blues - 4:03
13. Buddy Guy with Robert Randolph & Quinn Sullivan - Damn Right, I've Got The Blues - 6:39
14. The Allman Brothers Band with Eric Clapton - Why Does Love Got To Be So Sad - 8:26

Exact Audio Copy V1.0 beta 3 from 29. August 2011

EAC extraction logfile from 7. December 2013, 16:05

Various Artists / Eric Clapton Crossroads Guitar Festival 2013 CD1

Used drive : ATAPI iHAS124 B Adapter: 2 ID: 0

Read mode : Secure
Utilize accurate stream : Yes
Defeat audio cache : Yes
Make use of C2 pointers : No

Read offset correction : 6
Overread into Lead-In and Lead-Out : No
Fill up missing offset samples with silence : Yes
Delete leading and trailing silent blocks : No
Null samples used in CRC calculations : Yes
Used interface : Native Win32 interface for Win NT & 2000

Used output format : User Defined Encoder
Selected bitrate : 1024 kBit/s
Quality : High
Add ID3 tag : No
Command line compressor : C:\Program Files (x86)\Exact Audio Copy\FLAC\FLAC.EXE
Additional command line options : -8 -V -T "ARTIST=%artist%" -T "TITLE=%title%" -T "ALBUM=%albumtitle%" -T "DATE=%year%" -T "TRACKNUMBER=%tracknr%" -T "GENRE=%genre%" -T "PERFORMER=%albuminterpret%" -T "COMPOSER=%composer%" %haslyrics%–tag-from-file=LYRICS="%lyricsfile%"%haslyrics% -T "ALBUMARTIST=%albumartist%" -T "DISCNUMBER=%cdnumber%" -T "TOTALDISCS=%totalcds%" -T "TOTALTRACKS=%numtracks%" -T "COMMENT=%comment%" %source% -o %dest%


TOC of the extracted CD

Track | Start | Length | Start sector | End sector
––––––––––––––––––––––––––––-
1 | 0:00.00 | 4:49.14 | 0 | 21688
2 | 4:49.14 | 4:39.08 | 21689 | 42621
3 | 9:28.22 | 7:26.01 | 42622 | 76072
4 | 16:54.23 | 5:24.33 | 76073 | 100405
5 | 22:18.56 | 2:13.38 | 100406 | 110418
6 | 24:32.19 | 1:17.53 | 110419 | 116246
7 | 25:49.72 | 5:32.65 | 116247 | 141211
8 | 31:22.62 | 6:16.25 | 141212 | 169436
9 | 37:39.12 | 4:14.16 | 169437 | 188502
10 | 41:53.28 | 8:17.20 | 188503 | 225797
11 | 50:10.48 | 6:45.23 | 225798 | 256195
12 | 56:55.71 | 4:02.43 | 256196 | 274388
13 | 60:58.39 | 6:39.08 | 274389 | 304321
14 | 67:37.47 | 8:25.38 | 304322 | 342234


Range status and errors

Selected range

Filename G:\CD\VA - Eric Clapton Crossroads Guitar Festival 2013 CD1.wav

Peak level 100.0 %
Extraction speed 6.6 X
Range quality 100.0 %
Test CRC A00F69CD
Copy CRC A00F69CD
Copy OK

No errors occurred


AccurateRip summary

Track 1 accurately ripped (confidence 1) [4E41990F] (AR v2)
Track 2 accurately ripped (confidence 2) [C7842F65] (AR v2)
Track 3 accurately ripped (confidence 2) [282B19B2] (AR v2)
Track 4 accurately ripped (confidence 2) [AC930568] (AR v2)
Track 5 accurately ripped (confidence 2) [700A9D1B] (AR v2)
Track 6 accurately ripped (confidence 2) [B48F0B6D] (AR v2)
Track 7 accurately ripped (confidence 2) [18C8C178] (AR v2)
Track 8 accurately ripped (confidence 2) [224FDAC6] (AR v2)
Track 9 accurately ripped (confidence 2) [F2919C33] (AR v2)
Track 10 accurately ripped (confidence 2) [2C965C95] (AR v2)
Track 11 accurately ripped (confidence 2) [F255BF27] (AR v2)
Track 12 accurately ripped (confidence 2) [475CEBE6] (AR v2)
Track 13 accurately ripped (confidence 2) [FD37EFD3] (AR v2)
Track 14 accurately ripped (confidence 1) [F819636F] (AR v2)

All tracks accurately ripped

End of status report

==== Log checksum A930D5861A13F01FAF9028E3BC2811664AEE64E680321EB73B62B5BE8EA188E3 ====


[CUETools log; Date: 14.12.2019 10:59:29; Version: 2.1.4]
[AccurateRip ID: 0024280c-01854af1-a911d30e] found.
Track [ CRC | V2 ] Status
01 [a30cb22e|4e41990f] (007+200/271) Accurately ripped
02 [55b7aa23|c7842f65] (007+200/271) Accurately ripped
03 [6d9f915f|282b19b2] (007+200/270) Accurately ripped
04 [d9d3d09e|ac930568] (007+200/271) Accurately ripped
05 [d0d62e28|700a9d1b] (007+200/271) Accurately ripped
06 [7385ac62|b48f0b6d] (007+200/271) Accurately ripped
07 [98ec52f6|18c8c178] (007+200/271) Accurately ripped
08 [332e201c|224fdac6] (007+200/271) Accurately ripped
09 [dd68381c|f2919c33] (007+200/270) Accurately ripped
10 [c5c9dd27|2c965c95] (007+200/270) Accurately ripped
11 [d5273ea1|f255bf27] (007+200/269) Accurately ripped
12 [9d53554f|475cebe6] (007+200/270) Accurately ripped
13 [05a970a4|fd37efd3] (007+200/270) Accurately ripped
14 [0cf926ad|f819636f] (007+200/269) Accurately ripped
Offsetted by -6:
01 [88f1e6fc] (002/271) Accurately ripped
02 [3e3e52f0] (002/271) Accurately ripped
03 [e662f0aa] (002/270) Accurately ripped
04 [129f5c52] (002/271) Accurately ripped
05 [52221317] (002/271) Accurately ripped
06 [4eec85e0] (002/271) Accurately ripped
07 [6654ccf4] (002/271) Accurately ripped
08 [8b9984ce] (002/271) Accurately ripped
09 [fb7634b5] (002/270) Accurately ripped
10 [4604aab4] (002/270) Accurately ripped
11 [c7d74208] (002/269) Accurately ripped
12 [1ae67144] (002/270) Accurately ripped
13 [72191356] (002/270) Accurately ripped
14 [9f723758] (002/269) Accurately ripped
Offsetted by -42:
01 [1c2f101e] (000/271) No match (V2 was not tested)
02 [d1e0110f] (000/271) No match (V2 was not tested)
03 [cf3de6ea] (000/270) No match (V2 was not tested)
04 [53f90806] (000/271) No match (V2 was not tested)
05 [40bdb554] (000/271) No match (V2 was not tested)
06 [d1d6a83b] (000/271) No match (V2 was not tested)
07 [ee97e694] (000/271) No match (V2 was not tested)
08 [d7b4ceb5] (000/271) No match (V2 was not tested)
09 [a91772db] (000/270) No match (V2 was not tested)
10 [df61f1ed] (000/270) No match (V2 was not tested)
11 [da164244] (000/269) No match (V2 was not tested)
12 [f853b199] (000/270) No match (V2 was not tested)
13 [4973b571] (000/270) No match (V2 was not tested)
14 [c3b9ce7a] (000/269) No match (V2 was not tested)
Offsetted by -12:
01 [2843f806] (000/271) No match (V2 was not tested)
02 [7f33c6c7] (000/271) No match (V2 was not tested)
03 [c1b09809] (000/270) No match (V2 was not tested)
04 [38dc7b72] (000/271) No match (V2 was not tested)
05 [6882962f] (000/271) No match (V2 was not tested)
06 [01631edf] (000/271) No match (V2 was not tested)
07 [c50c5bd7] (000/271) No match (V2 was not tested)
08 [304d7d27] (000/271) No match (V2 was not tested)
09 [ddd77c21] (000/270) No match (V2 was not tested)
10 [14b2fbec] (000/270) No match (V2 was not tested)
11 [74e9baa3] (000/269) No match (V2 was not tested)
12 [d8662652] (000/270) No match (V2 was not tested)
13 [cbb2c64e] (000/270) No match (V2 was not tested)
14 [656220d6] (000/269) No match (V2 was not tested)

Track Peak [ CRC32 ] [W/O NULL] [ LOG ]
– 100,0 [A00F69CD] [651DC3A3] CRC32
01 98,8 [D81CFF31] [B854D254]
02 100,0 [E73AF7E0] [891C9260]
03 99,5 [610EC649] [E940CAB3]
04 99,1 [16617D69] [D9C516BB]
05 99,0 [8D209A80] [BC2B6E5F]
06 98,9 [059DEDB8] [E940B98C]
07 100,0 [E144BEF9] [5F5AD30F]
08 98,9 [6A959146] [86799E4B]
09 100,0 [CD700A10] [AA60834D]
10 99,1 [AE619E2E] [5B5DF11A]
11 100,0 [F5ED3827] [F15E8FBF]
12 99,2 [7EB55A72] [DDE0B9E5]
13 100,0 [42A2E7E9] [EAEE548B]
14 100,0 [539561B5] [18D61BD1]


VA - Crossroads Eric Clapton Guitar Festival (2013) [2CD + 2DVD + 2xBlu-ray]

Tracklist CD2:

01. Sonny Landreth with Derek Trucks - Congo Square - 6:58
02. John Mayer with Doyle Bramhall II - Change It - 4:37
03. Jimmie Vaughan - Ooh-Ooh-Ooh - 4:53
04. Blake Mills with Derek Trucks - Save the Last Dance For Me - 3:31
05. Los Lobos - Don't Worry Baby - 3:42
06. Vince Gill with Albert Lee - I Ain't Living Long Like This - 6:25
07. Taj Mahal with Keb’ Mo’ - Diving Duck Blues - 4:59
08. Gary Clark Jr. - When My Train Pulls In - 9:00
09. Jeff Beck - Mna Na Heireann (Women Of Ireland) - 4:21
10. Allman, Haynes, Trucks - The Needle and the Damage Done - 2:39
11. Allman, Haynes, Trucks - Midnight Rider - 3:33
12. Eric Clapton with Keith Richards - Key To The Highway - 4:35
13. Andy Fairweather Low with Eric Clapton - Gin House Blues - 5:48
14. Eric Clapton - Got To Get Better In A Little While - 6:36
15. Eric Clapton - Sunshine of Your Love - 6:25

Exact Audio Copy V1.0 beta 3 from 29. August 2011

EAC extraction logfile from 7. December 2013, 17:50

Various Artists / Eric Clapton Crossroads Guitar Festival 2013 CD2

Used drive : ATAPI iHAS124 B Adapter: 2 ID: 0

Read mode : Secure
Utilize accurate stream : Yes
Defeat audio cache : Yes
Make use of C2 pointers : No

Read offset correction : 6
Overread into Lead-In and Lead-Out : No
Fill up missing offset samples with silence : Yes
Delete leading and trailing silent blocks : No
Null samples used in CRC calculations : Yes
Used interface : Native Win32 interface for Win NT & 2000

Used output format : User Defined Encoder
Selected bitrate : 1024 kBit/s
Quality : High
Add ID3 tag : No
Command line compressor : C:\Program Files (x86)\Exact Audio Copy\FLAC\FLAC.EXE
Additional command line options : -8 -V -T "ARTIST=%artist%" -T "TITLE=%title%" -T "ALBUM=%albumtitle%" -T "DATE=%year%" -T "TRACKNUMBER=%tracknr%" -T "GENRE=%genre%" -T "PERFORMER=%albuminterpret%" -T "COMPOSER=%composer%" %haslyrics%–tag-from-file=LYRICS="%lyricsfile%"%haslyrics% -T "ALBUMARTIST=%albumartist%" -T "DISCNUMBER=%cdnumber%" -T "TOTALDISCS=%totalcds%" -T "TOTALTRACKS=%numtracks%" -T "COMMENT=%comment%" %source% -o %dest%


TOC of the extracted CD

Track | Start | Length | Start sector | End sector
––––––––––––––––––––––––––––-
1 | 0:00.00 | 6:57.59 | 0 | 31333
2 | 6:57.59 | 4:36.66 | 31334 | 52099
3 | 11:34.50 | 4:52.59 | 52100 | 74058
4 | 16:27.34 | 3:30.53 | 74059 | 89861
5 | 19:58.12 | 3:41.47 | 89862 | 106483
6 | 23:39.59 | 6:25.28 | 106484 | 135386
7 | 30:05.12 | 4:58.49 | 135387 | 157785
8 | 35:03.61 | 9:00.15 | 157786 | 198300
9 | 44:04.01 | 4:21.13 | 198301 | 217888
10 | 48:25.14 | 2:38.56 | 217889 | 229794
11 | 51:03.70 | 3:33.05 | 229795 | 245774
12 | 54:37.00 | 4:35.17 | 245775 | 266416
13 | 59:12.17 | 5:48.30 | 266417 | 292546
14 | 65:00.47 | 6:35.51 | 292547 | 322222
15 | 71:36.23 | 6:24.49 | 322223 | 351071


Range status and errors

Selected range

Filename G:\CD\VA - Eric Clapton Crossroads Guitar Festival 2013 CD2.wav

Peak level 100.0 %
Extraction speed 6.8 X
Range quality 100.0 %
Test CRC 2F571F08
Copy CRC 2F571F08
Copy OK

No errors occurred


AccurateRip summary

Track 1 accurately ripped (confidence 1) [2F8D5C62] (AR v1)
Track 2 accurately ripped (confidence 1) [43858B7C] (AR v1)
Track 3 accurately ripped (confidence 1) [72B0734E] (AR v1)
Track 4 accurately ripped (confidence 1) [DEF8D7A3] (AR v1)
Track 5 accurately ripped (confidence 1) [ABEBBAB1] (AR v1)
Track 6 accurately ripped (confidence 1) [53B51B19] (AR v1)
Track 7 accurately ripped (confidence 1) [796FCF42] (AR v1)
Track 8 accurately ripped (confidence 1) [68DF2D97] (AR v1)
Track 9 accurately ripped (confidence 1) [42F95AD9] (AR v1)
Track 10 accurately ripped (confidence 1) [90A4F472] (AR v1)
Track 11 accurately ripped (confidence 1) [FF572701] (AR v1)
Track 12 accurately ripped (confidence 1) [F7F4E947] (AR v1)
Track 13 accurately ripped (confidence 1) [A10CA5F5] (AR v1)
Track 14 accurately ripped (confidence 1) [061F2D8B] (AR v1)
Track 15 accurately ripped (confidence 1) [B720C4D6] (AR v1)

All tracks accurately ripped

End of status report

==== Log checksum C77FD2ADDF7D5B93BC5C3F01CB9AAF6198070BAF9F376DD9980082768EB4C57C ====


[CUETools log; Date: 14.12.2019 11:03:04; Version: 2.1.4]
[AccurateRip ID: 002a4857-01dd0b94-df12480f] found.
Track [ CRC | V2 ] Status
01 [2f8d5c62|f24b08fb] (009+199/302) Accurately ripped
02 [43858b7c|dc1f8df7] (009+199/301) Accurately ripped
03 [72b0734e|5bd8510f] (009+198/301) Accurately ripped
04 [def8d7a3|08cd36b5] (009+199/302) Accurately ripped
05 [abebbab1|2ba34c67] (009+200/303) Accurately ripped
06 [53b51b19|f8b5f151] (009+200/303) Accurately ripped
07 [796fcf42|1999c647] (009+199/298) Accurately ripped
08 [68df2d97|ea013ed9] (009+200/302) Accurately ripped
09 [42f95ad9|fd79ec7f] (009+198/300) Accurately ripped
10 [90a4f472|bfd39fd5] (009+200/302) Accurately ripped
11 [ff572701|4a81a966] (009+200/302) Accurately ripped
12 [f7f4e947|d5a0148f] (009+199/301) Accurately ripped
13 [a10ca5f5|c66eafec] (009+200/302) Accurately ripped
14 [061f2d8b|7eede680] (009+199/300) Accurately ripped
15 [b720c4d6|806a8051] (008+196/294) Accurately ripped
Offsetted by -6:
01 [766fc3aa] (004/302) Accurately ripped
02 [9f09fdcc] (004/301) Accurately ripped
03 [00600408] (004/301) Accurately ripped
04 [bd0e89ab] (004/302) Accurately ripped
05 [ec1a85d5] (004/303) Accurately ripped
06 [c8a20969] (004/303) Accurately ripped
07 [594bde72] (004/298) Accurately ripped
08 [9b698bff] (004/302) Accurately ripped
09 [84f1e82e] (004/300) Accurately ripped
10 [b5606d2c] (004/302) Accurately ripped
11 [c2aec4f2] (004/302) Accurately ripped
12 [7c49ff00] (004/301) Accurately ripped
13 [453b293b] (004/302) Accurately ripped
14 [09c2bc5b] (004/300) Accurately ripped
15 [4083898c] (004/294) Accurately ripped
Offsetted by -12:
01 [3b6ee674] (000/302) No match (V2 was not tested)
02 [6e0f9d53] (000/301) No match (V2 was not tested)
03 [e37ff895] (000/301) No match (V2 was not tested)
04 [53434d53] (000/302) No match (V2 was not tested)
05 [49cae468] (000/303) No match (V2 was not tested)
06 [7315377e] (000/303) No match (V2 was not tested)
07 [871333f1] (000/298) No match (V2 was not tested)
08 [2cbc881e] (000/302) No match (V2 was not tested)
09 [480cee00] (000/300) No match (V2 was not tested)
10 [fc98067b] (000/302) No match (V2 was not tested)
11 [47d82085] (000/302) No match (V2 was not tested)
12 [1034cfad] (000/301) No match (V2 was not tested)
13 [74e9b6ac] (000/302) No match (V2 was not tested)
14 [050102f0] (000/300) No match (V2 was not tested)
15 [361437e2] (000/294) No match (V2 was not tested)

Track Peak [ CRC32 ] [W/O NULL] [ LOG ]
– 100,0 [2F571F08] [2D55DF05] CRC32
01 99,6 [3AE42E56] [86A17123]
02 97,9 [97E81092] [8CB346F4]
03 100,0 [9FA4DC68] [0752DF0C]
04 98,8 [B5D0738F] [B0691C5A]
05 95,0 [FEF3FE2A] [8E1E2CDE]
06 99,1 [B07F8703] [5BD9C6E7]
07 98,9 [7DC8B7C0] [0DDBD817]
08 99,7 [37C85DB3] [A09541AF]
09 99,0 [0A313C4D] [D28F171A]
10 98,9 [0EDBDDD5] [607205FA]
11 98,8 [3B20133D] [86848899]
12 99,6 [DC42D9BD] [2D71EAD5]
13 100,0 [461E1695] [F089E8D5]
14 100,0 [D0A82C89] [D861DC7F]
15 100,0 [741DE5FB] [A2D4748F]


Tracklist DVD1:

01. Tears In Heaven - Eric Clapton
02. Spider Jiving - Eric Clapton with Andy Fairweather Low
03. Lay Down Sally - Eric Clapton with Vince Gill
04. Time Is Tight - Booker T. with Steve Cropper
05. Born Under A Bad Sign - Booker T. with Steve Cropper, Keb Mo , Blake Mills, Matt Guitar Murphy & Albert Lee
06. Green Onions - Booker T. with Steve Cropper, Keb Mo , Blake Mills, Matt Guitar Murphy & Albert Lee
07. Great Big Old House - The Robert Cray Band
08. Everyday I Have The Blues - The Robert Cray Band with B.B. King, Eric Clapton & Jimmie Vaughan
09. Next Of Kindred Spirit - Sonny Landreth
10. Cry - Doyle Bramhall II with Alice Smith
11. Bullet And A Target - Doyle Bramhall II with Citizen Cope
12. She s Alright - Doyle Bramhall II with Gary Clark Jr.
13. This Time - Earl Klugh
14. Mirabella - Earl Klugh
15. Heavenly Bodies - Kurt Rosenwinkel
16. Big Road Blues - Kurt Rosenwinkel with Eric Clapton
17. Next Door Neighbor Blues - Gary Clark Jr.
18. Queen Of California - John Mayer
19. Don t Let Me Down - John Mayer with Keith Urban
20. Damn Right, I ve Got The Blues - Buddy Guy with Robert Randolph & Quinn Sullivan
21. Why Does Love Got To Be So Sad - The Allman Brothers Band with Eric Clapton
22. Whipping Post - The Allman Brothers Band

Title: Crossroads Guitar Festival Eric Clapton - DVD1
Size: 7.40 Gb ( 7 763 732,00 KBytes ) - DVD-9
Enabled regions: 1, 2, 3, 4, 5, 6, 7, 8

VTS_01 :
Play Length: 02:16:38+{02:16:38}
Video: NTSC 16:9 (720x480) VBR, Auto Letterboxed
Audio:
Not specified (LinearPCM, 2 ch)
Not specified (DTS, 6 ch)


Tracklist DVD2:

01. Congo Square - Sonny Landreth with Derek Trucks
02. Change It - John Mayer with Doyle Bramhall II
03. Ooh-Ooh-Ooh - Jimmie Vaughan
04. Save The Last Dance For Me - Blake Mills with Derek Trucks
05. I Got To Let You Know - Los Lobos with Robert Cray
06. Don t Worry Baby - Los Lobos
07. The Needle And The Damage Done - Allman, Haynes, Trucks
08. Midnight Rider - Allman, Haynes, Trucks
09. I Ain t Living Long Like This - Vince Gill with Albert Lee
10. Tumbling Dice Vince Gill with Keith Urban & Albert Lee
11. Walkin Blues - Taj Mahal with Keb Mo
12. Diving Duck Blues - Taj Mahal with Keb Mo
13. When My Train Pulls In - Gary Clark Jr.
14. Please Come Home - Gary Clark Jr.
15. Going Down - Jeff Beck with Beth Hart
16. Mnб Na Hйireann - Jeff Beck
17. Key To The Highway Eric Clapton with Keith Richards
18. I Shall Be Released - Eric Clapton with Robbie Robertson
19. Gin House Blues - Andy Fairweather Low with Eric Clapton
20. Got To Get Better In A Little While - Eric Clapton
21. Crossroads - Eric Clapton
22. Sunshine Of Your Love - Eric Clapton
23. High Time We Went - Ensemble

Title: Crossroads Guitar Festival Eric Clapton - DVD2
Size: 7.64 Gb ( 8 015 702,00 KBytes ) - DVD-9
Enabled regions: 1, 2, 3, 4, 5, 6, 7, 8

VTS_01 :
Play Length: 02:32:13+{02:32:13}
Video: NTSC 16:9 (720x480) VBR, Auto Letterboxed
Audio:
Not specified (LinearPCM, 2 ch)
Not specified (DTS, 6 ch)

VTS_02 :
Play Length: 00:00:07+{00:00:07}
Video: NTSC 16:9 (720x480) VBR, Auto Letterboxed
Audio:
Not specified (Dolby AC3, 2 ch)


VA - Crossroads Eric Clapton Guitar Festival (2013) [2CD + 2DVD + 2xBlu-ray]

Tracklist BD1:

1. Tears In Heaven - Eric Clapton
2. Spider Jiving - Eric Clapton with Andy Fairweather Low
3. Lay Down Sally - Eric Clapton with Vince Gill
4. Time Is Tight - Booker T. with Steve Cropper
5. Born Under A Bad Sign - Booker T. with Steve Cropper, Keb Mo , Blake Mills, Matt Guitar Murphy & Albert Lee
6. Green Onions - Booker T. with Steve Cropper, Keb Mo , Blake Mills, Matt Guitar Murphy & Albert Lee
7. Great Big Old House - The Robert Cray Band
8. Everyday I Have The Blues - The Robert Cray Band with B.B. King, Eric Clapton & Jimmie Vaughan
9. Next Of Kindred Spirit - Sonny Landreth
10. Cry - Doyle Bramhall II with Alice Smith
11. Bullet And A Target - Doyle Bramhall II with Citizen Cope
12. She s Alright - Doyle Bramhall II with Gary Clark Jr.
13. This Time - Earl Klugh
14. Mirabella - Earl Klugh
15. Heavenly Bodies - Kurt Rosenwinkel
16. Big Road Blues - Kurt Rosenwinkel with Eric Clapton
17. Next Door Neighbor Blues - Gary Clark Jr.
18. Queen Of California - John Mayer
19. Don t Let Me Down John Mayer with Keith Urban
20. Damn Right, I ve Got The Blues - Buddy Guy with Robert Randolph & Quinn Sullivan
21. Why Does Love Got To Be So Sad - The Allman Brothers Band with Eric Clapton
22. Whipping Post - The Allman Brothers Band

Disc Title: Crossroads Guitar Festival Eric Clapton - BD1
Disc Size: 44 280 053 063 bytes
Protection: AACS
BD-Java: Yes
BDInfo: 0.7.3.3

Notes:

BDINFO HOME:
Cinema Squid
http://www.cinemasquid.com/blu-ray/tools/bdinfo

INCLUDES FORUMS REPORT FOR:
AVS Forum Blu-ray Audio and Video Specifications Thread
http://www.avsforum.com/avs-vb/showthread.php?t=1155731

WARNING: Report is incomplete because: Scan has not been run.

********************
PLAYLIST: 00001.MPLS
********************

<–- BEGIN FORUMS PASTE –->
                                                                                                                Total   Video                                             
Title                                                           Codec   Length  Movie Size      Disc Size       Bitrate Bitrate Main Audio Track                          Secondary Audio Track
-----                                                           ------  ------- --------------  --------------  ------- ------- ------------------                        ---------------------
00001.MPLS                                                      AVC     2:16:47 0               44 280 053 063  0,00    0,00    LPCM 2.0 2304Kbps (48kHz/24-bit)          DTS-HD Master 5.1 (48kHz/24-bit)


DISC INFO:

Disc Title:     Crossroads Guitar Festival Eric Clapton - BD1
Disc Size:      44 280 053 063 bytes
Protection:     AACS
BD-Java:        Yes
BDInfo:         0.7.3.3

PLAYLIST REPORT:

Name:                   00001.MPLS
Length:                 2:16:47.240 (h:m:s.ms)
Size:                   0 bytes
Total Bitrate:          0,00 Mbps

VIDEO:

Codec                   Bitrate             Description     
-----                   -------             -----------     
MPEG-4 AVC Video        0 kbps              1080p / 23,976 fps / 16:9 / High Profile 4.1

AUDIO:

Codec                           Language        Bitrate         Description     
-----                           --------        -------         -----------     
LPCM Audio                      English         2304 kbps       2.0 / 48 kHz / 2304 kbps / 24-bit
DTS-HD Master Audio             English         0 kbps          5.1 / 48 kHz / 24-bit (DTS Core: 5.1 / 48 kHz / 1509 kbps / 24-bit)

FILES:

Name            Time In         Length          Size            Total Bitrate   
----            -------         ------          ----            -------------   
00001.M2TS      0:00:00.000     2:16:47.240     0               0               

CHAPTERS:

Number          Time In         Length          Avg Video Rate  Max 1-Sec Rate  Max 1-Sec Time  Max 5-Sec Rate  Max 5-Sec Time  Max 10Sec Rate  Max 10Sec Time  Avg Frame Size  Max Frame Size  Max Frame Time  
------          -------         ------          --------------  --------------  --------------  --------------  --------------  --------------  --------------  --------------  --------------  --------------  
1               0:00:00.000     2:16:47.240     0 kbps          0 kbps          00:00:00.000    0 kbps          00:00:00.000    0 kbps          00:00:00.000    0 bytes         0 bytes         00:00:00.000    

STREAM DIAGNOSTICS:

File            PID             Type            Codec           Language                Seconds                 Bitrate                 Bytes           Packets         
----            ---             ----            -----           --------                --------------          --------------          -------------   -----           
00001.M2TS      4113 (0x1011)   0x1B            AVC                                     0,667                   0                       0               0               
00001.M2TS      4352 (0x1100)   0x80            LPCM            eng (English)           0,667                   0                       0               0               
00001.M2TS      4353 (0x1101)   0x86            DTS-HD MA       eng (English)           0,667                   0                       0               0               

<–– END FORUMS PASTE ––>

QUICK SUMMARY:

Disc Title: Crossroads Guitar Festival Eric Clapton - BD1
Disc Size: 44 280 053 063 bytes
Protection: AACS
BD-Java: Yes
Playlist: 00001.MPLS
Size: 0 bytes
Length: 2:16:47.240
Total Bitrate: 0,00 Mbps
Video: MPEG-4 AVC Video / 0 kbps / 1080p / 23,976 fps / 16:9 / High Profile 4.1
Audio: English / LPCM Audio / 2.0 / 48 kHz / 2304 kbps / 24-bit
Audio: English / DTS-HD Master Audio / 5.1 / 48 kHz / 24-bit (DTS Core: 5.1 / 48 kHz / 1509 kbps / 24-bit)


********************
PLAYLIST: 01001.MPLS
********************

<–- BEGIN FORUMS PASTE –->
                                                                                                                Total   Video                                             
Title                                                           Codec   Length  Movie Size      Disc Size       Bitrate Bitrate Main Audio Track                          Secondary Audio Track
-----                                                           ------  ------- --------------  --------------  ------- ------- ------------------                        ---------------------
01001.MPLS                                                      AVC     2:16:47 0               44 280 053 063  0,00    0,00    LPCM 2.0 2304Kbps (48kHz/24-bit)          DTS-HD Master 5.1 (48kHz/24-bit)


DISC INFO:

Disc Title:     Crossroads Guitar Festival Eric Clapton - BD1
Disc Size:      44 280 053 063 bytes
Protection:     AACS
BD-Java:        Yes
BDInfo:         0.7.3.3

PLAYLIST REPORT:

Name:                   01001.MPLS
Length:                 2:16:47.240 (h:m:s.ms)
Size:                   0 bytes
Total Bitrate:          0,00 Mbps

VIDEO:

Codec                   Bitrate             Description     
-----                   -------             -----------     
MPEG-4 AVC Video        0 kbps              1080p / 23,976 fps / 16:9 / High Profile 4.1

AUDIO:

Codec                           Language        Bitrate         Description     
-----                           --------        -------         -----------     
LPCM Audio                      English         2304 kbps       2.0 / 48 kHz / 2304 kbps / 24-bit
DTS-HD Master Audio             English         0 kbps          5.1 / 48 kHz / 24-bit (DTS Core: 5.1 / 48 kHz / 1509 kbps / 24-bit)

FILES:

Name            Time In         Length          Size            Total Bitrate   
----            -------         ------          ----            -------------   
00001.M2TS      0:00:00.000     2:16:47.240     0               0               

CHAPTERS:

Number          Time In         Length          Avg Video Rate  Max 1-Sec Rate  Max 1-Sec Time  Max 5-Sec Rate  Max 5-Sec Time  Max 10Sec Rate  Max 10Sec Time  Avg Frame Size  Max Frame Size  Max Frame Time  
------          -------         ------          --------------  --------------  --------------  --------------  --------------  --------------  --------------  --------------  --------------  --------------  
1               0:00:00.000     0:03:07.020     0 kbps          0 kbps          00:00:00.000    0 kbps          00:00:00.000    0 kbps          00:00:00.000    0 bytes         0 bytes         00:00:00.000    
2               0:03:07.020     0:04:55.962     0 kbps          0 kbps          00:00:00.000    0 kbps          00:00:00.000    0 kbps          00:00:00.000    0 bytes         0 bytes         00:00:00.000    
3               0:08:02.982     0:04:04.410     0 kbps          0 kbps          00:00:00.000    0 kbps          00:00:00.000    0 kbps          00:00:00.000    0 bytes         0 bytes         00:00:00.000    
4               0:12:07.393     0:04:48.579     0 kbps          0 kbps          00:00:00.000    0 kbps          00:00:00.000    0 kbps          00:00:00.000    0 bytes         0 bytes         00:00:00.000    
5               0:16:55.973     0:03:47.810     0 kbps          0 kbps          00:00:00.000    0 kbps          00:00:00.000    0 kbps          00:00:00.000    0 bytes         0 bytes         00:00:00.000    
6               0:20:43.784     0:05:26.200     0 kbps          0 kbps          00:00:00.000    0 kbps          00:00:00.000    0 kbps          00:00:00.000    0 bytes         0 bytes         00:00:00.000    
7               0:26:09.985     0:05:58.983     0 kbps          0 kbps          00:00:00.000    0 kbps          00:00:00.000    0 kbps          00:00:00.000    0 bytes         0 bytes         00:00:00.000    
8               0:32:08.968     0:06:45.363     0 kbps          0 kbps          00:00:00.000    0 kbps          00:00:00.000    0 kbps          00:00:00.000    0 bytes         0 bytes         00:00:00.000    
9               0:38:54.332     0:07:19.647     0 kbps          0 kbps          00:00:00.000    0 kbps          00:00:00.000    0 kbps          00:00:00.000    0 bytes         0 bytes         00:00:00.000    
10              0:46:13.979     0:04:22.011     0 kbps          0 kbps          00:00:00.000    0 kbps          00:00:00.000    0 kbps          00:00:00.000    0 bytes         0 bytes         00:00:00.000    
11              0:50:35.991     0:07:08.970     0 kbps          0 kbps          00:00:00.000    0 kbps          00:00:00.000    0 kbps          00:00:00.000    0 bytes         0 bytes         00:00:00.000    
12              0:57:44.961     0:06:27.011     0 kbps          0 kbps          00:00:00.000    0 kbps          00:00:00.000    0 kbps          00:00:00.000    0 bytes         0 bytes         00:00:00.000    
13              1:04:11.973     0:06:57.041     0 kbps          0 kbps          00:00:00.000    0 kbps          00:00:00.000    0 kbps          00:00:00.000    0 bytes         0 bytes         00:00:00.000    
14              1:11:09.014     0:02:13.967     0 kbps          0 kbps          00:00:00.000    0 kbps          00:00:00.000    0 kbps          00:00:00.000    0 bytes         0 bytes         00:00:00.000    
15              1:13:22.981     0:01:25.001     0 kbps          0 kbps          00:00:00.000    0 kbps          00:00:00.000    0 kbps          00:00:00.000    0 bytes         0 bytes         00:00:00.000    
16              1:14:47.983     0:06:03.196     0 kbps          0 kbps          00:00:00.000    0 kbps          00:00:00.000    0 kbps          00:00:00.000    0 bytes         0 bytes         00:00:00.000    
17              1:20:51.179     0:05:21.821     0 kbps          0 kbps          00:00:00.000    0 kbps          00:00:00.000    0 kbps          00:00:00.000    0 bytes         0 bytes         00:00:00.000    
18              1:26:13.001     0:04:11.000     0 kbps          0 kbps          00:00:00.000    0 kbps          00:00:00.000    0 kbps          00:00:00.000    0 bytes         0 bytes         00:00:00.000    
19              1:30:24.001     0:09:10.007     0 kbps          0 kbps          00:00:00.000    0 kbps          00:00:00.000    0 kbps          00:00:00.000    0 bytes         0 bytes         00:00:00.000    
20              1:39:34.009     0:08:01.981     0 kbps          0 kbps          00:00:00.000    0 kbps          00:00:00.000    0 kbps          00:00:00.000    0 bytes         0 bytes         00:00:00.000    
21              1:47:35.991     0:07:00.336     0 kbps          0 kbps          00:00:00.000    0 kbps          00:00:00.000    0 kbps          00:00:00.000    0 bytes         0 bytes         00:00:00.000    
22              1:54:36.327     0:08:50.655     0 kbps          0 kbps          00:00:00.000    0 kbps          00:00:00.000    0 kbps          00:00:00.000    0 bytes         0 bytes         00:00:00.000    
23              2:03:26.982     0:13:18.172     0 kbps          0 kbps          00:00:00.000    0 kbps          00:00:00.000    0 kbps          00:00:00.000    0 bytes         0 bytes         00:00:00.000    
24              2:16:45.155     0:00:02.085     0 kbps          0 kbps          00:00:00.000    0 kbps          00:00:00.000    0 kbps          00:00:00.000    0 bytes         0 bytes         00:00:00.000    

STREAM DIAGNOSTICS:

File            PID             Type            Codec           Language                Seconds                 Bitrate                 Bytes           Packets         
----            ---             ----            -----           --------                --------------          --------------          -------------   -----           
00001.M2TS      4113 (0x1011)   0x1B            AVC                                     0,667                   0                       0               0               
00001.M2TS      4352 (0x1100)   0x80            LPCM            eng (English)           0,667                   0                       0               0               
00001.M2TS      4353 (0x1101)   0x86            DTS-HD MA       eng (English)           0,667                   0                       0               0               

<–– END FORUMS PASTE ––>

QUICK SUMMARY:

Disc Title: Crossroads Guitar Festival Eric Clapton - BD1
Disc Size: 44 280 053 063 bytes
Protection: AACS
BD-Java: Yes
Playlist: 01001.MPLS
Size: 0 bytes
Length: 2:16:47.240
Total Bitrate: 0,00 Mbps
Video: MPEG-4 AVC Video / 0 kbps / 1080p / 23,976 fps / 16:9 / High Profile 4.1
Audio: English / LPCM Audio / 2.0 / 48 kHz / 2304 kbps / 24-bit
Audio: English / DTS-HD Master Audio / 5.1 / 48 kHz / 24-bit (DTS Core: 5.1 / 48 kHz / 1509 kbps / 24-bit)


********************
PLAYLIST: 01002.MPLS
********************

<–- BEGIN FORUMS PASTE –->
                                                                                                                Total   Video                                             
Title                                                           Codec   Length  Movie Size      Disc Size       Bitrate Bitrate Main Audio Track                          Secondary Audio Track
-----                                                           ------  ------- --------------  --------------  ------- ------- ------------------                        ---------------------
01002.MPLS                                                      AVC     2:16:47 0               44 280 053 063  0,00    0,00    LPCM 2.0 2304Kbps (48kHz/24-bit)          DTS-HD Master 5.1 (48kHz/24-bit)


DISC INFO:

Disc Title:     Crossroads Guitar Festival Eric Clapton - BD1
Disc Size:      44 280 053 063 bytes
Protection:     AACS
BD-Java:        Yes
BDInfo:         0.7.3.3

PLAYLIST REPORT:

Name:                   01002.MPLS
Length:                 2:16:47.240 (h:m:s.ms)
Size:                   0 bytes
Total Bitrate:          0,00 Mbps

VIDEO:

Codec                   Bitrate             Description     
-----                   -------             -----------     
MPEG-4 AVC Video        0 kbps              1080p / 23,976 fps / 16:9 / High Profile 4.1

AUDIO:

Codec                           Language        Bitrate         Description     
-----                           --------        -------         -----------     
LPCM Audio                      English         2304 kbps       2.0 / 48 kHz / 2304 kbps / 24-bit
DTS-HD Master Audio             English         0 kbps          5.1 / 48 kHz / 24-bit (DTS Core: 5.1 / 48 kHz / 1509 kbps / 24-bit)

FILES:

Name            Time In         Length          Size            Total Bitrate   
----            -------         ------          ----            -------------   
00001.M2TS      0:00:00.000     2:16:47.240     0               0               

CHAPTERS:

Number          Time In         Length          Avg Video Rate  Max 1-Sec Rate  Max 1-Sec Time  Max 5-Sec Rate  Max 5-Sec Time  Max 10Sec Rate  Max 10Sec Time  Avg Frame Size  Max Frame Size  Max Frame Time  
------          -------         ------          --------------  --------------  --------------  --------------  --------------  --------------  --------------  --------------  --------------  --------------  
1               0:00:00.000     0:03:07.020     0 kbps          0 kbps          00:00:00.000    0 kbps          00:00:00.000    0 kbps          00:00:00.000    0 bytes         0 bytes         00:00:00.000    
2               0:03:07.020     0:04:55.962     0 kbps          0 kbps          00:00:00.000    0 kbps          00:00:00.000    0 kbps          00:00:00.000    0 bytes         0 bytes         00:00:00.000    
3               0:08:02.982     0:04:04.410     0 kbps          0 kbps          00:00:00.000    0 kbps          00:00:00.000    0 kbps          00:00:00.000    0 bytes         0 bytes         00:00:00.000    
4               0:12:07.393     0:04:48.579     0 kbps          0 kbps          00:00:00.000    0 kbps          00:00:00.000    0 kbps          00:00:00.000    0 bytes         0 bytes         00:00:00.000    
5               0:16:55.973     0:03:47.810     0 kbps          0 kbps          00:00:00.000    0 kbps          00:00:00.000    0 kbps          00:00:00.000    0 bytes         0 bytes         00:00:00.000    
6               0:20:43.784     0:05:26.200     0 kbps          0 kbps          00:00:00.000    0 kbps          00:00:00.000    0 kbps          00:00:00.000    0 bytes         0 bytes         00:00:00.000    
7               0:26:09.985     0:05:58.983     0 kbps          0 kbps          00:00:00.000    0 kbps          00:00:00.000    0 kbps          00:00:00.000    0 bytes         0 bytes         00:00:00.000    
8               0:32:08.968     0:06:45.363     0 kbps          0 kbps          00:00:00.000    0 kbps          00:00:00.000    0 kbps          00:00:00.000    0 bytes         0 bytes         00:00:00.000    
9               0:38:54.332     0:07:19.647     0 kbps          0 kbps          00:00:00.000    0 kbps          00:00:00.000    0 kbps          00:00:00.000    0 bytes         0 bytes         00:00:00.000    
10              0:46:13.979     0:04:22.011     0 kbps          0 kbps          00:00:00.000    0 kbps          00:00:00.000    0 kbps          00:00:00.000    0 bytes         0 bytes         00:00:00.000    
11              0:50:35.991     0:07:08.970     0 kbps          0 kbps          00:00:00.000    0 kbps          00:00:00.000    0 kbps          00:00:00.000    0 bytes         0 bytes         00:00:00.000    
12              0:57:44.961     0:06:27.011     0 kbps          0 kbps          00:00:00.000    0 kbps          00:00:00.000    0 kbps          00:00:00.000    0 bytes         0 bytes         00:00:00.000    
13              1:04:11.973     0:06:57.041     0 kbps          0 kbps          00:00:00.000    0 kbps          00:00:00.000    0 kbps          00:00:00.000    0 bytes         0 bytes         00:00:00.000    
14              1:11:09.014     0:02:13.967     0 kbps          0 kbps          00:00:00.000    0 kbps          00:00:00.000    0 kbps          00:00:00.000    0 bytes         0 bytes         00:00:00.000    
15              1:13:22.981     0:01:25.001     0 kbps          0 kbps          00:00:00.000    0 kbps          00:00:00.000    0 kbps          00:00:00.000    0 bytes         0 bytes         00:00:00.000    
16              1:14:47.983     0:06:03.196     0 kbps          0 kbps          00:00:00.000    0 kbps          00:00:00.000    0 kbps          00:00:00.000    0 bytes         0 bytes         00:00:00.000    
17              1:20:51.179     0:05:21.821     0 kbps          0 kbps          00:00:00.000    0 kbps          00:00:00.000    0 kbps          00:00:00.000    0 bytes         0 bytes         00:00:00.000    
18              1:26:13.001     0:04:11.000     0 kbps          0 kbps          00:00:00.000    0 kbps          00:00:00.000    0 kbps          00:00:00.000    0 bytes         0 bytes         00:00:00.000    
19              1:30:24.001     0:09:10.007     0 kbps          0 kbps          00:00:00.000    0 kbps          00:00:00.000    0 kbps          00:00:00.000    0 bytes         0 bytes         00:00:00.000    
20              1:39:34.009     0:08:01.981     0 kbps          0 kbps          00:00:00.000    0 kbps          00:00:00.000    0 kbps          00:00:00.000    0 bytes         0 bytes         00:00:00.000    
21              1:47:35.991     0:07:00.336     0 kbps          0 kbps          00:00:00.000    0 kbps          00:00:00.000    0 kbps          00:00:00.000    0 bytes         0 bytes         00:00:00.000    
22              1:54:36.327     0:08:50.655     0 kbps          0 kbps          00:00:00.000    0 kbps          00:00:00.000    0 kbps          00:00:00.000    0 bytes         0 bytes         00:00:00.000    
23              2:03:26.982     0:13:18.172     0 kbps          0 kbps          00:00:00.000    0 kbps          00:00:00.000    0 kbps          00:00:00.000    0 bytes         0 bytes         00:00:00.000    
24              2:16:45.155     0:00:02.085     0 kbps          0 kbps          00:00:00.000    0 kbps          00:00:00.000    0 kbps          00:00:00.000    0 bytes         0 bytes         00:00:00.000    

STREAM DIAGNOSTICS:

File            PID             Type            Codec           Language                Seconds                 Bitrate                 Bytes           Packets         
----            ---             ----            -----           --------                --------------          --------------          -------------   -----           
00001.M2TS      4113 (0x1011)   0x1B            AVC                                     0,667                   0                       0               0               
00001.M2TS      4352 (0x1100)   0x80            LPCM            eng (English)           0,667                   0                       0               0               
00001.M2TS      4353 (0x1101)   0x86            DTS-HD MA       eng (English)           0,667                   0                       0               0               

<–– END FORUMS PASTE ––>

QUICK SUMMARY:

Disc Title: Crossroads Guitar Festival Eric Clapton - BD1
Disc Size: 44 280 053 063 bytes
Protection: AACS
BD-Java: Yes
Playlist: 01002.MPLS
Size: 0 bytes
Length: 2:16:47.240
Total Bitrate: 0,00 Mbps
Video: MPEG-4 AVC Video / 0 kbps / 1080p / 23,976 fps / 16:9 / High Profile 4.1
Audio: English / LPCM Audio / 2.0 / 48 kHz / 2304 kbps / 24-bit
Audio: English / DTS-HD Master Audio / 5.1 / 48 kHz / 24-bit (DTS Core: 5.1 / 48 kHz / 1509 kbps / 24-bit)


********************
PLAYLIST: 00000.MPLS
********************

<–- BEGIN FORUMS PASTE –->
                                                                                                                Total   Video                                             
Title                                                           Codec   Length  Movie Size      Disc Size       Bitrate Bitrate Main Audio Track                          Secondary Audio Track
-----                                                           ------  ------- --------------  --------------  ------- ------- ------------------                        ---------------------
00000.MPLS                                                      AVC     0:02:01 0               44 280 053 063  0,00    0,00    LPCM 2.0 2304Kbps (48kHz/24-bit)          LPCM 2.0 2304Kbps (48kHz/24-bit)


DISC INFO:

Disc Title:     Crossroads Guitar Festival Eric Clapton - BD1
Disc Size:      44 280 053 063 bytes
Protection:     AACS
BD-Java:        Yes
BDInfo:         0.7.3.3

PLAYLIST REPORT:

Name:                   00000.MPLS
Length:                 0:02:01.037 (h:m:s.ms)
Size:                   0 bytes
Total Bitrate:          0,00 Mbps

VIDEO:

Codec                   Bitrate             Description     
-----                   -------             -----------     
MPEG-4 AVC Video        0 kbps              1080p / 23,976 fps / 16:9 / High Profile 4.1

AUDIO:

Codec                           Language        Bitrate         Description     
-----                           --------        -------         -----------     
LPCM Audio                      English         2304 kbps       2.0 / 48 kHz / 2304 kbps / 24-bit
LPCM Audio                      English         2304 kbps       2.0 / 48 kHz / 2304 kbps / 24-bit

FILES:

Name            Time In         Length          Size            Total Bitrate   
----            -------         ------          ----            -------------   
00000.M2TS      0:00:00.000     0:02:01.037     0               0               

CHAPTERS:

Number          Time In         Length          Avg Video Rate  Max 1-Sec Rate  Max 1-Sec Time  Max 5-Sec Rate  Max 5-Sec Time  Max 10Sec Rate  Max 10Sec Time  Avg Frame Size  Max Frame Size  Max Frame Time  
------          -------         ------          --------------  --------------  --------------  --------------  --------------  --------------  --------------  --------------  --------------  --------------  
1               0:00:00.000     0:02:01.037     0 kbps          0 kbps          00:00:00.000    0 kbps          00:00:00.000    0 kbps          00:00:00.000    0 bytes         0 bytes         00:00:00.000    

STREAM DIAGNOSTICS:

File            PID             Type            Codec           Language                Seconds                 Bitrate                 Bytes           Packets         
----            ---             ----            -----           --------                --------------          --------------          -------------   -----           
00000.M2TS      4113 (0x1011)   0x1B            AVC                                     0,125                   0                       0               0               
00000.M2TS      4352 (0x1100)   0x80            LPCM            eng (English)           0,125                   0                       0               0               
00000.M2TS      4353 (0x1101)   0x80            LPCM            eng (English)           0,125                   0                       0               0               

<–– END FORUMS PASTE ––>

QUICK SUMMARY:

Disc Title: Crossroads Guitar Festival Eric Clapton - BD1
Disc Size: 44 280 053 063 bytes
Protection: AACS
BD-Java: Yes
Playlist: 00000.MPLS
Size: 0 bytes
Length: 0:02:01.037
Total Bitrate: 0,00 Mbps
Video: MPEG-4 AVC Video / 0 kbps / 1080p / 23,976 fps / 16:9 / High Profile 4.1
Audio: English / LPCM Audio / 2.0 / 48 kHz / 2304 kbps / 24-bit
Audio: English / LPCM Audio / 2.0 / 48 kHz / 2304 kbps / 24-bit


********************
PLAYLIST: 01000.MPLS
********************

<–- BEGIN FORUMS PASTE –->
                                                                                                                Total   Video                                             
Title                                                           Codec   Length  Movie Size      Disc Size       Bitrate Bitrate Main Audio Track                          Secondary Audio Track
-----                                                           ------  ------- --------------  --------------  ------- ------- ------------------                        ---------------------
01000.MPLS                                                      AVC     0:02:01 0               44 280 053 063  0,00    0,00    LPCM 2.0 2304Kbps (48kHz/24-bit)          LPCM 2.0 2304Kbps (48kHz/24-bit)


DISC INFO:

Disc Title:     Crossroads Guitar Festival Eric Clapton - BD1
Disc Size:      44 280 053 063 bytes
Protection:     AACS
BD-Java:        Yes
BDInfo:         0.7.3.3

PLAYLIST REPORT:

Name:                   01000.MPLS
Length:                 0:02:01.037 (h:m:s.ms)
Size:                   0 bytes
Total Bitrate:          0,00 Mbps

VIDEO:

Codec                   Bitrate             Description     
-----                   -------             -----------     
MPEG-4 AVC Video        0 kbps              1080p / 23,976 fps / 16:9 / High Profile 4.1

AUDIO:

Codec                           Language        Bitrate         Description     
-----                           --------        -------         -----------     
LPCM Audio                      English         2304 kbps       2.0 / 48 kHz / 2304 kbps / 24-bit
LPCM Audio                      English         2304 kbps       2.0 / 48 kHz / 2304 kbps / 24-bit

FILES:

Name            Time In         Length          Size            Total Bitrate   
----            -------         ------          ----            -------------   
00000.M2TS      0:00:00.000     0:02:01.037     0               0               

CHAPTERS:

Number          Time In         Length          Avg Video Rate  Max 1-Sec Rate  Max 1-Sec Time  Max 5-Sec Rate  Max 5-Sec Time  Max 10Sec Rate  Max 10Sec Time  Avg Frame Size  Max Frame Size  Max Frame Time  
------          -------         ------          --------------  --------------  --------------  --------------  --------------  --------------  --------------  --------------  --------------  --------------  
1               0:00:00.000     0:01:59.911     0 kbps          0 kbps          00:00:00.000    0 kbps          00:00:00.000    0 kbps          00:00:00.000    0 bytes         0 bytes         00:00:00.000    
2               0:01:59.911     0:00:01.126     0 kbps          0 kbps          00:00:00.000    0 kbps          00:00:00.000    0 kbps          00:00:00.000    0 bytes         0 bytes         00:00:00.000    

STREAM DIAGNOSTICS:

File            PID             Type            Codec           Language                Seconds                 Bitrate                 Bytes           Packets         
----            ---             ----            -----           --------                --------------          --------------          -------------   -----           
00000.M2TS      4113 (0x1011)   0x1B            AVC                                     0,125                   0                       0               0               
00000.M2TS      4352 (0x1100)   0x80            LPCM            eng (English)           0,125                   0                       0               0               
00000.M2TS      4353 (0x1101)   0x80            LPCM            eng (English)           0,125                   0                       0               0               

<–– END FORUMS PASTE ––>

QUICK SUMMARY:

Disc Title: Crossroads Guitar Festival Eric Clapton - BD1
Disc Size: 44 280 053 063 bytes
Protection: AACS
BD-Java: Yes
Playlist: 01000.MPLS
Size: 0 bytes
Length: 0:02:01.037
Total Bitrate: 0,00 Mbps
Video: MPEG-4 AVC Video / 0 kbps / 1080p / 23,976 fps / 16:9 / High Profile 4.1
Audio: English / LPCM Audio / 2.0 / 48 kHz / 2304 kbps / 24-bit
Audio: English / LPCM Audio / 2.0 / 48 kHz / 2304 kbps / 24-bit



VA - Crossroads Eric Clapton Guitar Festival (2013) [2CD + 2DVD + 2xBlu-ray]

Tracklist BD2:

1. Congo Square - Sonny Landreth with Derek Trucks
2. Change It - John Mayer with Doyle Bramhall II
3. Ooh-Ooh-Ooh - Jimmie Vaughan
4. Save The Last Dance For Me - Blake Mills with Derek Trucks
5. Don t Worry Baby - Los Lobos
6. I Got To Let You Know - Los Lobos with Robert Cray
7. The Needle And The Damage Done - Allman, Haynes, Trucks
8. Midnight Rider - Allman, Haynes, Trucks
9. I Ain t Living Long Like This - Vince Gill with Albert Lee
10. Tumbling Dice Vince Gill with Keith Urban & Albert Lee
11. Walkin Blues - Taj Mahal with Keb Mo
12. Diving Duck Blues - Taj Mahal with Keb Mo
13. When My Train Pulls In - Gary Clark Jr.
14. Please Come Home - Gary Clark Jr.
15. Going Down - Jeff Beck with Beth Hart
16. Mná Na Héireann - Jeff Beck
17. Key To The Highway Eric Clapton with Keith Richards
18. I Shall Be Released - Eric Clapton with Robbie Robertson
19. Gin House Blues - Andy Fairweather Low with Eric Clapton
20. Got To Get Better In A Little While - Eric Clapton
21. Crossroads - Eric Clapton
22. Sunshine Of Your Love - Eric Clapton
23. High Time We Went - Ensemble

Disc Title: Crossroads Guitar Festival Eric Clapton - BD2
Disc Size: 42 547 587 063 bytes
Protection: AACS
BD-Java: Yes
BDInfo: 0.7.3.3

Notes:

BDINFO HOME:
Cinema Squid
http://www.cinemasquid.com/blu-ray/tools/bdinfo

INCLUDES FORUMS REPORT FOR:
AVS Forum Blu-ray Audio and Video Specifications Thread
http://www.avsforum.com/avs-vb/showthread.php?t=1155731

WARNING: Report is incomplete because: Scan has not been run.

********************
PLAYLIST: 00001.MPLS
********************

<–- BEGIN FORUMS PASTE –->
                                                                                                                Total   Video                                             
Title                                                           Codec   Length  Movie Size      Disc Size       Bitrate Bitrate Main Audio Track                          Secondary Audio Track
-----                                                           ------  ------- --------------  --------------  ------- ------- ------------------                        ---------------------
00001.MPLS                                                      AVC     2:32:23 0               42 547 587 063  0,00    0,00    LPCM 2.0 2304Kbps (48kHz/24-bit)          DTS-HD Master 5.1 (48kHz/24-bit)


DISC INFO:

Disc Title:     Crossroads Guitar Festival Eric Clapton - BD2
Disc Size:      42 547 587 063 bytes
Protection:     AACS
BD-Java:        Yes
BDInfo:         0.7.3.3

PLAYLIST REPORT:

Name:                   00001.MPLS
Length:                 2:32:23.342 (h:m:s.ms)
Size:                   0 bytes
Total Bitrate:          0,00 Mbps

VIDEO:

Codec                   Bitrate             Description     
-----                   -------             -----------     
MPEG-4 AVC Video        0 kbps              1080p / 23,976 fps / 16:9 / High Profile 4.1

AUDIO:

Codec                           Language        Bitrate         Description     
-----                           --------        -------         -----------     
LPCM Audio                      English         2304 kbps       2.0 / 48 kHz / 2304 kbps / 24-bit
DTS-HD Master Audio             English         0 kbps          5.1 / 48 kHz / 24-bit (DTS Core: 5.1 / 48 kHz / 1509 kbps / 24-bit)

FILES:

Name            Time In         Length          Size            Total Bitrate   
----            -------         ------          ----            -------------   
00001.M2TS      0:00:00.000     2:32:23.342     0               0               

CHAPTERS:

Number          Time In         Length          Avg Video Rate  Max 1-Sec Rate  Max 1-Sec Time  Max 5-Sec Rate  Max 5-Sec Time  Max 10Sec Rate  Max 10Sec Time  Avg Frame Size  Max Frame Size  Max Frame Time  
------          -------         ------          --------------  --------------  --------------  --------------  --------------  --------------  --------------  --------------  --------------  --------------  
1               0:00:00.000     2:32:23.342     0 kbps          0 kbps          00:00:00.000    0 kbps          00:00:00.000    0 kbps          00:00:00.000    0 bytes         0 bytes         00:00:00.000    

STREAM DIAGNOSTICS:

File            PID             Type            Codec           Language                Seconds                 Bitrate                 Bytes           Packets         
----            ---             ----            -----           --------                --------------          --------------          -------------   -----           
00001.M2TS      4113 (0x1011)   0x1B            AVC                                     0,667                   0                       0               0               
00001.M2TS      4352 (0x1100)   0x80            LPCM            eng (English)           0,667                   0                       0               0               
00001.M2TS      4353 (0x1101)   0x86            DTS-HD MA       eng (English)           0,667                   0                       0               0               

<–– END FORUMS PASTE ––>

QUICK SUMMARY:

Disc Title: Crossroads Guitar Festival Eric Clapton - BD2
Disc Size: 42 547 587 063 bytes
Protection: AACS
BD-Java: Yes
Playlist: 00001.MPLS
Size: 0 bytes
Length: 2:32:23.342
Total Bitrate: 0,00 Mbps
Video: MPEG-4 AVC Video / 0 kbps / 1080p / 23,976 fps / 16:9 / High Profile 4.1
Audio: English / LPCM Audio / 2.0 / 48 kHz / 2304 kbps / 24-bit
Audio: English / DTS-HD Master Audio / 5.1 / 48 kHz / 24-bit (DTS Core: 5.1 / 48 kHz / 1509 kbps / 24-bit)


********************
PLAYLIST: 01001.MPLS
********************

<–- BEGIN FORUMS PASTE –->
                                                                                                                Total   Video                                             
Title                                                           Codec   Length  Movie Size      Disc Size       Bitrate Bitrate Main Audio Track                          Secondary Audio Track
-----                                                           ------  ------- --------------  --------------  ------- ------- ------------------                        ---------------------
01001.MPLS                                                      AVC     2:32:23 0               42 547 587 063  0,00    0,00    LPCM 2.0 2304Kbps (48kHz/24-bit)          DTS-HD Master 5.1 (48kHz/24-bit)


DISC INFO:

Disc Title:     Crossroads Guitar Festival Eric Clapton - BD2
Disc Size:      42 547 587 063 bytes
Protection:     AACS
BD-Java:        Yes
BDInfo:         0.7.3.3

PLAYLIST REPORT:

Name:                   01001.MPLS
Length:                 2:32:23.342 (h:m:s.ms)
Size:                   0 bytes
Total Bitrate:          0,00 Mbps

VIDEO:

Codec                   Bitrate             Description     
-----                   -------             -----------     
MPEG-4 AVC Video        0 kbps              1080p / 23,976 fps / 16:9 / High Profile 4.1

AUDIO:

Codec                           Language        Bitrate         Description     
-----                           --------        -------         -----------     
LPCM Audio                      English         2304 kbps       2.0 / 48 kHz / 2304 kbps / 24-bit
DTS-HD Master Audio             English         0 kbps          5.1 / 48 kHz / 24-bit (DTS Core: 5.1 / 48 kHz / 1509 kbps / 24-bit)

FILES:

Name            Time In         Length          Size            Total Bitrate   
----            -------         ------          ----            -------------   
00001.M2TS      0:00:00.000     2:32:23.342     0               0               

CHAPTERS:

Number          Time In         Length          Avg Video Rate  Max 1-Sec Rate  Max 1-Sec Time  Max 5-Sec Rate  Max 5-Sec Time  Max 10Sec Rate  Max 10Sec Time  Avg Frame Size  Max Frame Size  Max Frame Time  
------          -------         ------          --------------  --------------  --------------  --------------  --------------  --------------  --------------  --------------  --------------  --------------  
1               0:00:00.000     0:02:08.002     0 kbps          0 kbps          00:00:00.000    0 kbps          00:00:00.000    0 kbps          00:00:00.000    0 bytes         0 bytes         00:00:00.000    
2               0:02:08.002     0:07:40.001     0 kbps          0 kbps          00:00:00.000    0 kbps          00:00:00.000    0 kbps          00:00:00.000    0 bytes         0 bytes         00:00:00.000    
3               0:09:48.004     0:05:18.985     0 kbps          0 kbps          00:00:00.000    0 kbps          00:00:00.000    0 kbps          00:00:00.000    0 bytes         0 bytes         00:00:00.000    
4               0:15:06.989     0:06:28.971     0 kbps          0 kbps          00:00:00.000    0 kbps          00:00:00.000    0 kbps          00:00:00.000    0 bytes         0 bytes         00:00:00.000    
5               0:21:35.961     0:03:45.016     0 kbps          0 kbps          00:00:00.000    0 kbps          00:00:00.000    0 kbps          00:00:00.000    0 bytes         0 bytes         00:00:00.000    
6               0:25:20.977     0:06:35.019     0 kbps          0 kbps          00:00:00.000    0 kbps          00:00:00.000    0 kbps          00:00:00.000    0 bytes         0 bytes         00:00:00.000    
7               0:31:55.997     0:03:52.982     0 kbps          0 kbps          00:00:00.000    0 kbps          00:00:00.000    0 kbps          00:00:00.000    0 bytes         0 bytes         00:00:00.000    
8               0:35:48.980     0:03:08.313     0 kbps          0 kbps          00:00:00.000    0 kbps          00:00:00.000    0 kbps          00:00:00.000    0 bytes         0 bytes         00:00:00.000    
9               0:38:57.293     0:04:16.839     0 kbps          0 kbps          00:00:00.000    0 kbps          00:00:00.000    0 kbps          00:00:00.000    0 bytes         0 bytes         00:00:00.000    
10              0:43:14.133     0:06:29.847     0 kbps          0 kbps          00:00:00.000    0 kbps          00:00:00.000    0 kbps          00:00:00.000    0 bytes         0 bytes         00:00:00.000    
11              0:49:43.981     0:05:40.006     0 kbps          0 kbps          00:00:00.000    0 kbps          00:00:00.000    0 kbps          00:00:00.000    0 bytes         0 bytes         00:00:00.000    
12              0:55:23.987     0:05:18.985     0 kbps          0 kbps          00:00:00.000    0 kbps          00:00:00.000    0 kbps          00:00:00.000    0 bytes         0 bytes         00:00:00.000    
13              1:00:42.972     0:06:40.024     0 kbps          0 kbps          00:00:00.000    0 kbps          00:00:00.000    0 kbps          00:00:00.000    0 bytes         0 bytes         00:00:00.000    
14     			  		  		  		 	 	  	 			   		   	  		 			  		 	 	  	 			   		   	  		   	  		  		  	 			   		  	   			  				          1:07:22.997     0:10:08.733     0 kbps          0 kbps          00:00:00.000    0 kbps          00:00:00.000    0 kbps          00:00:00.000    0 bytes         0 bytes         00:00:00.000    
15              1:17:31.730     0:06:43.236     0 kbps          0 kbps          00:00:00.000    0 kbps          00:00:00.000    0 kbps          00:00:00.000    0 bytes         0 bytes         00:00:00.000    
16              1:24:14.966     0:05:21.029     0 kbps          0 kbps          00:00:00.000    0 kbps          00:00:00.000    0 kbps          00:00:00.000    0 bytes         0 bytes         00:00:00.000    
17              1:29:35.995     0:06:07.992     0 kbps          0 kbps          00:00:00.000    0 kbps          00:00:00.000    0 kbps          00:00:00.000    0 bytes         0 bytes         00:00:00.000    
18              1:35:43.988     0:05:05.805     0 kbps          0 kbps          00:00:00.000    0 kbps          00:00:00.000    0 kbps          00:00:00.000    0 bytes         0 bytes         00:00:00.000    
19              1:40:49.793     0:05:51.809     0 kbps          0 kbps          00:00:00.000    0 kbps          00:00:00.000    0 kbps          00:00:00.000    0 bytes         0 bytes         00:00:00.000    
20              1:46:41.603     0:06:00.401     0 kbps          0 kbps          00:00:00.000    0 kbps          00:00:00.000    0 kbps          00:00:00.000    0 bytes         0 bytes         00:00:00.000    
21              1:52:42.005     0:10:18.993     0 kbps          0 kbps          00:00:00.000    0 kbps          00:00:00.000    0 kbps          00:00:00.000    0 bytes         0 bytes         00:00:00.000    
22              2:03:00.998     0:04:34.774     0 kbps          0 kbps          00:00:00.000    0 kbps          00:00:00.000    0 kbps          00:00:00.000    0 bytes         0 bytes         00:00:00.000    
23              2:07:35.773     0:06:12.205     0 kbps          0 kbps          00:00:00.000    0 kbps          00:00:00.000    0 kbps          00:00:00.000    0 bytes         0 bytes         00:00:00.000    
24              2:13:47.978     0:12:37.006     0 kbps          0 kbps          00:00:00.000    0 kbps          00:00:00.000    0 kbps          00:00:00.000    0 bytes         0 bytes         00:00:00.000    
25              2:26:24.984     0:05:57.023     0 kbps          0 kbps          00:00:00.000    0 kbps          00:00:00.000    0 kbps          00:00:00.000    0 bytes         0 bytes         00:00:00.000    
26              2:32:22.007     0:00:01.334     0 kbps          0 kbps          00:00:00.000    0 kbps          00:00:00.000    0 kbps          00:00:00.000    0 bytes         0 bytes         00:00:00.000    

STREAM DIAGNOSTICS:

File            PID             Type            Codec           Language                Seconds                 Bitrate                 Bytes           Packets         
----            ---             ----            -----           --------                --------------          --------------          -------------   -----           
00001.M2TS      4113 (0x1011)   0x1B            AVC                                     0,667                   0                       0               0               
00001.M2TS      4352 (0x1100)   0x80            LPCM            eng (English)           0,667                   0                       0               0               
00001.M2TS      4353 (0x1101)   0x86            DTS-HD MA       eng (English)           0,667                   0                       0               0               

<–– END FORUMS PASTE ––>

QUICK SUMMARY:

Disc Title: Crossroads Guitar Festival Eric Clapton - BD2
Disc Size: 42 547 587 063 bytes
Protection: AACS
BD-Java: Yes
Playlist: 01001.MPLS
Size: 0 bytes
Length: 2:32:23.342
Total Bitrate: 0,00 Mbps
Video: MPEG-4 AVC Video / 0 kbps / 1080p / 23,976 fps / 16:9 / High Profile 4.1
Audio: English / LPCM Audio / 2.0 / 48 kHz / 2304 kbps / 24-bit
Audio: English / DTS-HD Master Audio / 5.1 / 48 kHz / 24-bit (DTS Core: 5.1 / 48 kHz / 1509 kbps / 24-bit)


********************
PLAYLIST: 01002.MPLS
********************

<–- BEGIN FORUMS PASTE –->
                                                                                                                Total   Video                                             
Title                                                           Codec   Length  Movie Size      Disc Size       Bitrate Bitrate Main Audio Track                          Secondary Audio Track
-----                                                           ------  ------- --------------  --------------  ------- ------- ------------------                        ---------------------
01002.MPLS                                                      AVC     2:32:23 0               42 547 587 063  0,00    0,00    LPCM 2.0 2304Kbps (48kHz/24-bit)          DTS-HD Master 5.1 (48kHz/24-bit)


DISC INFO:

Disc Title:     Crossroads Guitar Festival Eric Clapton - BD2
Disc Size:      42 547 587 063 bytes
Protection:     AACS
BD-Java:        Yes
BDInfo:         0.7.3.3

PLAYLIST REPORT:

Name:                   01002.MPLS
Length:                 2:32:23.342 (h:m:s.ms)
Size:                   0 bytes
Total Bitrate:          0,00 Mbps

VIDEO:

Codec                   Bitrate             Description     
-----                   -------             -----------     
MPEG-4 AVC Video        0 kbps              1080p / 23,976 fps / 16:9 / High Profile 4.1

AUDIO:

Codec                           Language        Bitrate         Description     
-----                           --------        -------         -----------     
LPCM Audio                      English         2304 kbps       2.0 / 48 kHz / 2304 kbps / 24-bit
DTS-HD Master Audio             English         0 kbps          5.1 / 48 kHz / 24-bit (DTS Core: 5.1 / 48 kHz / 1509 kbps / 24-bit)

FILES:

Name            Time In         Length          Size            Total Bitrate   
----            -------         ------          ----            -------------   
00001.M2TS      0:00:00.000     2:32:23.342     0               0               

CHAPTERS:

Number          Time In         Length          Avg Video Rate  Max 1-Sec Rate  Max 1-Sec Time  Max 5-Sec Rate  Max 5-Sec Time  Max 10Sec Rate  Max 10Sec Time  Avg Frame Size  Max Frame Size  Max Frame Time  
------          -------         ------          --------------  --------------  --------------  --------------  --------------  --------------  --------------  --------------  --------------  --------------  
1               0:00:00.000     0:02:08.002     0 kbps          0 kbps          00:00:00.000    0 kbps          00:00:00.000    0 kbps          00:00:00.000    0 bytes         0 bytes         00:00:00.000    
2               0:02:08.002     0:07:40.001     0 kbps          0 kbps          00:00:00.000    0 kbps          00:00:00.000    0 kbps          00:00:00.000    0 bytes         0 bytes         00:00:00.000    
3               0:09:48.004     0:05:18.985     0 kbps          0 kbps          00:00:00.000    0 kbps          00:00:00.000    0 kbps          00:00:00.000    0 bytes         0 bytes         00:00:00.000    
4               0:15:06.989     0:06:28.971     0 kbps          0 kbps          00:00:00.000    0 kbps          00:00:00.000    0 kbps          00:00:00.000    0 bytes         0 bytes         00:00:00.000    
5               0:21:35.961     0:03:45.016     0 kbps          0 kbps          00:00:00.000    0 kbps          00:00:00.000    0 kbps          00:00:00.000    0 bytes         0 bytes         00:00:00.000    
6               0:25:20.977     0:06:35.019     0 kbps          0 kbps          00:00:00.000    0 kbps          00:00:00.000    0 kbps          00:00:00.000    0 bytes         0 bytes         00:00:00.000    
7               0:31:55.997     0:03:52.982     0 kbps          0 kbps          00:00:00.000    0 kbps          00:00:00.000    0 kbps          00:00:00.000    0 bytes         0 bytes         00:00:00.000    
8               0:35:48.980     0:03:08.313     0 kbps          0 kbps          00:00:00.000    0 kbps          00:00:00.000    0 kbps          00:00:00.000    0 bytes         0 bytes         00:00:00.000    
9               0:38:57.293     0:04:16.839     0 kbps          0 kbps          00:00:00.000    0 kbps          00:00:00.000    0 kbps          00:00:00.000    0 bytes         0 bytes         00:00:00.000    
10              0:43:14.133     0:06:29.847     0 kbps          0 kbps          00:00:00.000    0 kbps          00:00:00.000    0 kbps          00:00:00.000    0 bytes         0 bytes         00:00:00.000    
11              0:49:43.981     0:05:40.006     0 kbps          0 kbps          00:00:00.000    0 kbps          00:00:00.000    0 kbps          00:00:00.000    0 bytes         0 bytes         00:00:00.000    
12              0:55:23.987     0:05:18.985     0 kbps          0 kbps          00:00:00.000    0 kbps          00:00:00.000    0 kbps          00:00:00.000    0 bytes         0 bytes         00:00:00.000    
13              1:00:42.972     0:06:40.024     0 kbps          0 kbps          00:00:00.000    0 kbps          00:00:00.000    0 kbps          00:00:00.000    0 bytes         0 bytes         00:00:00.000    
14              1:07:22.997     0:10:08.733     0 kbps          0 kbps          00:00:00.000    0 kbps          00:00:00.000    0 kbps          00:00:00.000    0 bytes         0 bytes         00:00:00.000    
15              1:17:31.730     0:06:43.236     0 kbps          0 kbps          00:00:00.000    0 kbps          00:00:00.000    0 kbps          00:00:00.000    0 bytes         0 bytes         00:00:00.000    
16              1:24:14.966     0:05:21.029     0 kbps          0 kbps          00:00:00.000    0 kbps          00:00:00.000    0 kbps          00:00:00.000    0 bytes         0 bytes         00:00:00.000    
17              1:29:35.995     0:06:07.992     0 kbps          0 kbps          00:00:00.000    0 kbps          00:00:00.000    0 kbps          00:00:00.000    0 bytes         0 bytes         00:00:00.000    
18              1:35:43.988     0:05:05.805     0 kbps          0 kbps          00:00:00.000    0 kbps          00:00:00.000    0 kbps          00:00:00.000    0 bytes         0 bytes         00:00:00.000    
19              1:40:49.793     0:05:51.809     0 kbps          0 kbps          00:00:00.000    0 kbps          00:00:00.000    0 kbps          00:00:00.000    0 bytes         0 bytes         00:00:00.000    
20              1:46:41.603     0:06:00.401     0 kbps          0 kbps          00:00:00.000    0 kbps          00:00:00.000    0 kbps          00:00:00.000    0 bytes         0 bytes         00:00:00.000    
21              1:52:42.005     0:10:18.993     0 kbps          0 kbps          00:00:00.000    0 kbps          00:00:00.000    0 kbps          00:00:00.000    0 bytes         0 bytes         00:00:00.000    
22              2:03:00.998     0:04:34.774     0 kbps          0 kbps          00:00:00.000    0 kbps          00:00:00.000    0 kbps          00:00:00.000    0 bytes         0 bytes         00:00:00.000    
23              2:07:35.773     0:06:12.205     0 kbps          0 kbps          00:00:00.000    0 kbps          00:00:00.000    0 kbps          00:00:00.000    0 bytes         0 bytes         00:00:00.000    
24              2:13:47.978     0:12:37.006     0 kbps          0 kbps          00:00:00.000    0 kbps          00:00:00.000    0 kbps          00:00:00.000    0 bytes         0 bytes         00:00:00.000    
25              2:26:24.984     0:05:57.023     0 kbps          0 kbps          00:00:00.000    0 kbps          00:00:00.000    0 kbps          00:00:00.000    0 bytes         0 bytes         00:00:00.000    
26              2:32:22.007     0:00:01.334     0 kbps          0 kbps          00:00:00.000    0 kbps          00:00:00.000    0 kbps          00:00:00.000    0 bytes         0 bytes         00:00:00.000    

STREAM DIAGNOSTICS:

File            PID             Type            Codec           Language                Seconds                 Bitrate                 Bytes           Packets         
----            ---             ----            -----           --------                --------------          --------------          -------------   -----           
00001.M2TS      4113 (0x1011)   0x1B            AVC                                     0,667                   0                       0               0               
00001.M2TS      4352 (0x1100)   0x80            LPCM            eng (English)           0,667                   0                       0               0               
00001.M2TS      4353 (0x1101)   0x86            DTS-HD MA       eng (English)           0,667                   0                       0               0               

<–– END FORUMS PASTE ––>

QUICK SUMMARY:

Disc Title: Crossroads Guitar Festival Eric Clapton - BD2
Disc Size: 42 547 587 063 bytes
Protection: AACS
BD-Java: Yes
Playlist: 01002.MPLS
Size: 0 bytes
Length: 2:32:23.342
Total Bitrate: 0,00 Mbps
Video: MPEG-4 AVC Video / 0 kbps / 1080p / 23,976 fps / 16:9 / High Profile 4.1
Audio: English / LPCM Audio / 2.0 / 48 kHz / 2304 kbps / 24-bit
Audio: English / DTS-HD Master Audio / 5.1 / 48 kHz / 24-bit (DTS Core: 5.1 / 48 kHz / 1509 kbps / 24-bit)


********************
PLAYLIST: 00000.MPLS
********************

<–- BEGIN FORUMS PASTE –->
                                                                                                                Total   Video                                             
Title                                                           Codec   Length  Movie Size      Disc Size       Bitrate Bitrate Main Audio Track                          Secondary Audio Track
-----                                                           ------  ------- --------------  --------------  ------- ------- ------------------                        ---------------------
00000.MPLS                                                      AVC     0:02:01 0               42 547 587 063  0,00    0,00    LPCM 2.0 2304Kbps (48kHz/24-bit)          LPCM 2.0 2304Kbps (48kHz/24-bit)


DISC INFO:

Disc Title:     Crossroads Guitar Festival Eric Clapton - BD2
Disc Size:      42 547 587 063 bytes
Protection:     AACS
BD-Java:        Yes
BDInfo:         0.7.3.3

PLAYLIST REPORT:

Name:                   00000.MPLS
Length:                 0:02:01.913 (h:m:s.ms)
Size:                   0 bytes
Total Bitrate:          0,00 Mbps

VIDEO:

Codec                   Bitrate             Description     
-----                   -------             -----------     
MPEG-4 AVC Video        0 kbps              1080p / 23,976 fps / 16:9 / High Profile 4.1

AUDIO:

Codec                           Language        Bitrate         Description     
-----                           --------        -------         -----------     
LPCM Audio                      English         2304 kbps       2.0 / 48 kHz / 2304 kbps / 24-bit
LPCM Audio                      English         2304 kbps       2.0 / 48 kHz / 2304 kbps / 24-bit

FILES:

Name            Time In         Length          Size            Total Bitrate   
----            -------         ------          ----            -------------   
00000.M2TS      0:00:00.000     0:02:01.913     0               0               

CHAPTERS:

Number          Time In         Length          Avg Video Rate  Max 1-Sec Rate  Max 1-Sec Time  Max 5-Sec Rate  Max 5-Sec Time  Max 10Sec Rate  Max 10Sec Time  Avg Frame Size  Max Frame Size  Max Frame Time  
------          -------         ------          --------------  --------------  --------------  --------------  --------------  --------------  --------------  --------------  --------------  --------------  
1               0:00:00.000     0:02:01.913     0 kbps          0 kbps          00:00:00.000    0 kbps          00:00:00.000    0 kbps          00:00:00.000    0 bytes         0 bytes         00:00:00.000    

STREAM DIAGNOSTICS:

File            PID             Type            Codec           Language                Seconds                 Bitrate                 Bytes           Packets         
----            ---             ----            -----           --------                --------------          --------------          -------------   -----           
00000.M2TS      4113 (0x1011)   0x1B            AVC                                     0,125                   0                       0               0               
00000.M2TS      4352 (0x1100)   0x80            LPCM            eng (English)           0,125                   0                       0               0               
00000.M2TS      4353 (0x1101)   0x80            LPCM            eng (English)           0,125                   0                       0               0               

<–– END FORUMS PASTE ––>

QUICK SUMMARY:

Disc Title: Crossroads Guitar Festival Eric Clapton - BD2
Disc Size: 42 547 587 063 bytes
Protection: AACS
BD-Java: Yes
Playlist: 00000.MPLS
Size: 0 bytes
Length: 0:02:01.913
Total Bitrate: 0,00 Mbps
Video: MPEG-4 AVC Video / 0 kbps / 1080p / 23,976 fps / 16:9 / High Profile 4.1
Audio: English / LPCM Audio / 2.0 / 48 kHz / 2304 kbps / 24-bit
Audio: English / LPCM Audio / 2.0 / 48 kHz / 2304 kbps / 24-bit


********************
PLAYLIST: 01000.MPLS
********************

<–- BEGIN FORUMS PASTE –->
                                                                                                                Total   Video                                             
Title                                                           Codec   Length  Movie Size      Disc Size       Bitrate Bitrate Main Audio Track                          Secondary Audio Track
-----                                                           ------  ------- --------------  --------------  ------- ------- ------------------                        ---------------------
01000.MPLS                                                      AVC     0:02:01 0               42 547 587 063  0,00    0,00    LPCM 2.0 2304Kbps (48kHz/24-bit)          LPCM 2.0 2304Kbps (48kHz/24-bit)


DISC INFO:

Disc Title:     Crossroads Guitar Festival Eric Clapton - BD2
Disc Size:      42 547 587 063 bytes
Protection:     AACS
BD-Java:        Yes
BDInfo:         0.7.3.3

PLAYLIST REPORT:

Name:                   01000.MPLS
Length:                 0:02:01.913 (h:m:s.ms)
Size:                   0 bytes
Total Bitrate:          0,00 Mbps

VIDEO:

Codec                   Bitrate             Description     
-----                   -------             -----------     
MPEG-4 AVC Video        0 kbps              1080p / 23,976 fps / 16:9 / High Profile 4.1

AUDIO:

Codec                           Language        Bitrate         Description     
-----                           --------        -------         -----------     
LPCM Audio                      English         2304 kbps       2.0 / 48 kHz / 2304 kbps / 24-bit
LPCM Audio                      English         2304 kbps       2.0 / 48 kHz / 2304 kbps / 24-bit

FILES:

Name            Time In         Length          Size            Total Bitrate   
----            -------         ------          ----            -------------   
00000.M2TS      0:00:00.000     0:02:01.913     0               0               

CHAPTERS:

Number          Time In         Length          Avg Video Rate  Max 1-Sec Rate  Max 1-Sec Time  Max 5-Sec Rate  Max 5-Sec Time  Max 10Sec Rate  Max 10Sec Time  Avg Frame Size  Max Frame Size  Max Frame Time  
------          -------         ------          --------------  --------------  --------------  --------------  --------------  --------------  --------------  --------------  --------------  --------------  
1               0:00:00.000     0:02:00.161     0 kbps          0 kbps          00:00:00.000    0 kbps          00:00:00.000    0 kbps          00:00:00.000    0 bytes         0 bytes         00:00:00.000    
2               0:02:00.161     0:00:01.751     0 kbps          0 kbps          00:00:00.000    0 kbps          00:00:00.000    0 kbps          00:00:00.000    0 bytes         0 bytes         00:00:00.000    

STREAM DIAGNOSTICS:

File            PID             Type            Codec           Language                Seconds                 Bitrate                 Bytes           Packets         
----            ---             ----            -----           --------                --------------          --------------          -------------   -----           
00000.M2TS      4113 (0x1011)   0x1B            AVC                                     0,125                   0                       0               0               
00000.M2TS      4352 (0x1100)   0x80            LPCM            eng (English)           0,125                   0                       0               0               
00000.M2TS      4353 (0x1101)   0x80            LPCM            eng (English)           0,125                   0                       0               0               

<–– END FORUMS PASTE ––>

QUICK SUMMARY:

Disc Title: Crossroads Guitar Festival Eric Clapton - BD2
Disc Size: 42 547 587 063 bytes
Protection: AACS
BD-Java: Yes
Playlist: 01000.MPLS
Size: 0 bytes
Length: 0:02:01.913
Total Bitrate: 0,00 Mbps
Video: MPEG-4 AVC Video / 0 kbps / 1080p / 23,976 fps / 16:9 / High Profile 4.1
Audio: English / LPCM Audio / 2.0 / 48 kHz / 2304 kbps / 24-bit
Audio: English / LPCM Audio / 2.0 / 48 kHz / 2304 kbps / 24-bit



VA - Crossroads Eric Clapton Guitar Festival (2013) [2CD + 2DVD + 2xBlu-ray]

VA - Crossroads Eric Clapton Guitar Festival (2013) [2CD + 2DVD + 2xBlu-ray]

VA - Crossroads Eric Clapton Guitar Festival (2013) [2CD + 2DVD + 2xBlu-ray]

All thanks go to the original releasers

Crossroads in my Blog

Download VA - Crossroads Eric Clapton Guitar Festival (2013):