Tags
Language
Tags
June 2024
Su Mo Tu We Th Fr Sa
26 27 28 29 30 31 1
2 3 4 5 6 7 8
9 10 11 12 13 14 15
16 17 18 19 20 21 22
23 24 25 26 27 28 29
30 1 2 3 4 5 6

Curtis Mayfield - Curtis / Live! (1971) Remastered Reissue 2000

Posted By: Designol
Curtis Mayfield - Curtis / Live! (1971) Remastered Reissue 2000

Curtis Mayfield - Curtis / Live! (1971) Remastered Reissue 2000
EAC | FLAC | Image (Cue&Log) ~ 446 Mb | Mp3 (CBR320) ~ 183 Mb | Scans included
Label: Rhino Records | # 8122-79933-2 | Time: 01:15:18
Genre: Funk, Soul, Rhythm & Blues

Curtis/Live! is, simply, one of the greatest concert albums ever cut on a soul artist, and one of the legendary live albums of all time. Cut in January of 1971 during four nights at The Bitter End (then Greenwich Village's leading music venue) in New York, the resulting double LP transcended any expectations in both its programming and execution – Mayfield performed numbers off of the Curtis album ("[Don't Worry] If There's a Hell Below We're All Going to Go"), as well as exciting and urgent new versions of songs originally performed by the Impressions ("We're a Winner," "People Get Ready," "Gypsy Woman"), plus a very moving R&B version of "We've Only Just Begun." This is all beautifully stripped-down work by a quintet consisting of Mayfield (vocals, guitar), Craig McMullen (guitar), Tyrone McCullen (drums), "Master" Henry Gibson (percussion), and Joseph "Lucky" Scott (bass) – a solid, intense performance, with quietly elegant guitar playing against a rock-solid rhythm section, as Impressions hits are rethought and reconfigured in a new context, and Mayfield's early solo repertory comes to life in newer, longer live versions.

Review by Bruce Eder, Allmusic.com

Curtis Mayfield - Curtis / Live! (1971) Remastered Reissue 2000



Tracks 1 to 16:
Issued as Curtis/Live!, Curtom/Buddah #CRS-8005 (5/71)
Recorded at Paul Colby's Bitter End, New York City, during January 1971.
Engineered at Electric Lady Studios, NY. Mixed at Record Plant, NY.

Track 17:
Issued on Curtis In Chicago, Curtom/Buddah #CRS-8005 (10/73)
Recorded live by WTTW-TV, Chicago, during September 1973.

Track 18:
Edited version issued as Curtom/Buddah single #CR-1963 (8/71).
Recorded live at Paul Colby's Bitter End, New York City, during January 1971.

Tracklist:

01. Mighty Mighty (Spade And Whitey) (6:58)
02. Rap (0:27)
03. I Plan To Stay A Believer (3:16)
04. We're A Winner (4:47)
05. Rap (2) (0:51)
06. We've Only Just Begun (3:44)
07. People Get Ready (3:47)
08. Rap (3) (0:34)
09. Stare And Stare (6:13)
10. Check Out Your Mind (3:53)
11. Gypsy Woman (3:48)
12. The Making Of You (3:28)
13. Rap (4) (2:02)
14. We The People Who Are Darker Than Blue (6:46)
15. (Don't Worry) If There's A Hell Below, We're All Going To Go (9:27)
16. Stone Junkie (8:05)
17. Superfly (3:57)
18. Mighty Mighty (Spade And Whitey) (single version) (3:15)


Exact Audio Copy V0.99 prebeta 4 from 23. January 2008

Отчёт EAC об извлечении, выполненном 8. марта 2010, 13:52

Curtis Mayfield / Curtis Live

Дисковод: Optiarc DVD RW AD-7203S Adapter: 1 ID: 1

Режим чтения : Достоверность
Использование точного потока : Да
Отключение кэша аудио : Да
Использование указателей C2 : Нет

Коррекция смещения при чтении : 48
Способность читать области Lead-in и Lead-out : Нет
Заполнение пропущенных сэмплов тишиной : Да
Удаление блоков с тишиной в начале и конце : Нет
При вычислениях CRC использовались нулевые сэмплы : Да
Интерфейс : Встроенный Win32-интерфейс для Win NT/2000

Выходной формат : Пользовательский кодировщик
Выбранный битрейт : 1024 kBit/s
Качество : Высокий
Добавление ID3-тэга : Нет
Утилита сжатия : C:\Program Files\Exact Audio Copy\Flac\flac.exe
Дополнительные параметры : -V -8 -T "artist=%a" -T "title=%t" -T "album=%g" -T "date=%y" -T "tracknumber=%n" -T "genre=%m" %s


TOC извлечённого CD

Трек | Старт | Длительность | Начальный сектор | Конечный сектор
––––––––––––––––––––––––––––––––––-
1 | 0:00.00 | 6:57.57 | 0 | 31331
2 | 6:57.57 | 0:26.53 | 31332 | 33334
3 | 7:24.35 | 3:16.02 | 33335 | 48036
4 | 10:40.37 | 4:47.08 | 48037 | 69569
5 | 15:27.45 | 0:51.10 | 69570 | 73404
6 | 16:18.55 | 3:44.07 | 73405 | 90211
7 | 20:02.62 | 3:47.03 | 90212 | 107239
8 | 23:49.65 | 0:34.05 | 107240 | 109794
9 | 24:23.70 | 6:12.47 | 109795 | 137741
10 | 30:36.42 | 3:53.10 | 137742 | 155226
11 | 34:29.52 | 3:48.03 | 155227 | 172329
12 | 38:17.55 | 3:28.17 | 172330 | 187946
13 | 41:45.72 | 2:01.45 | 187947 | 197066
14 | 43:47.42 | 6:46.00 | 197067 | 227516
15 | 50:33.42 | 9:27.08 | 227517 | 270049
16 | 60:00.50 | 8:05.20 | 270050 | 306444
17 | 68:05.70 | 3:57.17 | 306445 | 324236
18 | 72:03.12 | 3:14.48 | 324237 | 338834


Характеристики диапазона извлечения и сообщения об ошибках

Выбранный диапазон

Имя файла D:\EAC-FOLDER\1971-Curtis Mayfield - Curtis Live\Curtis Mayfield - Curtis Live.wav

Пиковый уровень 98.3 %
Качество диапазона 99.9 %
CRC теста 41014F21
CRC копии 41014F21
Копирование… OK

Ошибок не произошло


AccurateRip: сводка

Трек 1 точное извлечение (доверие 10) [41F6D6C0]
Трек 2 точное извлечение (доверие 10) [735E0F6B]
Трек 3 точное извлечение (доверие 10) [B2F53CDB]
Трек 4 точное извлечение (доверие 10) [E9C1CD48]
Трек 5 точное извлечение (доверие 10) [2BCACC4A]
Трек 6 точное извлечение (доверие 10) [E1ADE40B]
Трек 7 точное извлечение (доверие 10) [D8F1DC55]
Трек 8 точное извлечение (доверие 10) [04622EAF]
Трек 9 точное извлечение (доверие 10) [5F808A87]
Трек 10 точное извлечение (доверие 10) [CB31747B]
Трек 11 точное извлечение (доверие 9) [47697069]
Трек 12 точное извлечение (доверие 9) [50479AD5]
Трек 13 точное извлечение (доверие 9) [C8902F7B]
Трек 14 точное извлечение (доверие 9) [347A7901]
Трек 15 точное извлечение (доверие 8) [963CEF6C]
Трек 16 точное извлечение (доверие 9) [13E9E8FA]
Трек 17 точное извлечение (доверие 9) [4CF9031F]
Трек 18 точное извлечение (доверие 9) [E8D47AFE]

Все треки извлечены точно

Конец отчёта

[CUETools log; Date: 18.10.2019 16:28:07; Version: 2.1.4]
[CTDB TOCID: K2AlU3cUrk7Hfgkx_hZtgNF3iJU-] found.
Track | CTDB Status
1 | (69/72) Accurately ripped
2 | (70/72) Accurately ripped
3 | (70/72) Accurately ripped
4 | (70/72) Accurately ripped
5 | (70/72) Accurately ripped
6 | (70/72) Accurately ripped
7 | (70/72) Accurately ripped
8 | (70/72) Accurately ripped
9 | (70/72) Accurately ripped
10 | (70/72) Accurately ripped
11 | (70/72) Accurately ripped
12 | (70/72) Accurately ripped
13 | (69/72) Accurately ripped
14 | (69/72) Accurately ripped
15 | (68/72) Accurately ripped
16 | (70/72) Accurately ripped
17 | (68/72) Accurately ripped
18 | (68/72) Accurately ripped
[AccurateRip ID: 002bf343-025609ca-fb11a512] found.
Track [ CRC | V2 ] Status
01 [41f6d6c0|a1afe832] (20+27/51) Accurately ripped
02 [735e0f6b|23186f44] (20+28/52) Accurately ripped
03 [b2f53cdb|e55ec918] (20+28/52) Accurately ripped
04 [e9c1cd48|cf5f10d1] (20+29/53) Accurately ripped
05 [2bcacc4a|0570d536] (20+29/53) Accurately ripped
06 [e1ade40b|1f26a7cd] (20+29/53) Accurately ripped
07 [d8f1dc55|4246da50] (20+29/53) Accurately ripped
08 [04622eaf|68d9e9cb] (20+28/52) Accurately ripped
09 [5f808a87|0fd50fa8] (20+29/53) Accurately ripped
10 [cb31747b|a1bc33de] (20+29/53) Accurately ripped
11 [47697069|1119eddf] (19+29/52) Accurately ripped
12 [50479ad5|bce2c973] (18+29/51) Accurately ripped
13 [c8902f7b|0705383c] (18+28/50) Accurately ripped
14 [347a7901|baa612b8] (18+29/51) Accurately ripped
15 [963cef6c|7bf11847] (17+29/50) Accurately ripped
16 [13e9e8fa|fe9d75b6] (18+28/50) Accurately ripped
17 [4cf9031f|0de5af90] (18+27/49) Accurately ripped
18 [e8d47afe|7108c133] (18+28/50) Accurately ripped
Offsetted by -6:
01 [b4698252] (00/51) No match (V2 was not tested)
02 [3d5ba5b5] (00/52) No match (V2 was not tested)
03 [624878c6] (00/52) No match (V2 was not tested)
04 [8e7ec116] (00/53) No match (V2 was not tested)
05 [300cde6c] (00/53) No match (V2 was not tested)
06 [eb5af327] (00/53) No match (V2 was not tested)
07 [05598375] (00/53) No match (V2 was not tested)
08 [c7b6064a] (00/52) No match (V2 was not tested)
09 [4cf21a4c] (00/53) No match (V2 was not tested)
10 [3142535d] (00/53) No match (V2 was not tested)
11 [eab4ee25] (00/52) No match (V2 was not tested)
12 [1de98e6e] (00/51) No match (V2 was not tested)
13 [77a10899] (00/50) No match (V2 was not tested)
14 [8d99055b] (00/51) No match (V2 was not tested)
15 [ffbb4b73] (00/50) No match (V2 was not tested)
16 [2644a85f] (00/50) No match (V2 was not tested)
17 [aea5813a] (00/49) No match (V2 was not tested)
18 [b67beb0e] (00/50) No match (V2 was not tested)
Offsetted by 669:
01 [f3acdffe] (00/51) No match (V2 was not tested)
02 [66e062a5] (00/52) No match (V2 was not tested)
03 [4623c641] (00/52) No match (V2 was not tested)
04 [614d8f2c] (00/53) No match (V2 was not tested)
05 [a3869a1d] (00/53) No match (V2 was not tested)
06 [8651293c] (00/53) No match (V2 was not tested)
07 [e14a83b0] (00/53) No match (V2 was not tested)
08 [4fe9622e] (00/52) No match (V2 was not tested)
09 [b1ad174e] (00/53) No match (V2 was not tested)
10 [657dc2cf] (00/53) No match (V2 was not tested)
11 [1df9a040] (00/52) No match (V2 was not tested)
12 [c91188fc] (00/51) No match (V2 was not tested)
13 [7fc76076] (00/50) No match (V2 was not tested)
14 [0644fb9f] (00/51) No match (V2 was not tested)
15 [4e5bbc37] (00/50) No match (V2 was not tested)
16 [6c1652e8] (00/50) No match (V2 was not tested)
17 [df683207] (00/49) No match (V2 was not tested)
18 [1303c719] (00/50) No match (V2 was not tested)

Track Peak [ CRC32 ] [W/O NULL] [ LOG ]
– 98,3 [41014F21] [99734D14] CRC32
01 97,7 [F9E5D38C] [6D2A53A8]
02 64,4 [9166FEAE] [D5013875]
03 97,4 [074272F0] [934ED161]
04 98,0 [A4BAF2AC] [6ED5F8A0]
05 97,2 [ED119C23] [16782ECD]
06 97,8 [3F54AECC] [E9810E3A]
07 98,3 [A6D281C2] [6CCD5FC8]
08 83,1 [73AFFA9F] [73B90B34]
09 97,8 [809BFB96] [2DEE05E6]
10 98,0 [DA5FDA68] [188B9591]
11 98,3 [32346AC1] [46F6D7AC]
12 97,9 [D21BAE84] [D28EC737]
13 81,8 [220E9A14] [C6B3556F]
14 97,9 [BAEEFE6D] [9CB9A9C8]
15 98,2 [FEE829ED] [9C4B2D8F]
16 98,0 [C9DA44AF] [C72B06B1]
17 92,7 [40AB13B0] [75F1CEA3]
18 87,1 [2646A39E] [3C72FA06]

foobar2000 1.2 / Dynamic Range Meter 1.1.1
log date: 2019-10-18 18:05:34

––––––––––––––––––––––––––––––––––––––––
Analyzed: Curtis Mayfield / Curtis Live
––––––––––––––––––––––––––––––––––––––––

DR Peak RMS Duration Track
––––––––––––––––––––––––––––––––––––––––
DR13 -0.20 dB -15.23 dB 6:58 01-Mighty Mighty (Spade And Whitey)
DR12 -3.82 dB -19.84 dB 0:27 02-Rap
DR14 -0.22 dB -16.69 dB 3:16 03-I Plan To Stay A Believer
DR12 -0.17 dB -14.57 dB 4:47 04-We're A Winner
DR15 -0.24 dB -20.83 dB 0:51 05-Rap (2)
DR14 -0.19 dB -16.54 dB 3:44 06-We've Only Just Begun
DR13 -0.15 dB -14.57 dB 3:47 07-People Get Ready
DR11 -1.60 dB -19.64 dB 0:34 08-Rap (3)
DR13 -0.19 dB -16.62 dB 6:13 09-Stare And Stare
DR13 -0.17 dB -14.45 dB 3:53 10-Check Out Your Mind
DR12 -0.15 dB -13.57 dB 3:48 11-Gypsy Woman
DR12 -0.18 dB -13.95 dB 3:28 12-The Making Of You
DR13 -1.74 dB -17.78 dB 2:02 13-Rap (4)
DR12 -0.18 dB -14.65 dB 6:46 14-We The People Who Are Darker Than Blue
DR11 -0.15 dB -13.51 dB 9:27 15-(Don't Worry) If There's A Hell Below, We're All Going To Go
DR11 -0.17 dB -13.78 dB 8:05 16-Stone Junkie
DR11 -0.66 dB -13.96 dB 3:57 17-Superfly
DR11 -1.19 dB -14.43 dB 3:15 18-Mighty Mighty (Spade And Whitey) (single version)
––––––––––––––––––––––––––––––––––––––––

Number of tracks: 18
Official DR value: DR12

Samplerate: 44100 Hz
Channels: 2
Bits per sample: 16
Bitrate: 805 kbps
Codec: FLAC
================================================================================

Curtis Mayfield - Curtis / Live! (1971) Remastered Reissue 2000

Curtis Mayfield - Curtis / Live! (1971) Remastered Reissue 2000

All thanks to original releaser - jlhjlh

More interesting music in My Blog