Tags
Language
Tags
February 2024
Su Mo Tu We Th Fr Sa
28 29 30 31 1 2 3
4 5 6 7 8 9 10
11 12 13 14 15 16 17
18 19 20 21 22 23 24
25 26 27 28 29 1 2
Attention❗ To save your time, in order to download anything on this site, you must be registered 👉 HERE. If you do not have a registration yet, it is better to do it right away. ✌

( • )( • ) ( ͡⚆ ͜ʖ ͡⚆ ) (‿ˠ‿)
SpicyMags.xyz

Cusco - 2 Albums (2003-2005)

Posted By: gribovar
Cusco - 2 Albums (2003-2005)

Cusco - 2 Albums (2003-2005)
EAC Rip | FLAC (image+.cue+log) - 643 MB | MP3 CBR 320 kbps (LAME 3.93) - 261 MB | Covers - 442 MB
Genre: New Age | RAR 3% Rec. | Label: Higher Octave Music

Inner Journeys: Myth & Legends (2003). With its lush melodies, tribal rhythms and chants and soaring flute driven energy, Cusco has cornered the market on mystical world music since becoming one of Higher Octave Music's mainstays over 15 years ago. They could have sold those two million units based on the engaging, spirit-energizing music alone, but no doubt dedicated listeners have been prompted to brush up on Inca and Aztec civilizations, which fueled this brainchild of German born group leader Michael Holm. This sweeping and provocative new disc blends a multitude of world cultures while delving into the adventure, magic, and mystery of ancient myths and legends. These odes to the "Oracle of Delphi" (blending a lush, dare we say, Yanni-esque piano with exciting chanting and throbbing grooves), "Eros and Psyche" (soundscape with Incan flute flavors), "Janus" (a loping adventure as the flute treks through the forest), and "Poseidon" (imagine dark ocean caverns) will inspire not only spiritual peace in the present but also a link to our collective past. Using the song titles as guides, the listener may feel the urge to study up on the enduring legends which continue to captivate and inspire today.

Essential Cusco: The Journey (2005). The sweet, lightly funky South American groove in "Da Gama," the leadoff track of Cusco's Essential Cusco: The Journey lets us know what kind of journey we're headed for. Cusco, the German synthesizer duo of Michael Holm and Kristian Schultze, is not interested in the simmering polyrhythms of modern Latin dance music, but in the ancient sounds of Incan and Mayan civilizations, complete with wood flutes and hand percussion. Neither is Cusco interested in preserving music traditions. Holm and Schultze blend these old-world South American flavors with New Age synthesizers, dance beats, and a penchant for cinematic drama. Essential Cusco collects some of the group's more memorable compositions, including the buoyant, flute-driven "Montezuma," the Native North American-tinged "Ghost Dance," the circular march of "Waters of Cesme," and the orchestral "Flying Condor." Part ethnomusicology experiment, part science-fiction soundtrack, Essential Cusco is a great place to sample the work of this intriguing, genre-blending group.

Cusco - 2 Albums (2003-2005)

Cusco - Inner Journeys: Myth & Legends (2003) (Repost)
EAC Rip | FLAC (image+.cue+log) - 283 MB | MP3 CBR 320 kbps (LAME 3.93) - 127 MB | Covers - 215 MB
Genre: New Age | RAR 3% Rec. | Label: Higher Octave Music (HOMCD 82259)

Tracklist:
01. Oracle Of Delphi
02. Eros And Psyche
03. Ariadne
04. The Nine Muses
05. Odysseus And The Sirens
06. Aphrodite
07. Janus
08. Orpheus And Eurydice
09. Pan And The Nymph
10. Poseidon

Total time: 54:02

Exact Audio Copy V1.0 beta 3 from 29. August 2011

Отчёт EAC об извлечении, выполненном 30. декабря 2014, 19:43

Cusco / Inner Journeys: Myth & Legends

Дисковод: Optiarc DVD RW AD-7173A Adapter: 0 ID: 0

Режим чтения : Достоверность
Использование точного потока : Да
Отключение кэша аудио : Да
Использование указателей C2 : Нет

Коррекция смещения при чтении : 48
Способность читать области Lead-in и Lead-out : Нет
Заполнение пропущенных сэмплов тишиной : Да
Удаление блоков с тишиной в начале и конце : Нет
При вычислениях CRC использовались нулевые сэмплы : Да
Интерфейс : Установленный внешний ASPI-интерфейс

Выходной формат : Пользовательский кодировщик
Выбранный битрейт : 320 kBit/s
Качество : Высокий
Добавление ID3-тега : Нет
Утилита сжатия : C:\Program Files\Exact Audio Copy\Flac\flac.exe
Дополнительные параметры : -V -8 -T "Date=%year%" -T "Genre=%genre%" %source%


TOC извлечённого CD

Трек | Старт | Длительность | Начальный сектор | Конечный сектор
––––––––––––––––––––––––––––––––––-
1 | 0:00.00 | 4:30.65 | 0 | 20314
2 | 4:30.65 | 5:04.10 | 20315 | 43124
3 | 9:35.00 | 6:16.60 | 43125 | 71384
4 | 15:51.60 | 6:12.02 | 71385 | 99286
5 | 22:03.62 | 9:00.35 | 99287 | 139821
6 | 31:04.22 | 4:34.45 | 139822 | 160416
7 | 35:38.67 | 3:35.03 | 160417 | 176544
8 | 39:13.70 | 5:58.12 | 176545 | 203406
9 | 45:12.07 | 3:49.65 | 203407 | 220646
10 | 49:01.72 | 5:00.38 | 220647 | 243184


Характеристики диапазона извлечения и сообщения об ошибках

Выбранный диапазон

Имя файла D:\Cusco 1\Cusco - Inner Journeys- Myth & Legends.wav

Пиковый уровень 97.7 %
Скорость извлечения 5.2 X
Качество диапазона 100.0 %
CRC теста E93D1547
CRC копии E93D1547
Копирование… OK

Ошибок не произошло


AccurateRip: сводка

Трек 1 : извлечено точно (доверие 5) [298E0355] (AR v2)
Трек 2 : извлечено точно (доверие 5) [29817E02] (AR v2)
Трек 3 : извлечено точно (доверие 5) [C07CB4D4] (AR v2)
Трек 4 : извлечено точно (доверие 5) [B21D4899] (AR v2)
Трек 5 : извлечено точно (доверие 5) [C1065F1E] (AR v2)
Трек 6 : извлечено точно (доверие 5) [CDD9899C] (AR v2)
Трек 7 : извлечено точно (доверие 5) [D887544B] (AR v2)
Трек 8 : извлечено точно (доверие 5) [F9F9E872] (AR v2)
Трек 9 : извлечено точно (доверие 5) [B260F4A0] (AR v2)
Трек 10 : извлечено точно (доверие 5) [63032C00] (AR v2)

Все треки извлечены точно

Конец отчёта

==== Контрольная сумма отчёта 911BE6422A0A23A3ED8C196366A1F15CA69D2CA2584B35330A0B5BE8DD99F7F9 ====

[CUETools log; Date: 13.06.2022 22:41:12; Version: 2.1.4]
[CTDB TOCID: 3y0XkR8n9lD5XpQ4c7DbzITTI1s-] found.
Track | CTDB Status
1 | (27/31) Accurately ripped
2 | (28/31) Accurately ripped
3 | (26/31) Accurately ripped
4 | (28/31) Accurately ripped
5 | (28/31) Accurately ripped
6 | (28/31) Accurately ripped
7 | (28/31) Accurately ripped
8 | (28/31) Accurately ripped
9 | (28/31) Accurately ripped
10 | (28/31) Accurately ripped
[AccurateRip ID: 00150757-00a86e98-870caa0a] found.
Track [ CRC | V2 ] Status
01 [3eec3688|298e0355] (07+12/21) Accurately ripped
02 [44629e0d|29817e02] (06+12/20) Accurately ripped
03 [9e5cabf5|c07cb4d4] (07+11/20) Accurately ripped
04 [5cc550d9|b21d4899] (07+12/21) Accurately ripped
05 [60905810|c1065f1e] (06+12/20) Accurately ripped
06 [7a4ef6f8|cdd9899c] (06+12/20) Accurately ripped
07 [50bea276|d887544b] (07+12/21) Accurately ripped
08 [d8bc4317|f9f9e872] (07+12/21) Accurately ripped
09 [38ad9cd3|b260f4a0] (07+12/21) Accurately ripped
10 [8f86f9d6|63032c00] (07+12/21) Accurately ripped
Offsetted by -664:
01 [70a2dd58] (02/21) Accurately ripped
02 [77282bf5] (02/20) Accurately ripped
03 [53829f4d] (02/20) Accurately ripped
04 [12e1a339] (02/21) Accurately ripped
05 [bfa9d098] (02/20) Accurately ripped
06 [0d5af2e0] (02/20) Accurately ripped
07 [f1838ede] (02/21) Accurately ripped
08 [14b862bf] (02/21) Accurately ripped
09 [d0afe42b] (02/21) Accurately ripped
10 [4d62440e] (02/21) Accurately ripped
Offsetted by -676:
01 [4e109340] (00/21) No match (V2 was not tested)
02 [df665829] (00/20) No match
03 [6f756db9] (00/20) No match
04 [44700769] (00/21) No match
05 [88525f1c] (00/20) No match
06 [4c284614] (00/20) No match
07 [790bbe52] (00/21) No match
08 [e47475d3] (00/21) No match
09 [ab567c97] (00/21) No match
10 [2101fcea] (00/21) No match

Track Peak [ CRC32 ] [W/O NULL] [ LOG ]
– 97,7 [E93D1547] [AD09F03E] CRC32
01 97,7 [D7749357] [D5D9A512]
02 97,7 [F2687AA7] [510ABAF1]
03 97,7 [955FB808] [85154D19]
04 97,7 [37A64B4C] [F18B338B]
05 85,1 [0FC70076] [B30403B7]
06 97,7 [94000F45] [015BD562]
07 97,7 [9CA3D9D8] [7075E382]
08 97,7 [91BBFABD] [97620B32]
09 89,1 [8761601C] [AE436EFE]
10 97,7 [66C98630] [34877300]

Cusco - 2 Albums (2003-2005)

Cusco - Essential Cusco: The Journey (2005)
EAC Rip | FLAC (image+.cue+log) - 360 MB | MP3 CBR 320 kbps (LAME 3.93) - 134 MB | Covers - 227 MB
Genre: New Age | RAR 3% Rec. | Label: Higher Octave Music/AutoBahn Misik (70876-19218-2-3)

Tracklist:
01. Da Gama
02. Oracle Of Delphi
03. Waters Of Cesme
04. Africa - Afrika
05. Montezuma
06. Tula
07. White Buffalo
08. Ghost Dance
09. The Hunt
10. Flying Condor
11. Flute Battle
12. Australia

Total time: 56:57

Exact Audio Copy V1.0 beta 3 from 29. August 2011

Отчёт EAC об извлечении, выполненном 3. января 2015, 22:42

Cusco / Essential Cusco- The Journey

Дисковод: Optiarc DVD RW AD-7173A Adapter: 0 ID: 0

Режим чтения : Достоверность
Использование точного потока : Да
Отключение кэша аудио : Да
Использование указателей C2 : Нет

Коррекция смещения при чтении : 48
Способность читать области Lead-in и Lead-out : Нет
Заполнение пропущенных сэмплов тишиной : Да
Удаление блоков с тишиной в начале и конце : Нет
При вычислениях CRC использовались нулевые сэмплы : Да
Интерфейс : Установленный внешний ASPI-интерфейс

Выходной формат : Пользовательский кодировщик
Выбранный битрейт : 320 kBit/s
Качество : Высокий
Добавление ID3-тега : Нет
Утилита сжатия : C:\Program Files\Exact Audio Copy\Flac\flac.exe
Дополнительные параметры : -V -8 -T "Date=%year%" -T "Genre=%genre%" %source%


TOC извлечённого CD

Трек | Старт | Длительность | Начальный сектор | Конечный сектор
––––––––––––––––––––––––––––––––––-
1 | 0:00.00 | 3:33.51 | 0 | 16025
2 | 3:33.51 | 4:30.37 | 16026 | 36312
3 | 8:04.13 | 4:30.19 | 36313 | 56581
4 | 12:34.32 | 4:06.26 | 56582 | 75057
5 | 16:40.58 | 5:19.01 | 75058 | 98983
6 | 21:59.59 | 5:05.02 | 98984 | 121860
7 | 27:04.61 | 5:20.58 | 121861 | 145918
8 | 32:25.44 | 5:38.40 | 145919 | 171308
9 | 38:04.09 | 4:43.30 | 171309 | 192563
10 | 42:47.39 | 5:24.32 | 192564 | 216895
11 | 48:11.71 | 2:36.51 | 216896 | 228646
12 | 50:48.47 | 6:08.11 | 228647 | 256257


Характеристики диапазона извлечения и сообщения об ошибках

Выбранный диапазон

Имя файла D:\Cusco - Essential\Cusco - Essential Cusco- The Journey.wav

Пиковый уровень 98.8 %
Скорость извлечения 4.9 X
Качество диапазона 100.0 %
CRC теста E14ECB8F
CRC копии E14ECB8F
Копирование… OK

Ошибок не произошло


AccurateRip: сводка

Трек 1 : извлечено точно (доверие 2) [4B6901DA] (AR v2)
Трек 2 : извлечено точно (доверие 2) [FCA65906] (AR v2)
Трек 3 : извлечено точно (доверие 2) [6D442BBC] (AR v2)
Трек 4 : извлечено точно (доверие 2) [09F89182] (AR v2)
Трек 5 : извлечено точно (доверие 2) [375E2608] (AR v2)
Трек 6 : извлечено точно (доверие 2) [B72234A4] (AR v2)
Трек 7 : извлечено точно (доверие 2) [A8DFD7EF] (AR v2)
Трек 8 : извлечено точно (доверие 2) [B4C4D6F1] (AR v2)
Трек 9 : извлечено точно (доверие 2) [6247E7E9] (AR v2)
Трек 10 : извлечено точно (доверие 2) [C55B8C99] (AR v2)
Трек 11 : извлечено точно (доверие 2) [54A6C491] (AR v2)
Трек 12 : извлечено точно (доверие 2) [2822B662] (AR v2)

Все треки извлечены точно

Конец отчёта

==== Контрольная сумма отчёта B3C50D8BB93457B8B8C9A9026F9442D644BEA91DA358F89D71775FD6867E3DE6 ====

[CUETools log; Date: 13.06.2022 22:42:08; Version: 2.1.4]
[CTDB TOCID: 06rVFO8f8L53WG9Fn.sdgnbqrNo-] found.
Track | CTDB Status
1 | (15/15) Accurately ripped
2 | (15/15) Accurately ripped
3 | (15/15) Accurately ripped
4 | (15/15) Accurately ripped
5 | (15/15) Accurately ripped
6 | (15/15) Accurately ripped
7 | (15/15) Accurately ripped
8 | (15/15) Accurately ripped
9 | (15/15) Accurately ripped
10 | (15/15) Accurately ripped
11 | (15/15) Accurately ripped
12 | (15/15) Accurately ripped
[AccurateRip ID: 0018aa21-00e93c28-a20d580c] found.
Track [ CRC | V2 ] Status
01 [b5154765|4b6901da] (0+6/8) Accurately ripped
02 [85efbd2c|fca65906] (0+6/8) Accurately ripped
03 [fbec9c7b|6d442bbc] (0+6/8) Accurately ripped
04 [74e18364|09f89182] (0+6/8) Accurately ripped
05 [46f1cbba|375e2608] (0+6/8) Accurately ripped
06 [8c7da19b|b72234a4] (0+6/8) Accurately ripped
07 [3b02856f|a8dfd7ef] (0+6/8) Accurately ripped
08 [71bdcdc2|b4c4d6f1] (0+6/8) Accurately ripped
09 [d2761f73|6247e7e9] (0+6/8) Accurately ripped
10 [dc835a82|c55b8c99] (0+6/8) Accurately ripped
11 [3a3f2f1d|54a6c491] (0+6/8) Accurately ripped
12 [bbb398c4|2822b662] (0+6/8) Accurately ripped
Offsetted by -30:
01 [2a39300d] (0/8) No match (V2 was not tested)
02 [fad47af7] (0/8) No match (V2 was not tested)
03 [087f77d7] (0/8) No match (V2 was not tested)
04 [bddf5ba9] (0/8) No match (V2 was not tested)
05 [d5baca74] (0/8) No match (V2 was not tested)
06 [f2732d32] (0/8) No match (V2 was not tested)
07 [a62eb499] (0/8) No match (V2 was not tested)
08 [980484fe] (0/8) No match (V2 was not tested)
09 [bdebfad0] (0/8) No match (V2 was not tested)
10 [0f28c675] (0/8) No match (V2 was not tested)
11 [1ca23fe7] (0/8) No match (V2 was not tested)
12 [f5252d88] (0/8) No match (V2 was not tested)

Track Peak [ CRC32 ] [W/O NULL] [ LOG ]
– 98,8 [E14ECB8F] [4A1736EF] CRC32
01 98,8 [1E23F940] [F98A5243]
02 87,3 [EF8F9248] [FDF98734]
03 98,8 [18CBD1D7] [DB79B172]
04 98,7 [F5B14048] [71C115B9]
05 98,7 [8218944C] [A0E34F1F]
06 94,5 [CDE21382] [1E57583E]
07 96,4 [5E4CEDE0] [E6C589DD]
08 98,7 [CB0A800A] [2B2F2B2C]
09 92,2 [1B39CFA0] [47E21753]
10 94,2 [B354E8C0] [E7FDB861]
11 98,8 [1A320487] [6DF582E8]
12 97,6 [6447C6D8] [C9DFA6F8]

Thanks to webcocon0507