Tags
Language
Tags

Cyril Pahinui & Bob Brozman - Four Hands Sweet & Hot (1999)

Posted By: gribovar
Cyril Pahinui & Bob Brozman - Four Hands Sweet & Hot (1999)

Cyril Pahinui & Bob Brozman - Four Hands Sweet & Hot (1999)
EAC Rip | WavPack (image+.cue+log) - 450 MB | MP3 CBR 320 kbps (LAME 3.93) - 157 MB | Covers - 107 MB
Genre: World, Folk, Hawaii Guitar | RAR 3% Rec. | Label: Dancing Cat Records (08022-38048-2)

Another beautiful recording from the Dancing Cat label's Slack Key Guitar Masters series. This one pairs acoustic slack key by Cyril Pahinui (from the royal family of slack key) with steel from Bob Brozman. Occasionally, the speed can be impressive (something notable for slack key generally). A tiny bit of crossover can be heard once in a while, as in the Bonanza bits that show up in "Hawaiian Cowboy." This unique album showcases the considerable improvisational talents of both artists in a variety of songs, tunings and tempos. A wonderful bit of work on the parts of both musicians.
Tracklist:
01. Hilo E/E Lili'u E
02. Wai Ulu
03. Lei 'Ohu
04. Lihu'e
05. E Mama Ea
06. Hawaiian Cowboy
07. Inikiniki Malie (Gentle Pinches Of The Wind)
08. Lei No Ka'iulani
09. Lbc Slack Key
10. Coquette
11. E Nihi Ka Hele
12. Wai' Alae
13. Kela Mea Whiffa /Hilo March
14. Hula O Makee
15. Hilo Hanakahi
16. Ku'u Lei (My Wreath Of Flowers)

Total time: 01:06:48

Exact Audio Copy V1.0 beta 1 from 15. November 2010

EAC extraction logfile from 28. December 2010, 5:40

Cyril Pahinui and Bob Brozman / Four Hands Sweet and Hot

Used drive : HL-DT-STDVD-RAM GH22LP20 Adapter: 4 ID: 1

Read mode : Secure
Utilize accurate stream : Yes
Defeat audio cache : Yes
Make use of C2 pointers : No

Read offset correction : 102
Overread into Lead-In and Lead-Out : No
Fill up missing offset samples with silence : Yes
Delete leading and trailing silent blocks : No
Null samples used in CRC calculations : Yes
Used interface : Installed external ASPI interface

Used output format : User Defined Encoder
Selected bitrate : 896 kBit/s
Quality : High
Add ID3 tag : No
Command line compressor : C:\Program Files (x86)\Exact Audio Copy\WAV Pack\wavpack.exe
Additional command line options : -hlmx2 %s


TOC of the extracted CD

Track | Start | Length | Start sector | End sector
––––––––––––––––––––––––––––-
1 | 0:00.00 | 3:59.32 | 0 | 17956
2 | 3:59.32 | 6:06.53 | 17957 | 45459
3 | 10:06.10 | 4:33.45 | 45460 | 65979
4 | 14:39.55 | 3:17.37 | 65980 | 80791
5 | 17:57.17 | 4:48.53 | 80792 | 102444
6 | 22:45.70 | 3:03.32 | 102445 | 116201
7 | 25:49.27 | 3:09.25 | 116202 | 130401
8 | 28:58.52 | 2:18.63 | 130402 | 140814
9 | 31:17.40 | 3:13.52 | 140815 | 155341
10 | 34:31.17 | 3:42.35 | 155342 | 172026
11 | 38:13.52 | 6:10.00 | 172027 | 199776
12 | 44:23.52 | 3:07.65 | 199777 | 213866
13 | 47:31.42 | 3:39.45 | 213867 | 230336
14 | 51:11.12 | 4:42.68 | 230337 | 251554
15 | 55:54.05 | 5:17.50 | 251555 | 275379
16 | 61:11.55 | 5:36.50 | 275380 | 300629


Range status and errors

Selected range

Filename X:\Releases RAW\Cyril Pahinui and Bob Brozman - Four Hands Sweet and Hot\Cyril Pahinui and Bob Brozman - Four Hands Sweet and Hot.wav

Peak level 100.0 %
Extraction speed 0.1 X
Range quality 100.0 %
Test CRC 2EC6DDC3
Copy CRC 2EC6DDC3
Copy OK

No errors occurred


AccurateRip summary

Track 1 cannot be verified as accurate (confidence 8) [E76BCBA7], AccurateRip returned [20403F04]
Track 2 cannot be verified as accurate (confidence 8) [9774D1BA], AccurateRip returned [B6029647]
Track 3 cannot be verified as accurate (confidence 7) [89B7B146], AccurateRip returned [AE8BCB55]
Track 4 cannot be verified as accurate (confidence 8) [0372C00F], AccurateRip returned [C114CE0E]
Track 5 cannot be verified as accurate (confidence 8) [9442C306], AccurateRip returned [E4D8EEDD]
Track 6 cannot be verified as accurate (confidence 8) [3F87A0EF], AccurateRip returned [ED45A973]
Track 7 cannot be verified as accurate (confidence 8) [0CFC2D4F], AccurateRip returned [FE986031]
Track 8 cannot be verified as accurate (confidence 7) [88589B51], AccurateRip returned [268BC33C]
Track 9 cannot be verified as accurate (confidence 8) [C3913DD2], AccurateRip returned [D7214689]
Track 10 cannot be verified as accurate (confidence 8) [EFB602BE], AccurateRip returned [54E6639A]
Track 11 cannot be verified as accurate (confidence 7) [36A94BFA], AccurateRip returned [48FEFECA]
Track 12 cannot be verified as accurate (confidence 8) [29D55885], AccurateRip returned [578BA87F]
Track 13 cannot be verified as accurate (confidence 8) [26290606], AccurateRip returned [E5010F24]
Track 14 cannot be verified as accurate (confidence 8) [A8FAEC7D], AccurateRip returned [BB42EB71]
Track 15 cannot be verified as accurate (confidence 8) [5370E712], AccurateRip returned [2985E160]
Track 16 cannot be verified as accurate (confidence 8) [EC1F73F1], AccurateRip returned [F8D50D09]

No tracks could be verified as accurate
You may have a different pressing from the one(s) in the database

End of status report

==== Log checksum 7FE3FE5BC98AD8B9AF9A5A30C08929FCF01D7582EA8D7D2698C9805F7A257ABB ====

[CUETools log; Date: 02.07.2019 13:55:25; Version: 2.1.4]
[CTDB TOCID: g.ri.DRuDOOJEIODpiDIeDf4lIw-] found.
Track | CTDB Status
1 | (16/16) Accurately ripped
2 | (16/16) Accurately ripped
3 | (16/16) Accurately ripped
4 | (16/16) Accurately ripped
5 | (16/16) Accurately ripped
6 | (16/16) Accurately ripped
7 | (16/16) Accurately ripped
8 | (16/16) Accurately ripped
9 | (16/16) Accurately ripped
10 | (16/16) Accurately ripped
11 | (16/16) Accurately ripped
12 | (16/16) Accurately ripped
13 | (16/16) Accurately ripped
14 | (16/16) Accurately ripped
15 | (16/16) Accurately ripped
16 | (16/16) Accurately ripped
[AccurateRip ID: 00262198-01c571db-ef0fa810] found.
Track [ CRC | V2 ] Status
01 [e76bcba7|c3536346] (02+00/20) Accurately ripped
02 [9774d1ba|e07b65e5] (02+00/20) Accurately ripped
03 [89b7b146|77839e59] (02+00/19) Accurately ripped
04 [0372c00f|596f94d4] (02+00/19) Accurately ripped
05 [9442c306|cdd98e26] (02+00/20) Accurately ripped
06 [3f87a0ef|79b2c838] (02+00/20) Accurately ripped
07 [0cfc2d4f|8c59369a] (02+00/20) Accurately ripped
08 [88589b51|6ccbd983] (02+00/19) Accurately ripped
09 [c3913dd2|56b21b7a] (02+00/20) Accurately ripped
10 [efb602be|ba8e2092] (02+00/19) Accurately ripped
11 [36a94bfa|10567165] (02+00/19) Accurately ripped
12 [29d55885|90583ebc] (02+00/20) Accurately ripped
13 [26290606|f9e64da2] (02+00/20) Accurately ripped
14 [a8faec7d|08c32c70] (02+00/20) Accurately ripped
15 [5370e712|e9882f9e] (02+00/20) Accurately ripped
16 [ec1f73f1|4450d032] (02+00/20) Accurately ripped
Offsetted by -5:
01 [20403f04] (08/20) Accurately ripped
02 [b6029647] (08/20) Accurately ripped
03 [ae8bcb55] (07/19) Accurately ripped
04 [c114ce0e] (08/19) Accurately ripped
05 [e4d8eedd] (08/20) Accurately ripped
06 [ed45a973] (08/20) Accurately ripped
07 [fe986031] (08/20) Accurately ripped
08 [268bc33c] (07/19) Accurately ripped
09 [d7214689] (08/20) Accurately ripped
10 [54e6639a] (08/19) Accurately ripped
11 [48fefeca] (07/19) Accurately ripped
12 [578ba87f] (08/20) Accurately ripped
13 [e5010f24] (08/20) Accurately ripped
14 [bb42eb71] (08/20) Accurately ripped
15 [2985e160] (08/20) Accurately ripped
16 [f8d50d09] (08/20) Accurately ripped

Track Peak [ CRC32 ] [W/O NULL] [ LOG ]
– 100,0 [2EC6DDC3] [6671ED24] CRC32
01 100,0 [F0B95111] [289FA039]
02 97,4 [4F642282] [FB43CC45]
03 100,0 [F118576B] [9EC08B63]
04 99,8 [E4786A93] [924381C9]
05 93,4 [2BA6B3B2] [7F2A0823]
06 99,9 [2927C69A] [B98200BE]
07 95,0 [76C1EFA7] [B3708061]
08 99,9 [0BFCEB49] [381A19B6]
09 95,4 [36B9FF37] [9BFCB712]
10 100,0 [8458ED5C] [85F00768]
11 100,0 [DA6F1AC7] [8BC1A044]
12 100,0 [343AD139] [0906DCF2]
13 100,0 [705087DA] [223321B6]
14 99,9 [77C888D4] [29078788]
15 98,4 [E6694121] [E4F35FF3]
16 99,9 [ECD421EE] [AA41AAE7]

Thanks to Гордый