Tags
Language
Tags

Derek Bailey/Jamaaladeen Tacuma/Calvin Weston - Mirakle (2000) {Tzadik}

Posted By: TestTickles
Derek Bailey/Jamaaladeen Tacuma/Calvin Weston - Mirakle (2000) {Tzadik}

Derek Bailey/Jamaaladeen Tacuma/Calvin Weston - Mirakle (2000) {Tzadik}
EAC Rip | FLAC with CUE and log | scans | 414 mb
MP3 CBR 320kbps | RAR | 163 mb
Genre: experimental rock, avant-garde, free funk, free improvisation

Mirakle is a 2000 album by adventurous jazz artists Derek Bailey, Jamaaladeen Tacuma and Calvin Weston. This was released bh Tzadik Records.

Derek Bailey/Jamaaladeen Tacuma/Calvin Weston - Mirakle (2000) {Tzadik}

1. Moment (16:35)
2. What It Is (9:01)
3. This Time (16:00)
4. Nebeula (8:53)
5. Present (12:26)
6. s'Now (7:50)

Derek Bailey-guitar
Jamaaladeen Tacuma-bass
Calvin Weston-drums

Recorded 29 November, 1999 at Orange Music by Robert Musso
Mastered by Allan Tucker at Foothill Digital, NYC

In one of the most unlikely groupings in music history, avant-skronk guitar godfather Derek Bailey teams up with the harmolodic, free funk rhythm section of Jamaaladeen Tacuma and Calvin Weston. Weston and Tacuma have been the anchor for Ornette Coleman, James Blood Ulmer, and James Carter's first electric album; Weston has been a member of the Lounge Lizards, so these guys can clearly cut a groove. You'd be hard-pressed to say that Derek Bailey has ever grooved in his recorded career. That's what makes Mirakle so much fun. No one compromises their individual sound or strengths, but each is a good enough listener and improviser to make things happen as a group. Weston and Tacuma lay it down super funky, while Derek Bailey does his thing over the top, and it works! Who says the avant-garde can't be a rocking good time?

EAC extraction logfile from 9. March 2008, 09:20 for CD
Derek Bailey, Jamaaladeen Tacuma, Calvin Weston / Mirakle

Used drive : PLEXTOR DVD-ROM PX-116A2 Adapter: 3 ID: 0
Read mode : Secure with NO C2, accurate stream, disable cache
Read offset correction : 102
Overread into Lead-In and Lead-Out : No

Used output format : Internal WAV Routines
44.100 Hz; 16 Bit; Stereo

Other options :
Fill up missing offset samples with silence : Yes
Delete leading and trailing silent blocks : No
Installed external ASPI interface


Track 1
Filename C:\cuntfist\FLAC\Derek Bailey, Jamaaladeen Tacuma, Calvin Weston - Mirakle (2000) [FLAC] {Tzadik}\01 - Moment.wav

Pre-gap length 0:00:02.00

Peak level 100.0 %
Track quality 100.0 %
Test CRC 72A11ADA
Copy CRC 72A11ADA
Copy OK

Track 2
Filename C:\cuntfist\FLAC\Derek Bailey, Jamaaladeen Tacuma, Calvin Weston - Mirakle (2000) [FLAC] {Tzadik}\02 - What It Is.wav

Peak level 100.0 %
Track quality 100.0 %
Test CRC 7B167151
Copy CRC 7B167151
Copy OK

Track 3
Filename C:\cuntfist\FLAC\Derek Bailey, Jamaaladeen Tacuma, Calvin Weston - Mirakle (2000) [FLAC] {Tzadik}\03 - This Time.wav

Peak level 99.8 %
Track quality 99.9 %
Test CRC 6A66C00A
Copy CRC 6A66C00A
Copy OK

Track 4
Filename C:\cuntfist\FLAC\Derek Bailey, Jamaaladeen Tacuma, Calvin Weston - Mirakle (2000) [FLAC] {Tzadik}\04 - Nebeula.wav

Peak level 100.0 %
Track quality 100.0 %
Test CRC DA6454CC
Copy CRC DA6454CC
Copy OK

Track 5
Filename C:\cuntfist\FLAC\Derek Bailey, Jamaaladeen Tacuma, Calvin Weston - Mirakle (2000) [FLAC] {Tzadik}\05 - Present.wav

Peak level 100.0 %
Track quality 100.0 %
Test CRC 7E2A5B1F
Copy CRC 7E2A5B1F
Copy OK

Track 6
Filename C:\cuntfist\FLAC\Derek Bailey, Jamaaladeen Tacuma, Calvin Weston - Mirakle (2000) [FLAC] {Tzadik}\06 - s'Now.wav

Pre-gap length 0:00:59.43

Peak level 100.0 %
Track quality 100.0 %
Test CRC 250E4BEC
Copy CRC 250E4BEC
Copy OK

No errors occured


End of status report


Derek Bailey/Jamaaladeen Tacuma/Calvin Weston - Mirakle (2000) {Tzadik}


Thank you to the original uploader.