Subcategories
Tags
Language
Tags

D.O.A. - 'Bloodied But Unbowed' (1984) + 'War On 45' EP (1982) 2 in 1 CD, 1992

Posted By: Designol
D.O.A. - 'Bloodied But Unbowed' (1984) + 'War On 45' EP (1982) 2 in 1 CD, 1992

D.O.A. - 'Bloodied But Unbowed' (1984) + 'War On 45' EP (1982) 2 in 1 CD, 1992
EAC | FLAC | Tracks (Cue&Log) ~ 449 Mb | Mp3 (CBR320) ~ 146 Mb | Scans ~ 58 Mb
Hardcore Punk, Punk Rock | Label: Restless Records | # LS 9185 2 | Time: 01:03:56

Pretty much exactly what it says it is – a combination of the two releases, the Bloodied But Unbowed compilation and the War On 45 EP, on one compact disc. The remastering job is fine, the cover art is all reproduced, and there are even complete lyrics, with one or two exceptions. Anyone wanting to give these guys a listen should start right here.

Review by Ned Raggett, Allmusic.com

'Bloodied But Unbowed' (1984):

Drawing from the band's first two albums as well as a variety of singles and other releases, Bloodied But Unbowed is the perfect way to take the plunge into D.O.A.'s world, where punk is forever a guiding light for blunt and brusque trashings of the status quo. Whether it was the band's Canadian roots that enabled them to create such a cutting rip into early-'80s America from an outside perspective, or just simply a natural anger coming forth, the sentiments of "Fucked Up Ronnie" and "World War 3" burn loud and hot. Elsewhere the quartet tackles slightly more mundane, if favored, punk targets – poseurs ("Rich Bitch"), societal control ("The Prisoner," "Smash the State"), idiots in general ("Watcha Gonna Do?," "Get Out of My Life"), and even landlords ("Slumlord," about the only tune even more attacking than the Dead Kennedys' "Let's Lynch the Landlord"). Joey Keithley's surprisingly articulate singing and guitar work pretty much helped define hardcore as much as the work of Minor Threat did, but the secret weapon of the group was unquestionably Chuck Biscuits, who was both a decent-enough songwriter for the band, and a simply fantastic drummer. The band's self-production was rather well-accomplished for what they had to do – there was enough of the bass coming through to keep things from simply being a trebly, spiky mess, at least more often than not. The one bit of outside help on boards came from legendary OC punk producer Thom Wilson, whose work on "Fuck You" equals that of the job he did for bands like the Adolescents. At points, the music is more like draggy metal that Kiss wouldn't mind as much, and sometimes Keithley indulges in goofy Johnny Rotten vocalisms, but all in all this stuff kicks hard years after it was recorded.

Review by Ned Raggett, Allmusic.com

'War On 45' EP (1982):

Working throughout with Thom Wilson on this eight-song effort War on 45, D.O.A. turned in a tightly wound, perfect blast of punk angst and anger. Wilson's usual economy and focused studio work matched with the quick, snarling anthems of defiance right on down the line. Songs like "Liar for Hire" and "American the Beautiful" smoke with the usual D.O.A. level of energy, with Wilson making it all even more tough, jumping right out of the speakers. Besides the band's originals, a variety of covers are essayed, with rather differing results. The Dils' own noted rip into the system "Class War" gets a perfectly understandable cover here, while Edwin Starr's soul classic "War" is treated in ways that Bruce Springsteen wishes he could pull off. As for the great "Let's Dance," originally by Chris Montez and later revamped by the Ramones, the fact it's retitled "Let's Fuck" tends to say it all. LA punk cartoonist Shawn Kerri tops it all off with a hilarious cover.

Review by Ned Raggett, Allmusic.com

D.O.A. - 'Bloodied But Unbowed' (1984) + 'War On 45' EP (1982) 2 in 1 CD, 1992



Tracklist:

'Bloodied But Unbowed' (1984):

01. Fuck You (2:07)
02. Rich Bitch (3:01)
03. The Prisoner (1:54)
04. Unknown (2:33)
05. Smash The State (1:31)
06. Slumlord (1:53)
07. New Age (2:20)
08. I Don't Give A Shit (1:21)
09. Waiting For You (0:51)
10. Whatcha Gonna Do (3:55)
11. World War 3 (3:32)
12. 2+2 (3:47)
13. The Enemy (2:50)
14. Fucked Up Ronnie (1:21)
15. Woke Up Screaming (2:38)
16. 001 Looser's Club (1:53)
17. 13 (2:19)
18. Get Out Of My Life (1:58)
19. D.O.A. (1:41)

'War On 45' EP (1982):

20. Liar For Hire (2:52)
21. I'm Right You're Wrong (2:00)
22. America The Beautifull (2:21)
23. Lets Fuck (2:18)
24. War (2:24)
25. I Hate You (2:30)
26. War In The East (4:27)
27. Class War (1:41)


Exact Audio Copy V1.0 beta 4 from 7. December 2014

EAC extraction logfile from 12. February 2017, 1:44

D.O.A. / Bloodied But Unbowed + War On 45

Used drive : TSSTcorpCDDVDW SH-224DB Adapter: 1 ID: 0

Read mode : Secure
Utilize accurate stream : Yes
Defeat audio cache : Yes
Make use of C2 pointers : No

Read offset correction : 6
Overread into Lead-In and Lead-Out : No
Fill up missing offset samples with silence : Yes
Delete leading and trailing silent blocks : No
Null samples used in CRC calculations : Yes
Used interface : Native Win32 interface for Win NT & 2000
Gap handling : Appended to previous track

Used output format : User Defined Encoder
Selected bitrate : 896 kBit/s
Quality : High
Add ID3 tag : No
Command line compressor : C:\Program Files\Exact Audio Copy\Flac\flac.exe
Additional command line options : -6 -V -T "ARTIST=%artist%" -T "TITLE=%title%" -T "ALBUM=%albumtitle%" -T "DATE=%year%" -T "TRACKNUMBER=%tracknr%" -T "GENRE=%genre%" -T "COMMENT=%comment%" %source% -o %dest%


TOC of the extracted CD

Track | Start | Length | Start sector | End sector
––––––––––––––––––––––––––––-
1 | 0:00.32 | 2:06.70 | 32 | 9551
2 | 2:07.27 | 3:01.20 | 9552 | 23146
3 | 5:08.47 | 1:53.45 | 23147 | 31666
4 | 7:02.17 | 2:32.45 | 31667 | 43111
5 | 9:34.62 | 1:31.10 | 43112 | 49946
6 | 11:05.72 | 1:53.15 | 49947 | 58436
7 | 12:59.12 | 2:19.50 | 58437 | 68911
8 | 15:18.62 | 1:20.50 | 68912 | 74961
9 | 16:39.37 | 0:50.70 | 74962 | 78781
10 | 17:30.32 | 3:55.13 | 78782 | 96419
11 | 21:25.45 | 3:31.65 | 96420 | 112309
12 | 24:57.35 | 3:47.07 | 112310 | 129341
13 | 28:44.42 | 2:49.73 | 129342 | 142089
14 | 31:34.40 | 1:20.55 | 142090 | 148144
15 | 32:55.20 | 2:37.45 | 148145 | 159964
16 | 35:32.65 | 1:52.57 | 159965 | 168421
17 | 37:25.47 | 2:18.60 | 168422 | 178831
18 | 39:44.32 | 1:58.13 | 178832 | 187694
19 | 41:42.45 | 1:41.00 | 187695 | 195269
20 | 43:23.45 | 2:51.45 | 195270 | 208139
21 | 46:15.15 | 1:59.52 | 208140 | 217116
22 | 48:14.67 | 2:21.25 | 217117 | 227716
23 | 50:36.17 | 2:18.00 | 227717 | 238066
24 | 52:54.17 | 2:24.33 | 238067 | 248899
25 | 55:18.50 | 2:30.20 | 248900 | 260169
26 | 57:48.70 | 4:27.00 | 260170 | 280194
27 | 62:15.70 | 1:40.40 | 280195 | 287734


Track 1

Filename C:\New Folder\01 - Fuck You.wav

Pre-gap length 0:00:02.32

Peak level 100.0 %
Extraction speed 1.7 X
Track quality 100.0 %
Test CRC 35D73BC3
Copy CRC 35D73BC3
Accurately ripped (confidence 2) [5E1EA050] (AR v2)
Copy OK

Track 2

Filename C:\New Folder\02 - Rich Bitch.wav

Pre-gap length 0:00:00.52

Peak level 100.0 %
Extraction speed 1.6 X
Track quality 99.9 %
Test CRC 2A0F23E8
Copy CRC 2A0F23E8
Accurately ripped (confidence 2) [24B58314] (AR v2)
Copy OK

Track 3

Filename C:\New Folder\03 - The Prisoner.wav

Pre-gap length 0:00:00.12

Peak level 98.8 %
Extraction speed 1.7 X
Track quality 100.0 %
Test CRC 519386C4
Copy CRC 519386C4
Accurately ripped (confidence 2) [F48C3AD0] (AR v2)
Copy OK

Track 4

Filename C:\New Folder\04 - Unknown.wav

Pre-gap length 0:00:00.67

Peak level 100.0 %
Extraction speed 1.9 X
Track quality 100.0 %
Test CRC 07C1AC5B
Copy CRC 07C1AC5B
Accurately ripped (confidence 2) [13389C21] (AR v2)
Copy OK

Track 5

Filename C:\New Folder\05 - Smash The State.wav

Pre-gap length 0:00:01.10

Peak level 100.0 %
Extraction speed 1.7 X
Track quality 100.0 %
Test CRC 01ECD676
Copy CRC 01ECD676
Accurately ripped (confidence 2) [0D1C636B] (AR v2)
Copy OK

Track 6

Filename C:\New Folder\06 - Slumlord.wav

Pre-gap length 0:00:00.20

Peak level 100.0 %
Extraction speed 1.4 X
Track quality 99.9 %
Test CRC 4D12E24D
Copy CRC 4D12E24D
Accurately ripped (confidence 2) [236AC24C] (AR v2)
Copy OK

Track 7

Filename C:\New Folder\07 - New Age.wav

Pre-gap length 0:00:00.40

Peak level 100.0 %
Extraction speed 1.9 X
Track quality 100.0 %
Test CRC 4D892D57
Copy CRC 4D892D57
Accurately ripped (confidence 2) [CC92C035] (AR v2)
Copy OK

Track 8

Filename C:\New Folder\08 - I Don't Give A Shit.wav

Peak level 100.0 %
Extraction speed 1.2 X
Track quality 99.8 %
Test CRC 6C9F0E83
Copy CRC 6C9F0E83
Accurately ripped (confidence 2) [88506D24] (AR v2)
Copy OK

Track 9

Filename C:\New Folder\09 - Waiting For You.wav

Pre-gap length 0:00:00.27

Peak level 100.0 %
Extraction speed 1.3 X
Track quality 100.0 %
Test CRC FFB6C54A
Copy CRC FFB6C54A
Accurately ripped (confidence 2) [95360486] (AR v2)
Copy OK

Track 10

Filename C:\New Folder\10 - Whatcha Gonna Do.wav

Pre-gap length 0:00:00.02

Peak level 100.0 %
Extraction speed 2.1 X
Track quality 100.0 %
Test CRC AB90F218
Copy CRC AB90F218
Accurately ripped (confidence 2) [2C4EB989] (AR v2)
Copy OK

Track 11

Filename C:\New Folder\11 - World War 3.wav

Pre-gap length 0:00:00.65

Peak level 100.0 %
Extraction speed 2.0 X
Track quality 100.0 %
Test CRC 7A601DC4
Copy CRC 7A601DC4
Accurately ripped (confidence 2) [7C56D629] (AR v2)
Copy OK

Track 12

Filename C:\New Folder\12 - 2+2.wav

Pre-gap length 0:00:00.35

Peak level 100.0 %
Extraction speed 1.8 X
Track quality 99.9 %
Test CRC 5C30845F
Copy CRC 5C30845F
Accurately ripped (confidence 2) [E450B638] (AR v2)
Copy OK

Track 13

Filename C:\New Folder\13 - The Enemy.wav

Pre-gap length 0:00:01.27

Peak level 99.7 %
Extraction speed 1.7 X
Track quality 99.9 %
Test CRC 81DAE267
Copy CRC 81DAE267
Accurately ripped (confidence 2) [DC44B7BB] (AR v2)
Copy OK

Track 14

Filename C:\New Folder\14 - Fucked Up Ronnie.wav

Pre-gap length 0:00:00.05

Peak level 98.8 %
Extraction speed 1.6 X
Track quality 100.0 %
Test CRC 2045D077
Copy CRC 2045D077
Accurately ripped (confidence 2) [019CB166] (AR v2)
Copy OK

Track 15

Filename C:\New Folder\15 - Woke Up Screaming.wav

Peak level 100.0 %
Extraction speed 1.9 X
Track quality 100.0 %
Test CRC 498ABB7C
Copy CRC 498ABB7C
Accurately ripped (confidence 2) [D0AE82CB] (AR v2)
Copy OK

Track 16

Filename C:\New Folder\16 - 001 Looser's Club.wav

Peak level 100.0 %
Extraction speed 1.8 X
Track quality 100.0 %
Test CRC B4A32EA9
Copy CRC B4A32EA9
Accurately ripped (confidence 2) [AE73FA7F] (AR v2)
Copy OK

Track 17

Filename C:\New Folder\17 - 13.wav

Peak level 100.0 %
Extraction speed 1.6 X
Track quality 99.9 %
Test CRC ADA6AB89
Copy CRC ADA6AB89
Accurately ripped (confidence 2) [B829095B] (AR v2)
Copy OK

Track 18

Filename C:\New Folder\18 - Get Out Of My Life.wav

Peak level 100.0 %
Extraction speed 1.5 X
Track quality 99.9 %
Test CRC 2E5ABE6D
Copy CRC 2E5ABE6D
Accurately ripped (confidence 2) [9952ACB5] (AR v2)
Copy OK

Track 19

Filename C:\New Folder\19 - D.O.A..wav

Peak level 100.0 %
Extraction speed 1.8 X
Track quality 100.0 %
Test CRC 681D01F6
Copy CRC 681D01F6
Accurately ripped (confidence 2) [31AC0748] (AR v2)
Copy OK

Track 20

Filename C:\New Folder\20 - Liar For Hire.wav

Pre-gap length 0:00:01.03

Peak level 100.0 %
Extraction speed 2.0 X
Track quality 100.0 %
Test CRC 3ECD7A04
Copy CRC 3ECD7A04
Accurately ripped (confidence 2) [61BC753F] (AR v2)
Copy OK

Track 21

Filename C:\New Folder\21 - I'm Right You're Wrong.wav

Peak level 100.0 %
Extraction speed 1.9 X
Track quality 100.0 %
Test CRC B6ECD09C
Copy CRC B6ECD09C
Accurately ripped (confidence 2) [AB487751] (AR v2)
Copy OK

Track 22

Filename C:\New Folder\22 - America The Beautifull.wav

Peak level 100.0 %
Extraction speed 1.9 X
Track quality 100.0 %
Test CRC DC762E50
Copy CRC DC762E50
Accurately ripped (confidence 2) [14D8B9B6] (AR v2)
Copy OK

Track 23

Filename C:\New Folder\23 - Lets Fuck.wav

Peak level 100.0 %
Extraction speed 1.9 X
Track quality 100.0 %
Test CRC 74B19968
Copy CRC 74B19968
Accurately ripped (confidence 2) [4DA1F681] (AR v2)
Copy OK

Track 24

Filename C:\New Folder\24 - War.wav

Pre-gap length 0:00:00.57

Peak level 100.0 %
Extraction speed 1.6 X
Track quality 99.9 %
Test CRC D73A0E16
Copy CRC D73A0E16
Accurately ripped (confidence 2) [97D8B492] (AR v2)
Copy OK

Track 25

Filename C:\New Folder\25 - I Hate You.wav

Pre-gap length 0:00:00.03

Peak level 100.0 %
Extraction speed 1.9 X
Track quality 100.0 %
Test CRC 365E3931
Copy CRC 365E3931
Accurately ripped (confidence 2) [CD68FA27] (AR v2)
Copy OK

Track 26

Filename C:\New Folder\26 - War In The East.wav

Pre-gap length 0:00:01.63

Peak level 100.0 %
Extraction speed 2.1 X
Track quality 100.0 %
Test CRC CDBDC5D6
Copy CRC CDBDC5D6
Accurately ripped (confidence 2) [96A6538A] (AR v2)
Copy OK

Track 27

Filename C:\New Folder\27 - Class War.wav

Peak level 100.0 %
Extraction speed 1.7 X
Track quality 100.0 %
Test CRC B0B0B51E
Copy CRC B0B0B51E
Accurately ripped (confidence 2) [EDF6AA1E] (AR v2)
Copy OK


All tracks accurately ripped

No errors occurred

End of status report

–– CUETools DB Plugin V2.1.4

[CTDB TOCID: 9Lv24bhl0N5T56yHCiCjHqnodM8-] found
Submit result: 9Lv24bhl0N5T56yHCiCjHqnodM8- has been confirmed
Track | CTDB Status
1 | (1/1) Accurately ripped
2 | (1/1) Accurately ripped
3 | (1/1) Accurately ripped
4 | (1/1) Accurately ripped
5 | (1/1) Accurately ripped
6 | (1/1) Accurately ripped
7 | (1/1) Accurately ripped
8 | (1/1) Accurately ripped
9 | (1/1) Accurately ripped
10 | (1/1) Accurately ripped
11 | (1/1) Accurately ripped
12 | (1/1) Accurately ripped
13 | (1/1) Accurately ripped
14 | (1/1) Accurately ripped
15 | (1/1) Accurately ripped
16 | (1/1) Accurately ripped
17 | (1/1) Accurately ripped
18 | (1/1) Accurately ripped
19 | (1/1) Accurately ripped
20 | (1/1) Accurately ripped
21 | (1/1) Accurately ripped
22 | (1/1) Accurately ripped
23 | (1/1) Accurately ripped
24 | (1/1) Accurately ripped
25 | (1/1) Accurately ripped
26 | (1/1) Accurately ripped
27 | (1/1) Accurately ripped


==== Log checksum 6ADF862D4D823F14FAF17803504F1A5B11EB0D986C3658FBDFFD282004678737 ====

foobar2000 1.2 / Dynamic Range Meter 1.1.1
log date: 2017-05-22 00:19:05

––––––––––––––––––––––––––––––––––––––––
Analyzed: D.O.A. / Bloodied But Unbowed + War On 45
––––––––––––––––––––––––––––––––––––––––

DR Peak RMS Duration Track
––––––––––––––––––––––––––––––––––––––––
DR8 0.00 dB -9.00 dB 2:07 01-Fuck You
DR12 0.00 dB -13.15 dB 3:01 02-Rich Bitch
DR12 -0.10 dB -13.51 dB 1:54 03-The Prisoner
DR12 0.00 dB -12.62 dB 2:33 04-Unknown
DR11 0.00 dB -12.36 dB 1:31 05-Smash The State
DR12 0.00 dB -14.06 dB 1:53 06-Slumlord
DR11 0.00 dB -12.83 dB 2:20 07-New Age
DR11 0.00 dB -11.75 dB 1:21 08-I Don't Give A Shit
DR11 0.00 dB -11.75 dB 0:51 09-Waiting For You
DR10 0.00 dB -12.66 dB 3:55 10-Whatcha Gonna Do
DR11 0.00 dB -12.42 dB 3:32 11-World War 3
DR12 0.00 dB -13.23 dB 3:47 12-2+2
DR10 -0.02 dB -11.40 dB 2:50 13-The Enemy
DR12 -0.10 dB -12.19 dB 1:21 14-Fucked Up Ronnie
DR12 0.00 dB -13.12 dB 2:38 15-Woke Up Screaming
DR12 0.00 dB -12.39 dB 1:53 16-001 Looser's Club
DR11 0.00 dB -12.20 dB 2:19 17-13
DR11 0.00 dB -12.17 dB 1:58 18-Get Out Of My Life
DR11 0.00 dB -12.03 dB 1:41 19-D.O.A.
DR10 0.00 dB -11.44 dB 2:52 20-Liar For Hire
DR10 0.00 dB -11.28 dB 2:00 21-I'm Right You're Wrong
DR10 0.00 dB -11.07 dB 2:21 22-America The Beautifull
DR10 0.00 dB -10.44 dB 2:18 23-Lets Fuck
DR10 0.00 dB -11.32 dB 2:24 24-War
DR10 0.00 dB -11.35 dB 2:30 25-I Hate You
DR11 0.00 dB -13.25 dB 4:27 26-War In The East
DR10 0.00 dB -11.07 dB 1:41 27-Class War
––––––––––––––––––––––––––––––––––––––––

Number of tracks: 27
Official DR value: DR11

Samplerate: 44100 Hz
Channels: 2
Bits per sample: 16
Bitrate: 1034 kbps
Codec: FLAC
================================================================================

D.O.A. - 'Bloodied But Unbowed' (1984) + 'War On 45' EP (1982) 2 in 1 CD, 1992

D.O.A. - 'Bloodied But Unbowed' (1984) + 'War On 45' EP (1982) 2 in 1 CD, 1992

All thanks to original releaser - alekow

More interesting music in My Blog