Tags
Language
Tags

VA - Dr. Dolittle 2 (Original Soundtrack) (2001) {J}

Posted By: TestTickles
VA - Dr. Dolittle 2 (Original Soundtrack) (2001) {J}

VA - Dr. Dolittle 2 (Original Soundtrack) (2001) {J}
EAC Rip | FLAC with CUE and log | 371 mb
MP3 CBR 320kbps | RAR | 125 mb
Genre: R&B, soul, hip-hop, rap

Dr. Dolittle 2 is the 2001 soundtrack to the film starring Eddie Murphy. This was released on the J label.

VA - Dr. Dolittle 2 (Original Soundtrack) (2001) {J}

01. The Product G&B & Wyclef – Cluck Cluck (3:59)
02. RL, Snoop Dogg & Lil' Kim – Do U Wanna Roll (Dolittle Theme) (4:33)
03. Mario & Fabolous – Tameeka (3:42)
04. Deborah Cox – Absolutely Not (3:36)
05. O-Town – We Fit Together (3:59)
06. Jimmy Cozier – Two Steps (4:17)
07. Flipmode Squad featuring Busta Rhymes with Kelis – What It Is (Part II) (4:21)
08. Alicia Keys – Rear View Mirror (4:05)
09. Luther Vandross – If I Was The One (4:21)
10. Angie Stone – Makin' Me Feel (4:08)
11. LFO & M.O.P. – Life Is Good (4:06)
12. Next with Lil' Zane – Lookin' For Love (3:36)
13. Medeiros – If I Knew (4:29)

Exact Audio Copy V1.0 beta 3 from 29. August 2011

EAC extraction logfile from 08. December 2013, 11:34

Various Artists / Dr. Dolittle 2 (Original Soundtrack)

Used drive : HL-DT-STDVD+-RW GSA-H21N Adapter: 0 ID: 0

Read mode : Secure
Utilize accurate stream : Yes
Defeat audio cache : Yes
Make use of C2 pointers : No

Read offset correction : 102
Overread into Lead-In and Lead-Out : No
Fill up missing offset samples with silence : Yes
Delete leading and trailing silent blocks : No
Null samples used in CRC calculations : Yes
Used interface : Native Win32 interface for Win NT & 2000
Gap handling : Appended to previous track

Used output format : User Defined Encoder
Selected bitrate : 1024 kBit/s
Quality : High
Add ID3 tag : No
Command line compressor : C:\Program Files\Exact Audio Copy\Flac\flac.exe
Additional command line options : -8 -V -T "ARTIST=%artist%" -T "TITLE=%title%" -T "ALBUM=%albumtitle%" -T "DATE=%year%" -T "TRACKNUMBER=%tracknr%" -T "GENRE=%genre%" -T "PERFORMER=%albuminterpret%" -T "COMPOSER=%composer%" %haslyrics%–tag-from-file=LYRICS="%lyricsfile%"%haslyrics% -T "ALBUMARTIST=%albumartist%" -T "DISCNUMBER=%cdnumber%" -T "TOTALDISCS=%totalcds%" -T "TOTALTRACKS=%numtracks%" -T "COMMENT=%comment%" %source% -o %dest%

TOC of the extracted CD

Track | Start | Length | Start sector | End sector
––––––––––––––––––––––––––––-
1 | 0:00.00 | 3:59.35 | 0 | 17959
2 | 3:59.35 | 4:33.20 | 17960 | 38454
3 | 8:32.55 | 3:42.32 | 38455 | 55136
4 | 12:15.12 | 3:35.43 | 55137 | 71304
5 | 15:50.55 | 3:58.57 | 71305 | 89211
6 | 19:49.37 | 4:17.13 | 89212 | 108499
7 | 24:06.50 | 4:20.52 | 108500 | 128051
8 | 28:27.27 | 4:05.15 | 128052 | 146441
9 | 32:32.42 | 4:21.33 | 146442 | 166049
10 | 36:54.00 | 4:07.65 | 166050 | 184639
11 | 41:01.65 | 4:05.55 | 184640 | 203069
12 | 45:07.45 | 3:35.67 | 203070 | 219261
13 | 48:43.37 | 4:27.00 | 219262 | 239286

Track 1

Filename C:\cuntfist\FLAC\VA - Dr. Dolittle 2 (Original Soundtrack) (2001) [FLAC] {J}\01 - The Product G&B & Wyclef – Cluck Cluck.wav

Pre-gap length 0:00:02.00

Peak level 98.8 %
Extraction speed 1.5 X
Track quality 100.0 %
Test CRC 4A546C60
Copy CRC 4A546C60
Track not present in AccurateRip database
Copy OK

Track 2

Filename C:\cuntfist\FLAC\VA - Dr. Dolittle 2 (Original Soundtrack) (2001) [FLAC] {J}\02 - RL, Snoop Dogg & Lil' Kim – Do U Wanna Roll (Dolittle Theme).wav

Pre-gap length 0:00:01.90

Peak level 98.8 %
Extraction speed 1.8 X
Track quality 100.0 %
Test CRC 8A36F7EA
Copy CRC 8A36F7EA
Track not present in AccurateRip database
Copy OK

Track 3

Filename C:\cuntfist\FLAC\VA - Dr. Dolittle 2 (Original Soundtrack) (2001) [FLAC] {J}\03 - Mario & Fabolous – Tameeka.wav

Pre-gap length 0:00:01.93

Peak level 98.8 %
Extraction speed 1.7 X
Track quality 99.9 %
Test CRC 1AFEFA07
Copy CRC 1AFEFA07
Track not present in AccurateRip database
Copy OK

Track 4

Filename C:\cuntfist\FLAC\VA - Dr. Dolittle 2 (Original Soundtrack) (2001) [FLAC] {J}\04 - Deborah Cox – Absolutely Not.wav

Pre-gap length 0:00:01.89

Peak level 98.8 %
Extraction speed 2.0 X
Track quality 100.0 %
Test CRC 9F546E61
Copy CRC 9F546E61
Track not present in AccurateRip database
Copy OK

Track 5

Filename C:\cuntfist\FLAC\VA - Dr. Dolittle 2 (Original Soundtrack) (2001) [FLAC] {J}\05 - O-Town – We Fit Together.wav

Pre-gap length 0:00:01.90

Peak level 97.7 %
Extraction speed 1.9 X
Track quality 100.0 %
Test CRC 7C7A28AF
Copy CRC 7C7A28AF
Track not present in AccurateRip database
Copy OK

Track 6

Filename C:\cuntfist\FLAC\VA - Dr. Dolittle 2 (Original Soundtrack) (2001) [FLAC] {J}\06 - Jimmy Cozier – Two Steps.wav

Pre-gap length 0:00:01.89

Peak level 98.8 %
Extraction speed 2.3 X
Track quality 100.0 %
Test CRC 6C9B4C29
Copy CRC 6C9B4C29
Track not present in AccurateRip database
Copy OK

Track 7

Filename C:\cuntfist\FLAC\VA - Dr. Dolittle 2 (Original Soundtrack) (2001) [FLAC] {J}\07 - Flipmode Squad featuring Busta Rhymes with Kelis – What It Is (Part II).wav

Pre-gap length 0:00:01.90

Peak level 97.7 %
Extraction speed 2.4 X
Track quality 100.0 %
Test CRC D23A002C
Copy CRC D23A002C
Track not present in AccurateRip database
Copy OK

Track 8

Filename C:\cuntfist\FLAC\VA - Dr. Dolittle 2 (Original Soundtrack) (2001) [FLAC] {J}\08 - Alicia Keys – Rear View Mirror.wav

Pre-gap length 0:00:01.89

Peak level 98.8 %
Extraction speed 2.5 X
Track quality 100.0 %
Test CRC 9FFB3BF6
Copy CRC 9FFB3BF6
Track not present in AccurateRip database
Copy OK

Track 9

Filename C:\cuntfist\FLAC\VA - Dr. Dolittle 2 (Original Soundtrack) (2001) [FLAC] {J}\09 - Luther Vandross – If I Was The One.wav

Pre-gap length 0:00:01.89

Peak level 98.8 %
Extraction speed 2.5 X
Track quality 100.0 %
Test CRC 1CD0C4CD
Copy CRC 1CD0C4CD
Track not present in AccurateRip database
Copy OK

Track 10

Filename C:\cuntfist\FLAC\VA - Dr. Dolittle 2 (Original Soundtrack) (2001) [FLAC] {J}\10 - Angie Stone – Makin' Me Feel.wav

Pre-gap length 0:00:01.90

Peak level 98.7 %
Extraction speed 2.8 X
Track quality 100.0 %
Test CRC C0D594A5
Copy CRC C0D594A5
Track not present in AccurateRip database
Copy OK

Track 11

Filename C:\cuntfist\FLAC\VA - Dr. Dolittle 2 (Original Soundtrack) (2001) [FLAC] {J}\11 - LFO & M.O.P. – Life Is Good.wav

Pre-gap length 0:00:01.90

Peak level 97.7 %
Extraction speed 2.9 X
Track quality 100.0 %
Test CRC 1BA14E09
Copy CRC 1BA14E09
Track not present in AccurateRip database
Copy OK

Track 12

Filename C:\cuntfist\FLAC\VA - Dr. Dolittle 2 (Original Soundtrack) (2001) [FLAC] {J}\12 - Next with Lil' Zane – Lookin' For Love.wav

Pre-gap length 0:00:01.90

Peak level 97.7 %
Extraction speed 2.9 X
Track quality 100.0 %
Test CRC B9D8081E
Copy CRC B9D8081E
Track not present in AccurateRip database
Copy OK

Track 13

Filename C:\cuntfist\FLAC\VA - Dr. Dolittle 2 (Original Soundtrack) (2001) [FLAC] {J}\13 - Medeiros – If I Knew.wav

Pre-gap length 0:00:01.89

Peak level 97.7 %
Extraction speed 3.1 X
Track quality 100.0 %
Test CRC 1990C48F
Copy CRC 1990C48F
Track not present in AccurateRip database
Copy OK

None of the tracks are present in the AccurateRip database

No errors occurred

End of status report

–– CUETools DB Plugin V2.1.3

[CTDB TOCID: bPRUdmxSwcbH9lzmK7OoZ1DTUMY-] found, Submit result: bPRUdmxSwcbH9lzmK7OoZ1DTUMY- has been confirmed
[05ded31e] (1/1) Accurately ripped

==== Log checksum D60CD56AD3B96489EDC8A3323F134D75EB6CB73C5B2AD6A150B9A3CE71D63F33 ====


VA - Dr. Dolittle 2 (Original Soundtrack) (2001) {J}


Thank you to the original uploader.