Tags
Language
Tags
March 2024
Su Mo Tu We Th Fr Sa
25 26 27 28 29 1 2
3 4 5 6 7 8 9
10 11 12 13 14 15 16
17 18 19 20 21 22 23
24 25 26 27 28 29 30
31 1 2 3 4 5 6
Attention❗ To save your time, in order to download anything on this site, you must be registered 👉 HERE. If you do not have a registration yet, it is better to do it right away. ✌

( • )( • ) ( ͡⚆ ͜ʖ ͡⚆ ) (‿ˠ‿)
SpicyMags.xyz

Damn Yankees - Damn Yankees (1990)

Posted By: popsakov
Damn Yankees - Damn Yankees (1990)

Damn Yankees - Damn Yankees (1990)
EAC Rip | FLAC (Img) + Cue + Log ~ 350 Mb | MP3 CBR320 ~ 131 Mb
Full Scans | 00:45:46 | RAR 5% Recovery
Warner Bros. Records #9 26159-2 / BMG Direct Marketing, Inc. #D-114852 | US
Hard Rock / Arena Rock / Hair Metal

Damn Yankees was the eponymous debut album by the American hard rock supergroup Damn Yankees. It is also notable for being the album that revived the popular career of guitarist Ted Nugent. It went double platinum, and featured such chart topping hits as "High Enough", "Damn Yankees", and "Coming of Age".

Although the term "supergroup" doesn't quite apply to the Damn Yankees, they did manage to rekindle the spirit of 1970s (and '80s) rock with each of their talents, at least to some extent. Damn Yankees took the unblemished, radio rock ballad "High Enough" to its deserving number three spot on the singles chart, with its power stemming from the oily melody and the made-to-order guitar playing of Ted Nugent. Both Tommy Shaw and Night Ranger's Jack Blades give "High Enough" an even quantity of lushness and might, which helped the album itself climb to number 13 and gain platinum status. "Coming of Age" is the album's second-best track, which has the band rocking out without going over the edge and sounding too contrived. The rest of the album finds the group reliving their glory days, which is to be expected, and tracks like "Runaway" and "Come Again" come through as avid little rockers. Only "Piledriver" and "Rock City" sound silly and pushed, most likely influenced by Nugent himself. As the 1990s approached, the slick sound of guitar rock may have been dwindling, but Damn Yankees do a fine job at keeping it alive at least for a little while. By the time their next album was released, the decade had no room for their brand of arena rock, which sounded more passé than ever before, despite a decent sounding single which kicked it off.
~ Mike DeGagne, All Music

***************

Damn Yankees - Damn Yankees (1990)

Track List:

01. Coming Of Age [4:20]
02. Bad Reputation [4:30]
03. Runaway [4:04]
04. High Enough [4:45]
05. Damn Yankees [4:40]
06. Come Again [5:40]
07. Mystified [4:16]
08. Rock City [4:27]
09. Tell Me How You Want It [4:35]
10. Piledriver [4:27]

Personnel:
Tommy Shaw - guitars and vocals
Ted Nugent - guitars and vocals
Jack Blades - bass guitar and vocals
Michael Cartellone - drums

Additional musicians:
Alan Pasqua - Hammond organ
Neverleave Brothers - backing vocals
Jimmie Haskell - string arrangements, conductor

Exact Audio Copy V1.3 from 2. September 2016

EAC extraction logfile from 28. May 2020, 17:46

Damn Yankees / Damn Yankees

Used drive : ASUS DRW-24D5MT Adapter: 1 ID: 0

Read mode : Secure
Utilize accurate stream : Yes
Defeat audio cache : Yes
Make use of C2 pointers : No

Read offset correction : 6
Overread into Lead-In and Lead-Out : No
Fill up missing offset samples with silence : Yes
Delete leading and trailing silent blocks : No
Null samples used in CRC calculations : Yes
Used interface : Native Win32 interface for Win NT & 2000

Used output format : User Defined Encoder
Selected bitrate : 128 kBit/s
Quality : High
Add ID3 tag : No
Command line compressor : C:\Program Files (x86)\Exact Audio Copy\FLAC\FLAC.EXE
Additional command line options : -V -8 -T "Date=%year%" -T "Genre=%genre%" %source%


TOC of the extracted CD

Track | Start | Length | Start sector | End sector
––––––––––––––––––––––––––––-
1 | 0:00.32 | 4:20.30 | 32 | 19561
2 | 4:20.62 | 4:30.20 | 19562 | 39831
3 | 8:51.07 | 4:04.15 | 39832 | 58146
4 | 12:55.22 | 4:45.30 | 58147 | 79551
5 | 17:40.52 | 4:39.73 | 79552 | 100549
6 | 22:20.50 | 5:40.32 | 100550 | 126081
7 | 28:01.07 | 4:15.45 | 126082 | 145251
8 | 32:16.52 | 4:27.23 | 145252 | 165299
9 | 36:44.00 | 4:35.05 | 165300 | 185929
10 | 41:19.05 | 4:27.30 | 185930 | 205984


Range status and errors

Selected range

Filename F:\ЕАС\rwa12\Damn Yankees - Damn Yankees.wav

Peak level 99.1 %
Extraction speed 1.7 X
Range quality 100.0 %
Test CRC 6DC84F97
Copy CRC 6DC84F97
Copy OK

No errors occurred


AccurateRip summary

Track 1 accurately ripped (confidence 93) [74CB7117] (AR v2)
Track 2 accurately ripped (confidence 98) [E38890B1] (AR v2)
Track 3 accurately ripped (confidence 99) [7A7384B8] (AR v2)
Track 4 accurately ripped (confidence 96) [FE45E3E8] (AR v2)
Track 5 accurately ripped (confidence 95) [15862801] (AR v2)
Track 6 accurately ripped (confidence 100) [DFFC840A] (AR v2)
Track 7 accurately ripped (confidence 96) [D4A2004E] (AR v2)
Track 8 accurately ripped (confidence 99) [A5678CCB] (AR v2)
Track 9 accurately ripped (confidence 94) [8CBDDC9F] (AR v2)
Track 10 accurately ripped (confidence 90) [4F43423B] (AR v2)

All tracks accurately ripped

End of status report

–– CUETools DB Plugin V2.1.6

[CTDB TOCID: v5_XTvHSINAQsdEIf0gnGV808gM-] found
Submit result: v5_XTvHSINAQsdEIf0gnGV808gM- has been confirmed, v5_XTvHSINAQsdEIf0gnGV808gM- has been confirmed, v5_XTvHSINAQsdEIf0gnGV808gM- has been confirmed
Track | CTDB Status
1 | (1426/1453) Accurately ripped
2 | (1430/1453) Accurately ripped
3 | (1430/1453) Accurately ripped
4 | (1427/1453) Accurately ripped
5 | (1428/1453) Accurately ripped
6 | (1423/1453) Accurately ripped
7 | (1424/1453) Accurately ripped
8 | (1426/1453) Accurately ripped
9 | (1423/1453) Accurately ripped
10 | (1417/1453) Accurately ripped


==== Log checksum E4F4F98BBC37D7E9158F3ADDC548B984982760831A3477C0F03EA209709F203C ====

[CUETools log; Date: 01.06.2020 15:06:13; Version: 2.1.6]
Pregap length 00:00:32.
[CTDB TOCID: v5_XTvHSINAQsdEIf0gnGV808gM-] found.
Track | CTDB Status
1 | (1432/1460) Accurately ripped
2 | (1437/1460) Accurately ripped
3 | (1437/1460) Accurately ripped
4 | (1434/1460) Accurately ripped
5 | (1435/1460) Accurately ripped
6 | (1430/1460) Accurately ripped
7 | (1431/1460) Accurately ripped
8 | (1433/1460) Accurately ripped
9 | (1430/1460) Accurately ripped
10 | (1424/1460) Accurately ripped
[AccurateRip ID: 00112f50-008a167d-7f0aba0a] found.
Track [ CRC | V2 ] Status
01 [837e107c|74cb7117] (079+093/570) Accurately ripped
02 [2db3d715|e38890b1] (079+098/575) Accurately ripped
03 [706dd8d6|7a7384b8] (080+099/581) Accurately ripped
04 [218407ce|fe45e3e8] (076+096/574) Accurately ripped
05 [c273d059|15862801] (080+095/574) Accurately ripped
06 [49c378e9|dffc840a] (078+100/581) Accurately ripped
07 [2e9ab06e|d4a2004e] (078+096/575) Accurately ripped
08 [dd05ee42|a5678ccb] (079+099/573) Accurately ripped
09 [99030152|8cbddc9f] (079+094/569) Accurately ripped
10 [6eda5e4a|4f43423b] (075+090/554) Accurately ripped
Offsetted by -2018:
01 [a08e1673] (055/570) Accurately ripped
02 [b9c2085e] (055/575) Accurately ripped
03 [d6ef4925] (054/581) Accurately ripped
04 [a4fb22ff] (056/574) Accurately ripped
05 [8f0b0f53] (053/574) Accurately ripped
06 [d3a5a897] (055/581) Accurately ripped
07 [a2ae1ba7] (052/575) Accurately ripped
08 [f5c8e6b0] (052/573) Accurately ripped
09 [35e8fbdc] (052/569) Accurately ripped
10 [682bc29f] (051/554) Accurately ripped
Offsetted by -849:
01 [ce6231ed] (004/570) Accurately ripped
02 [5d089adc] (004/575) Accurately ripped
03 [54c38fd4] (004/581) Accurately ripped
04 [53436b99] (004/574) Accurately ripped
05 [5506e19b] (004/574) Accurately ripped
06 [4c930b3b] (004/581) Accurately ripped
07 [d53335f2] (004/575) Accurately ripped
08 [7a78cc71] (004/573) Accurately ripped
09 [0068ec5f] (004/569) Accurately ripped
10 [70af52e4] (004/554) Accurately ripped
Offsetted by -822:
01 [e05436cd] (055/570) Accurately ripped
02 [cd05c784] (055/575) Accurately ripped
03 [c7518588] (057/581) Accurately ripped
04 [a4c4e921] (056/574) Accurately ripped
05 [07ddc8c9] (056/574) Accurately ripped
06 [b8e9ee6e] (059/581) Accurately ripped
07 [81ec4d19] (058/575) Accurately ripped
08 [cb1afdad] (056/573) Accurately ripped
09 [32d95c45] (057/569) Accurately ripped
10 [148c391d] (054/554) Accurately ripped
Offsetted by -513:
01 [dce07f9f] (003/570) Accurately ripped
02 [3493dcb9] (002/575) Accurately ripped
03 [378b30b9] (003/581) Accurately ripped
04 [857a24a2] (003/574) Accurately ripped
05 [689907a1] (003/574) Accurately ripped
06 [7ed6adf1] (003/581) Accurately ripped
07 [a4e6cd14] (003/575) Accurately ripped
08 [1e11336a] (003/573) Accurately ripped
09 [3b4f34ae] (003/569) Accurately ripped
10 [e25cd481] (003/554) Accurately ripped
Offsetted by -420:
01 [a463f47f] (007/570) Accurately ripped
02 [09b32b47] (007/575) Accurately ripped
03 [8179825d] (007/581) Accurately ripped
04 [5a486929] (008/574) Accurately ripped
05 [0aa84a1c] (008/574) Accurately ripped
06 [42526bcf] (008/581) Accurately ripped
07 [d80087b5] (008/575) Accurately ripped
08 [57b1e7bd] (008/573) Accurately ripped
09 [5e711397] (008/569) Accurately ripped
10 [7e779467] (008/554) Accurately ripped
Offsetted by -404:
01 [f5acb123] (030/570) Accurately ripped
02 [a28777c9] (029/575) Accurately ripped
03 [1df65e52] (031/581) Accurately ripped
04 [2f92601d] (029/574) Accurately ripped
05 [9978f4b6] (029/574) Accurately ripped
06 [820f1472] (030/581) Accurately ripped
07 [c2ab352d] (030/575) Accurately ripped
08 [0031473f] (029/573) Accurately ripped
09 [579312e4] (030/569) Accurately ripped
10 [ec1c198c] (030/554) Accurately ripped

Track Peak [ CRC32 ] [W/O NULL] [ LOG ]
– 99,1 [6DC84F97] [1F0D4E74] CRC32
01 73,3 [DD133803] [74714474]
02 93,8 [08D8A919] [765103FB]
03 61,6 [94C5E203] [C6F3FA76]
04 72,9 [25C38C03] [F9891242]
05 81,7 [BB557A79] [92DC605A]
06 73,5 [9161611A] [B3859192]
07 89,3 [43F0921E] [67908771]
08 99,1 [C86883E0] [C4D03279]
09 80,1 [5D9B6ACF] [383C0D9A]
10 92,2 [22A3875D] [8B24137B]

Damn Yankees - Damn Yankees (1990)


All thanks go to rwa12

>>> My Blog <<<

DOWNLOAD: