Subcategories

Damn Yankees - The Essentials (2002)

Posted By: Designol
Damn Yankees - The Essentials (2002)

Damn Yankees - The Essentials (2002)
EAC | FLAC | Image (Cue&Log) ~ 423 Mb | Mp3 (CBR320) ~ 129 Mb | Scans ~ 86 Mb
Hard Rock, Heavy Metal | Label: Warner Bros. | # R2 76040 | Time: 00:56:19

The members of supergroup Damn Yankees were all stellar players – besides Ted Nugent, they boasted rock & roll veterans Tommy Shaw (Styx), Jack Blades (Night Ranger), and Michael Cartellone (Dixie Dregs) – and clearly stood over most of their peers. Still, patching together two albums' worth of highlights and calling it "essential" is a somewhat ludicrous concept. Anyway, both of the band's albums delivered solid if unspectacular rock radio-friendly singles such as "Coming of Age," "Don't Tread," and, of course, the group's über-power ballad "High Enough." This is the best place to start your Damn Yankees collection.

Review by Eduardo Rivadavia, Allmusic.com

Damn Yankees - The Essentials (2002)



Tracklist:

01. High Enough (04:45)
02. Coming Of Age (04:20)
03. Where You Goin' Now (04:39)
04. Don't Tread On Me (05:05)
05. Come Again (05:40)
06. Fifteen Minutes Of Fame (04:50)
07. Mister Please (04:19)
08. Bad Reputation (04:31)
09. Piledriver (04:21)
10. Damn Yankees (04:40)
11. Runaway (04:03)
12. Silence Is Broken (05:00)


Exact Audio Copy V1.0 beta 3 from 29. August 2011

EAC extraction logfile from 11. April 2015, 13:06

Damn Yankees / The Essentials

Used drive : HL-DT-STDVDRAM GH22NS40 Adapter: 4 ID: 0

Read mode : Secure
Utilize accurate stream : Yes
Defeat audio cache : Yes
Make use of C2 pointers : No

Read offset correction : 667
Overread into Lead-In and Lead-Out : No
Fill up missing offset samples with silence : Yes
Delete leading and trailing silent blocks : No
Null samples used in CRC calculations : Yes
Used interface : Native Win32 interface for Win NT & 2000

Used output format : User Defined Encoder
Selected bitrate : 1024 kBit/s
Quality : High
Add ID3 tag : Yes
Command line compressor : C:\Program Files\FLAC\flac.exe
Additional command line options : -V -8 -T "Date=%year%" -T "Genre=%genre%" %source%


TOC of the extracted CD

Track | Start | Length | Start sector | End sector
––––––––––––––––––––––––––––-
1 | 0:00.00 | 4:45.00 | 0 | 21374
2 | 4:45.00 | 4:20.30 | 21375 | 40904
3 | 9:05.30 | 4:39.62 | 40905 | 61891
4 | 13:45.17 | 5:05.48 | 61892 | 84814
5 | 18:50.65 | 5:40.72 | 84815 | 110386
6 | 24:31.62 | 4:50.08 | 110387 | 132144
7 | 29:21.70 | 4:19.12 | 132145 | 151581
8 | 33:41.07 | 4:31.03 | 151582 | 171909
9 | 38:12.10 | 4:21.50 | 171910 | 191534
10 | 42:33.60 | 4:40.72 | 191535 | 212606
11 | 47:14.57 | 4:03.38 | 212607 | 230869
12 | 51:18.20 | 5:00.70 | 230870 | 253439


Range status and errors

Selected range

Filename I:\Rips\Damn Yankees - The Essentials.wav

Peak level 98.8 %
Extraction speed 2.0 X
Range quality 100.0 %
Test CRC 332B2241
Copy CRC 332B2241
Copy OK

No errors occurred


AccurateRip summary

Track 1 cannot be verified as accurate (confidence 6) [50F48123], AccurateRip returned [A296D8F3] (AR v2)
Track 2 cannot be verified as accurate (confidence 6) [5FAF4E86], AccurateRip returned [26C008C0] (AR v2)
Track 3 cannot be verified as accurate (confidence 6) [35AF55B4], AccurateRip returned [F63581AC] (AR v2)
Track 4 cannot be verified as accurate (confidence 6) [6E5C157D], AccurateRip returned [E9D6EDFD] (AR v2)
Track 5 cannot be verified as accurate (confidence 6) [2D28B9F8], AccurateRip returned [1817BBDB] (AR v2)
Track 6 cannot be verified as accurate (confidence 6) [1CB4C598], AccurateRip returned [2E8C09FE] (AR v2)
Track 7 cannot be verified as accurate (confidence 6) [8DF5C4E1], AccurateRip returned [0B7DC21C] (AR v2)
Track 8 cannot be verified as accurate (confidence 6) [F3C63BF1], AccurateRip returned [C78D0C98] (AR v2)
Track 9 cannot be verified as accurate (confidence 6) [BF682221], AccurateRip returned [7DFC858F] (AR v2)
Track 10 cannot be verified as accurate (confidence 6) [FED92C60], AccurateRip returned [BF12A14B] (AR v2)
Track 11 cannot be verified as accurate (confidence 6) [022DDF93], AccurateRip returned [4D5E5681] (AR v2)
Track 12 cannot be verified as accurate (confidence 6) [F2A958A2], AccurateRip returned [D39B6A35] (AR v2)

No tracks could be verified as accurate
You may have a different pressing from the one(s) in the database

End of status report

==== Log checksum 7788DA7F5042F2AA5FA2DDFC242FEB7B3A66100DA578EF980CDB4A192BB3386E ====

foobar2000 1.2 / Dynamic Range Meter 1.1.1
log date: 2015-04-12 12:14:00

––––––––––––––––––––––––––––––––––––––––
Analyzed: Damn Yankees / The Essentials
––––––––––––––––––––––––––––––––––––––––

DR Peak RMS Duration Track
––––––––––––––––––––––––––––––––––––––––
DR6 -0.10 dB -9.06 dB 4:45 01-High Enough
DR5 -0.10 dB -7.26 dB 4:20 02-Coming Of Age
DR9 -0.10 dB -9.89 dB 4:40 03-Where You Goin' Now
DR8 -0.10 dB -8.69 dB 5:06 04-Don't Tread On Me
DR7 -0.10 dB -9.49 dB 5:41 05-Come Again
DR8 -0.10 dB -8.93 dB 4:50 06-Fifteen Minutes Of Fame
DR8 -0.10 dB -10.34 dB 4:19 07-Mister Please
DR6 -0.10 dB -8.03 dB 4:31 08-Bad Reputation
DR6 -0.10 dB -7.65 dB 4:22 09-Piledriver
DR6 -0.10 dB -7.63 dB 4:41 10-Damn Yankees
DR6 -0.10 dB -8.56 dB 4:04 11-Runaway
DR8 -0.10 dB -9.00 dB 5:01 12-Silence Is Broken
––––––––––––––––––––––––––––––––––––––––

Number of tracks: 12
Official DR value: DR7

Samplerate: 44100 Hz
Channels: 2
Bits per sample: 16
Bitrate: 1051 kbps
Codec: FLAC
================================================================================

Damn Yankees - The Essentials (2002)

Damn Yankees - The Essentials (2002)

All thanks to original releaser - powermet

More interesting music in My Blog