Subcategories

Daniel Lopatin - Uncut Gems (Original Motion Picture Soundtrack) (2019)

Posted By: popsakov
Daniel Lopatin - Uncut Gems (Original Motion Picture Soundtrack) (2019)

Daniel Lopatin - Uncut Gems (Original Motion Picture Soundtrack) (2019)
EAC Rip | FLAC (Tracks) + Cue + m3u + Log ~ 285 Mb | MP3 CBR320 ~ 151 Mb
Full Scans | 00:52:05 | RAR 5% Recovery
Electronic, Soundtrack | Warp Records #WARPCD308

Uncut Gems is a soundtrack album by electronic musician Daniel Lopatin, containing the original score for the Safdie brothers' 2019 film Uncut Gems. It was released via Warp on December 13, 2019. It received positive reviews from critics. It peaked at number 44 on the UK Soundtrack Albums Chart. At Metacritic, the album received an average score of 74 out of 100, based on 6 mainstream critical reviews, indicating "generally favorable reviews." Thomas Johnson of The Line of Best Fit called the album "further proof Lopatin will be held in the same esteem as Ennio Morricone, John Carpenter, Vangelis and so on." He stated that the album is "filled with heartfelt synth lines, gorgeous revolving, spacey sequences and emotive samples".

***************

Track List:

01. The Ballad of Howie Bling [8:26]
02. Pure Elation [1:02]
03. Followed [1:33]
04. The Bet Hits [2:52]
05. High Life [1:00]
06. No Vacation [0:55]
07. School Play [6:16]
08. Fuck You Howard [2:43]
09. Smoothie [1:11]
10. Back to Roslyn [2:02]
11. The Fountain [2:21]
12. Powerade [0:53]
13. Windows [5:07]
14. Buzz Me Out [2:50]
15. The Blade [1:32]
16. Mohegan Suite [4:43]
17. Uncut Gems [6:41]

Exact Audio Copy V1.3 from 2. September 2016

EAC extraction logfile from 7. March 2020, 1:13

Daniel Lopatin / Uncut Gems

Used drive : ATAPI DVD A DH16AASH Adapter: 1 ID: 0

Read mode : Secure
Utilize accurate stream : Yes
Defeat audio cache : Yes
Make use of C2 pointers : No

Read offset correction : 6
Overread into Lead-In and Lead-Out : No
Fill up missing offset samples with silence : Yes
Delete leading and trailing silent blocks : No
Null samples used in CRC calculations : Yes
Used interface : Native Win32 interface for Win NT & 2000
Gap handling : Appended to previous track

Used output format : User Defined Encoder
Selected bitrate : 1024 kBit/s
Quality : High
Add ID3 tag : No
Command line compressor : C:\Program Files (x86)\Exact Audio Copy\Flac\flac.exe
Additional command line options : -8 -e -V -T "ARTIST=%artist%" -T "TITLE=%title%" -T "ALBUM=%albumtitle%" -T "DATE=%year%" -T "TRACKNUMBER=%tracknr%" -T "GENRE=%genre%" -T "PERFORMER=%albuminterpret%" -T "COMPOSER=%composer%" %haslyrics%–tag-from-file=LYRICS="%lyricsfile%"%haslyrics% -T "ALBUMARTIST=%albumartist%" -T "DISCNUMBER=%cdnumber%" -T "TOTALDISCS=%totalcds%" -T "TOTALTRACKS=%numtracks%" -T "COMMENT=%comment%" %source% -o %dest%


TOC of the extracted CD

Track | Start | Length | Start sector | End sector
––––––––––––––––––––––––––––-
1 | 0:00.00 | 8:26.11 | 0 | 37960
2 | 8:26.11 | 1:01.66 | 37961 | 42601
3 | 9:28.02 | 1:32.44 | 42602 | 49545
4 | 11:00.46 | 2:51.70 | 49546 | 62440
5 | 13:52.41 | 1:00.01 | 62441 | 66941
6 | 14:52.42 | 0:54.54 | 66942 | 71045
7 | 15:47.21 | 6:16.19 | 71046 | 99264
8 | 22:03.40 | 2:42.69 | 99265 | 111483
9 | 24:46.34 | 1:10.62 | 111484 | 116795
10 | 25:57.21 | 2:02.12 | 116796 | 125957
11 | 27:59.33 | 2:21.05 | 125958 | 136537
12 | 30:20.38 | 0:52.71 | 136538 | 140508
13 | 31:13.34 | 5:06.71 | 140509 | 163529
14 | 36:20.30 | 2:49.40 | 163530 | 176244
15 | 39:09.70 | 1:32.09 | 176245 | 183153
16 | 40:42.04 | 4:42.44 | 183154 | 204347
17 | 45:24.48 | 6:40.43 | 204348 | 234390


Track 1

Filename Q:\Music04_moviez\U\Uncut Gems (2019, FLAC) - Daniel Lopatin\01 - The Ballad of Howie Bling.wav

Pre-gap length 0:00:02.00

Peak level 94.4 %
Extraction speed 3.8 X
Track quality 100.0 %
Test CRC AA194453
Copy CRC AA194453
Track not present in AccurateRip database
Copy OK

Track 2

Filename Q:\Music04_moviez\U\Uncut Gems (2019, FLAC) - Daniel Lopatin\02 - Pure Elation.wav

Peak level 78.6 %
Extraction speed 2.8 X
Track quality 100.0 %
Test CRC 11F321BD
Copy CRC 11F321BD
Track not present in AccurateRip database
Copy OK

Track 3

Filename Q:\Music04_moviez\U\Uncut Gems (2019, FLAC) - Daniel Lopatin\03 - Followed.wav

Peak level 91.7 %
Extraction speed 3.4 X
Track quality 100.0 %
Test CRC 3D175EED
Copy CRC 3D175EED
Track not present in AccurateRip database
Copy OK

Track 4

Filename Q:\Music04_moviez\U\Uncut Gems (2019, FLAC) - Daniel Lopatin\04 - The Bet Hits.wav

Peak level 89.1 %
Extraction speed 4.0 X
Track quality 100.0 %
Test CRC 9AA68E48
Copy CRC 9AA68E48
Track not present in AccurateRip database
Copy OK

Track 5

Filename Q:\Music04_moviez\U\Uncut Gems (2019, FLAC) - Daniel Lopatin\05 - High Life.wav

Peak level 94.2 %
Extraction speed 3.2 X
Track quality 100.0 %
Test CRC 711ABA30
Copy CRC 711ABA30
Track not present in AccurateRip database
Copy OK

Track 6

Filename Q:\Music04_moviez\U\Uncut Gems (2019, FLAC) - Daniel Lopatin\06 - No Vacation.wav

Peak level 94.4 %
Extraction speed 3.0 X
Track quality 100.0 %
Test CRC BF3A05F6
Copy CRC BF3A05F6
Track not present in AccurateRip database
Copy OK

Track 7

Filename Q:\Music04_moviez\U\Uncut Gems (2019, FLAC) - Daniel Lopatin\07 - School Play.wav

Peak level 94.4 %
Extraction speed 5.0 X
Track quality 100.0 %
Test CRC 340AB3A6
Copy CRC 340AB3A6
Track not present in AccurateRip database
Copy OK

Track 8

Filename Q:\Music04_moviez\U\Uncut Gems (2019, FLAC) - Daniel Lopatin\08 - Fuck You Howard.wav

Peak level 94.4 %
Extraction speed 4.7 X
Track quality 100.0 %
Test CRC 4F6B41E8
Copy CRC 4F6B41E8
Track not present in AccurateRip database
Copy OK

Track 9

Filename Q:\Music04_moviez\U\Uncut Gems (2019, FLAC) - Daniel Lopatin\09 - Smoothie.wav

Peak level 94.4 %
Extraction speed 3.9 X
Track quality 100.0 %
Test CRC F1707D1F
Copy CRC F1707D1F
Track not present in AccurateRip database
Copy OK

Track 10

Filename Q:\Music04_moviez\U\Uncut Gems (2019, FLAC) - Daniel Lopatin\10 - Back to Roslyn.wav

Peak level 80.5 %
Extraction speed 3.2 X
Track quality 99.9 %
Test CRC 2540E40A
Copy CRC 2540E40A
Track not present in AccurateRip database
Copy OK

Track 11

Filename Q:\Music04_moviez\U\Uncut Gems (2019, FLAC) - Daniel Lopatin\11 - The Fountain.wav

Peak level 94.4 %
Extraction speed 3.5 X
Track quality 99.9 %
Test CRC C2CD5AA3
Copy CRC C2CD5AA3
Track not present in AccurateRip database
Copy OK

Track 12

Filename Q:\Music04_moviez\U\Uncut Gems (2019, FLAC) - Daniel Lopatin\12 - Powerade.wav

Peak level 94.4 %
Extraction speed 3.7 X
Track quality 100.0 %
Test CRC 1FA1CBAD
Copy CRC 1FA1CBAD
Track not present in AccurateRip database
Copy OK

Track 13

Filename Q:\Music04_moviez\U\Uncut Gems (2019, FLAC) - Daniel Lopatin\13 - Windows.wav

Peak level 95.0 %
Extraction speed 5.7 X
Track quality 100.0 %
Test CRC 8149FE5E
Copy CRC 8149FE5E
Track not present in AccurateRip database
Copy OK

Track 14

Filename Q:\Music04_moviez\U\Uncut Gems (2019, FLAC) - Daniel Lopatin\14 - Buzz Me Out.wav

Peak level 62.7 %
Extraction speed 5.5 X
Track quality 100.0 %
Test CRC 9610C094
Copy CRC 9610C094
Track not present in AccurateRip database
Copy OK

Track 15

Filename Q:\Music04_moviez\U\Uncut Gems (2019, FLAC) - Daniel Lopatin\15 - The Blade.wav

Peak level 94.4 %
Extraction speed 4.9 X
Track quality 100.0 %
Test CRC 673E8A5A
Copy CRC 673E8A5A
Track not present in AccurateRip database
Copy OK

Track 16

Filename Q:\Music04_moviez\U\Uncut Gems (2019, FLAC) - Daniel Lopatin\16 - Mohegan Suite.wav

Peak level 94.4 %
Extraction speed 6.2 X
Track quality 100.0 %
Test CRC C2FD5EB3
Copy CRC C2FD5EB3
Track not present in AccurateRip database
Copy OK

Track 17

Filename Q:\Music04_moviez\U\Uncut Gems (2019, FLAC) - Daniel Lopatin\17 - Uncut Gems.wav

Peak level 94.4 %
Extraction speed 6.8 X
Track quality 100.0 %
Test CRC B96EE1F5
Copy CRC B96EE1F5
Track not present in AccurateRip database
Copy OK


None of the tracks are present in the AccurateRip database

No errors occurred

End of status report

–– CUETools DB Plugin V2.1.6

[CTDB TOCID: AgaLGmFQPlAw8tM_m1pBBBczjw4-] found
Submit result: AgaLGmFQPlAw8tM_m1pBBBczjw4- has been confirmed
Track | CTDB Status
1 | (8/8) Accurately ripped
2 | (8/8) Accurately ripped
3 | (8/8) Accurately ripped
4 | (8/8) Accurately ripped
5 | (8/8) Accurately ripped
6 | (8/8) Accurately ripped
7 | (8/8) Accurately ripped
8 | (8/8) Accurately ripped
9 | (8/8) Accurately ripped
10 | (8/8) Accurately ripped
11 | (8/8) Accurately ripped
12 | (8/8) Accurately ripped
13 | (8/8) Accurately ripped
14 | (8/8) Accurately ripped
15 | (8/8) Accurately ripped
16 | (8/8) Accurately ripped
17 | (8/8) Accurately ripped


==== Log checksum 3E113D44FCE78A614DA33508615B50C0ADDD177E715E293D789524B481E23C69 ====

Daniel Lopatin - Uncut Gems (Original Motion Picture Soundtrack) (2019)


All thanks go to the original ripper(s) …

>>> My Blog <<<

DOWNLOAD: