Tags
Language
Tags

Dave Matthews Band - Busted Stuff (2002)

Posted By: Designol
Dave Matthews Band - Busted Stuff (2002)

Dave Matthews Band - Busted Stuff (2002)
EAC | APE | Image (Cue&Log) ~ 376 Mb | Mp3 (CBR320) ~ 125 Mb | Scans ~ 49 Mb | 00:54:42
American Trad Rock, Jam Bands | Label: RCA/BMG | # 07863 68117-2RE

The Dave Matthews Band may not have released the Lillywhite Sessions – the semi-legendary soul-searching album recorded in 2000 but abandoned in favor of the heavy-handed, laborious Glen Ballard-produced Everyday – but they couldn't escape its shadow. Every review, every article surrounding the release of Everyday mentioned it, often claiming it was better than the released project – an opinion the band seemed to support by playing many numbers from the widely bootlegged lost album on tour in 2001. Since they couldn't run away from the Lillywhite Sessions, they decided to embrace it, albeit on their own terms. They didn't just release the album, as is. They picked nine of the best songs from the sessions, reworked some of them a bit, tinkered with the lyrics, re-recorded the tunes with a different producer (Stephen Harris, a veteran of post-Brit-pop bands like the Bluetones, plus engineer on U2's All That You Can't Leave Behind), added two new songs, and came up with Busted Stuff, a polished commercial spin on music widely considered the darkest, most revealing work Matthews has yet created. Remarkably, these songs not only retain their emotional core even after they've been cleaned up, but they perhaps even gain more resonance in this setting. After all, Steve Lillywhite is hardly Steve Albini, and while the initial versions of these songs were raw, it was as much because they were not quite finished as they were Matthews exposing his soul. Here, these songs have been completed, not just in the writing but in the arrangement and production, so they sound just as personal to Dave Matthews, but also sound like fully realized DMB songs. And while they do jam a bit – in, surprise!, a song called "Kit Kat Jam" – that's not the emphasis of their performances; in these slow, moody pieces, they provide supple support to Matthews' elliptical, winding melodies and searching lyrics. The band sounds unified, and so does the album; one of the new songs, "Where Are You Going," sounded dull on its first appearance on the Mr. Deeds soundtrack, but here, it's part of the fabric of the album, equally effective in sustaining the reflective, not depressive, tone of the album. Here, there's none of the loose-limbed, frat-boy funk from DMB's previous albums, none of the smirking jokiness that has plagued their up-tempo jams, while the heartache and yearning that once seemed affected in their ballads is palpably real. It's not so much a departure as it is an unexpected twist in their career. By leaving behind the key elements that defined their music, DMB has revealed that they can hit a deeper emotional chord and, in the process, deliver what's unquestionably the best album of their career.

Review by Stephen Thomas Erlewine, Allmusic.com

Dave Matthews Band - Busted Stuff (2002)



Tracklist:

01. Busted Stuff (3:48)
02. Grey Street (5:08)
03. Where Are You Going (3:53)
04. You Never Know (5:54)
05. Captain (3:46)
06. Raven (5:38)
07. Grace Is Gone (4:38)
08. Kit Kat Jam (3:35)
09. Digging A Ditch (4:47)
10. Big Eyed Fish (5:04)
11. Bartender (8:32)


Exact Audio Copy V0.99 prebeta 5 from 4. May 2009

Отчёт EAC об извлечении, выполненном 3. декабря 2011, 16:51

Dave Matthews Band / Busted Stuff

Дисковод: HL-DT-STDVDRAM GSA-T20N Adapter: 0 ID: 0

Режим чтения : Достоверность
Использование точного потока : Да
Отключение кэша аудио : Да
Использование указателей C2 : Нет

Коррекция смещения при чтении : 667
Способность читать области Lead-in и Lead-out : Нет
Заполнение пропущенных сэмплов тишиной : Да
Удаление блоков с тишиной в начале и конце : Нет
При вычислениях CRC использовались нулевые сэмплы : Да
Интерфейс : Встроенный Win32-интерфейс для Win NT/2000

Выходной формат : Внутренние WAV-операции
Формат сэмплов : 44.100 Гц; 16 бит; стерео


TOC извлечённого CD

Трек | Старт | Длительность | Начальный сектор | Конечный сектор
––––––––––––––––––––––––––––––––––-
1 | 0:00.00 | 3:47.49 | 0 | 17073
2 | 3:47.49 | 5:07.43 | 17074 | 40141
3 | 8:55.17 | 3:52.61 | 40142 | 57602
4 | 12:48.03 | 5:53.39 | 57603 | 84116
5 | 18:41.42 | 3:46.01 | 84117 | 101067
6 | 22:27.43 | 5:37.50 | 101068 | 126392
7 | 28:05.18 | 4:38.28 | 126393 | 147270
8 | 32:43.46 | 3:34.63 | 147271 | 163383
9 | 36:18.34 | 4:47.17 | 163384 | 184925
10 | 41:05.51 | 5:04.37 | 184926 | 207762
11 | 46:10.13 | 8:31.55 | 207763 | 246142
12 | 57:13.68 | 2:32.56 | 257543 | 268998


Характеристики диапазона извлечения и сообщения об ошибках

Выбранный диапазон

Имя файла F:\Torrent\Новая папка\Dave Matthews Band - Busted Stuff\Dave Matthews Band - Busted Stuff.wav

Пиковый уровень 100.0 %
Качество диапазона 100.0 %
CRC теста 03A633A7
CRC копии 03A633A7
Копирование… OK

Ошибок не произошло


AccurateRip: сводка

Трек 1 точное извлечение (доверие 130) [2F13148A]
Трек 2 точное извлечение (доверие 131) [5B380CB7]
Трек 3 точное извлечение (доверие 129) [962B6D5C]
Трек 4 точное извлечение (доверие 129) [56C25603]
Трек 5 точное извлечение (доверие 129) [0BFE873F]
Трек 6 точное извлечение (доверие 126) [83D7C7BA]
Трек 7 точное извлечение (доверие 129) [708DE813]
Трек 8 точное извлечение (доверие 128) [7DA560B1]
Трек 9 точное извлечение (доверие 130) [BFE74DFB]
Трек 10 точное извлечение (доверие 128) [0E91F835]
Трек 11 точное извлечение (доверие 124) [16D6C83B]

Все треки извлечены точно

Конец отчёта

[CUETools log; Date: 07.06.2017 15:35:56; Version: 2.1.4]
CD-Extra data track length 02:32:56.
[CTDB TOCID: kjOXCP1kvKcXY9h4jW.4I4CpJt0-] found.
Track | CTDB Status
1 | (443/454) Accurately ripped
2 | (444/454) Accurately ripped
3 | (445/454) Accurately ripped
4 | (443/454) Accurately ripped
5 | (444/454) Accurately ripped
6 | (439/454) Accurately ripped
7 | (439/454) Accurately ripped
8 | (442/454) Accurately ripped
9 | (446/454) Accurately ripped
10 | (443/454) Accurately ripped
11 | (439/454) Accurately ripped
[AccurateRip ID: 001557d4-00bbce1c-ae0e020c] found.
Track [ CRC | V2 ] Status
01 [2f13148a|ccc1802a] (135+101/703) Accurately ripped
02 [5b380cb7|b589e68f] (136+100/705) Accurately ripped
03 [962b6d5c|3cd22a9a] (134+102/700) Accurately ripped
04 [56c25603|ffb9121b] (134+099/697) Accurately ripped
05 [0bfe873f|96d0bd94] (134+102/697) Accurately ripped
06 [83d7c7ba|377019a5] (131+101/690) Accurately ripped
07 [708de813|e73d97d0] (134+102/696) Accurately ripped
08 [7da560b1|f51b3aed] (133+103/698) Accurately ripped
09 [bfe74dfb|1d18443b] (135+101/699) Accurately ripped
10 [0e91f835|d81b8269] (132+101/694) Accurately ripped
11 [16d6c83b|fb8c23fe] (128+101/672) Accurately ripped
Offsetted by -646:
01 [27cd9d86] (007/703) Accurately ripped
02 [6084722f] (007/705) Accurately ripped
03 [c2141b93] (007/700) Accurately ripped
04 [9a52563e] (007/697) Accurately ripped
05 [c6e49088] (007/697) Accurately ripped
06 [381a97bb] (006/690) Accurately ripped
07 [d6c8fedb] (007/696) Accurately ripped
08 [4e6b176c] (007/698) Accurately ripped
09 [7a6195d7] (007/699) Accurately ripped
10 [9fd0d5fe] (007/694) Accurately ripped
11 [826925df] (007/672) Accurately ripped
Offsetted by -3:
01 [a4a3a41a] (112/703) Accurately ripped
02 [19a660e8] (111/705) Accurately ripped
03 [f182fc8e] (108/700) Accurately ripped
04 [6dcbcae6] (108/697) Accurately ripped
05 [a47c3208] (110/697) Accurately ripped
06 [592b23bf] (111/690) Accurately ripped
07 [70dcccd4] (109/696) Accurately ripped
08 [260a067c] (110/698) Accurately ripped
09 [0616dec7] (110/699) Accurately ripped
10 [4d6afdd9] (108/694) Accurately ripped
11 [cfabed0c] (104/672) Accurately ripped
Offsetted by 689:
01 [040c18dd] (150/703) Accurately ripped
02 [fccd3fd6] (150/705) Accurately ripped
03 [46621302] (150/700) Accurately ripped
04 [7406076f] (148/697) Accurately ripped
05 [ed010f5a] (145/697) Accurately ripped
06 [f33c360b] (145/690) Accurately ripped
07 [35720b0c] (145/696) Accurately ripped
08 [b05fcca7] (147/698) Accurately ripped
09 [7b72af76] (146/699) Accurately ripped
10 [105fa3f8] (145/694) Accurately ripped
11 [2620912b] (139/672) Accurately ripped
Offsetted by 1:
01 [b5fb6eca] (000/703) No match
02 [73a2f0a7] (000/705) No match
03 [cd76aec9] (000/700) No match (V2 was not tested)
04 [025df65e] (000/697) No match
05 [64df76ff] (000/697) No match
06 [925dbbd8] (000/690) No match (V2 was not tested)
07 [70b20c8a] (000/696) No match
08 [9ad9296d] (000/698) No match
09 [d745811a] (000/699) No match
10 [78a3621c] (000/694) No match
11 [4aa8865b] (000/672) No match

Track Peak [ CRC32 ] [W/O NULL] [ LOG ]
– 100,0 [03A633A7] [E08A0652] CRC32
01 99,8 [D4E80092] [60F7D847]
02 99,8 [E30C0A81] [7B15BC8B]
03 99,8 [EDC805EE] [9AF31787]
04 99,8 [8C9019A2] [E1C3BFB1]
05 99,8 [381442E6] [C23B658E]
06 99,8 [13B2ED27] [A0F7E85B]
07 99,8 [E7EED261] [5FC41B4C]
08 100,0 [331D4B62] [A654B5C1]
09 99,8 [DF4EECBE] [515931A2]
10 99,8 [019BDE6C] [38E1CCAE]
11 99,8 [2EC95B59] [177579DD]

foobar2000 1.2 / Dynamic Range Meter 1.1.1
log date: 2017-06-18 18:12:53

––––––––––––––––––––––––––––––––––––––––
Analyzed: Dave Matthews Band / Busted Stuff
––––––––––––––––––––––––––––––––––––––––

DR Peak RMS Duration Track
––––––––––––––––––––––––––––––––––––––––
DR8 -0.01 dB -8.85 dB 3:48 01-Busted Stuff
DR7 -0.01 dB -8.74 dB 5:08 02-Grey Street
DR7 -0.01 dB -9.74 dB 3:53 03-Where Are You Going
DR7 -0.01 dB -9.07 dB 5:54 04-You Never Know
DR8 -0.01 dB -10.19 dB 3:46 05-Captain
DR9 -0.01 dB -10.07 dB 5:38 06-Raven
DR8 -0.01 dB -9.73 dB 4:38 07-Grace Is Gone
DR7 0.00 dB -9.41 dB 3:35 08-Kit Kat Jam
DR9 -0.01 dB -11.03 dB 4:47 09-Digging A Ditch
DR8 -0.01 dB -9.77 dB 5:04 10-Big Eyed Fish
DR8 -0.01 dB -9.73 dB 8:32 11-Bartender
––––––––––––––––––––––––––––––––––––––––

Number of tracks: 11
Official DR value: DR8

Samplerate: 44100 Hz
Channels: 2
Bits per sample: 16
Bitrate: 962 kbps
Codec: Monkey's Audio
================================================================================

Dave Matthews Band - Busted Stuff (2002)

Dave Matthews Band - Busted Stuff (2002)

All thanks to original releaser - boogiedown

More interesting music in My Blog