Tags
Language
Tags

Dave Brubeck Quartet & Carmen McRae - Tonight Only! (1960) [Reissue 2011]

Posted By: gribovar
Dave Brubeck Quartet & Carmen McRae - Tonight Only! (1960) [Reissue 2011]

Dave Brubeck Quartet & Carmen McRae - Tonight Only! (1960) [Reissue 2011]
EAC Rip | FLAC (image+.cue+log) - 283 MB | Covers - 34 MB
Genre: Jazz, Vocal Jazz | RAR 3% Rec. | Label: American Jazz Classics (99027)

One of the more obscure Dave Brubeck albums is really a showcase for the young singer Carmen McRae who performs nine numbers: six composed by the pianist/leader, one song apiece by altoist Paul Desmond and bassist Eugene Wright and the lesser-known standard "Paradiddle Joe." McRae is in fine voice but strangely enough all of the songs (except for "Strange Meadowlark") have been long forgotten.
Tracklist:
01. Melanctha
02. Weep No More
03. Talkin' And Walkin'
04. Briar Bush (aka Southern Scene)
05. Paradiddle Joe
06. Late Lament
07. Strange Meadowlark
08. Tristesse
09. Tonight Only!

Bonus tracks:
10. There'll Be No Tomorrow
11. Easy As You Go
12. Summer Song
13. In The Lurch
14. My One Bad Habit

Total time: 57:50

Exact Audio Copy V1.0 beta 2 from 29. April 2011

EAC extraction logfile from 12. May 2012, 22:37

Dave Brubeck & Carmen McRae / Tonight Only

Used drive : _NEC DVD_RW ND-3551A Adapter: 0 ID: 0

Read mode : Secure
Utilize accurate stream : Yes
Defeat audio cache : Yes
Make use of C2 pointers : No

Read offset correction : 48
Overread into Lead-In and Lead-Out : No
Fill up missing offset samples with silence : Yes
Delete leading and trailing silent blocks : No
Null samples used in CRC calculations : Yes
Used interface : Native Win32 interface for Win NT & 2000

Used output format : User Defined Encoder
Selected bitrate : 128 kBit/s
Quality : High
Add ID3 tag : No
Command line compressor : D:\Program Files\Exact Audio Copy\Flac\flac.exe
Additional command line options : -V -8 -T "Date=%year%" -T "Genre=%genre%" %source%


TOC of the extracted CD

Track | Start | Length | Start sector | End sector
––––––––––––––––––––––––––––-
1 | 0:00.00 | 10:02.17 | 0 | 45166
2 | 10:02.17 | 2:53.55 | 45167 | 58196
3 | 12:55.72 | 4:26.72 | 58197 | 78218
4 | 17:22.69 | 2:58.51 | 78219 | 91619
5 | 20:21.45 | 2:07.12 | 91620 | 101156
6 | 22:28.57 | 6:21.51 | 101157 | 129782
7 | 28:50.33 | 2:42.01 | 129783 | 141933
8 | 31:32.34 | 5:02.15 | 141934 | 164598
9 | 36:34.49 | 7:32.18 | 164599 | 198516
10 | 44:06.67 | 4:33.69 | 198517 | 219060
11 | 48:40.61 | 1:38.62 | 219061 | 226472
12 | 50:19.48 | 2:23.31 | 226473 | 237228
13 | 52:43.04 | 2:29.29 | 237229 | 248432
14 | 55:12.33 | 2:37.20 | 248433 | 260227


Range status and errors

Selected range

Filename C:\RIP\Dave Brubeck & Carmen McRae - Tonight Only.wav

Peak level 100.0 %
Extraction speed 3.1 X
Range quality 99.9 %
Test CRC 1FFEE6DD
Copy CRC 1FFEE6DD
Copy OK

No errors occurred


AccurateRip summary

Track 1 accurately ripped (confidence 1) [922580A7] (AR v1)
Track 2 accurately ripped (confidence 1) [84CC0B29] (AR v1)
Track 3 accurately ripped (confidence 1) [47974EBE] (AR v1)
Track 4 accurately ripped (confidence 1) [892DC74A] (AR v1)
Track 5 accurately ripped (confidence 1) [29A5EFC2] (AR v1)
Track 6 accurately ripped (confidence 1) [500BEA7D] (AR v1)
Track 7 accurately ripped (confidence 1) [62F10160] (AR v1)
Track 8 accurately ripped (confidence 1) [DBE7CDEB] (AR v1)
Track 9 accurately ripped (confidence 1) [1F102424] (AR v1)
Track 10 accurately ripped (confidence 1) [CA259C43] (AR v1)
Track 11 accurately ripped (confidence 1) [B1BBC415] (AR v1)
Track 12 accurately ripped (confidence 1) [91EC04FA] (AR v1)
Track 13 accurately ripped (confidence 1) [2EC34C1A] (AR v1)
Track 14 accurately ripped (confidence 1) [097EC17C] (AR v1)

All tracks accurately ripped

End of status report

==== Log checksum B67407D93B8A88A3FC354DF11D3D18C04F61F2C9F50B15D6CD609F23D3F2C40D ====

[CUETools log; Date: 06.03.2019 17:31:07; Version: 2.1.4]
[CTDB TOCID: RBP5trsN8gwHdhvNdOlcU12JLmg-] found.
Track | CTDB Status
1 | (10/10) Accurately ripped
2 | (10/10) Accurately ripped
3 | (10/10) Accurately ripped
4 | (10/10) Accurately ripped
5 | (10/10) Accurately ripped
6 | (10/10) Accurately ripped
7 | (10/10) Accurately ripped
8 | (10/10) Accurately ripped
9 | (10/10) Accurately ripped
10 | ( 9/10) Accurately ripped
11 | (10/10) Accurately ripped
12 | (10/10) Accurately ripped
13 | (10/10) Accurately ripped
14 | (10/10) Accurately ripped
[AccurateRip ID: 00219429-015b1434-b30d8d0e] found.
Track [ CRC | V2 ] Status
01 [922580a7|a52571a0] (0+8/8) Accurately ripped
02 [84cc0b29|fdfbd3b3] (0+8/8) Accurately ripped
03 [47974ebe|9c82a7ba] (0+8/8) Accurately ripped
04 [892dc74a|a03e699e] (0+8/8) Accurately ripped
05 [29a5efc2|c52ebe1f] (0+8/8) Accurately ripped
06 [500bea7d|62be88e6] (0+8/8) Accurately ripped
07 [62f10160|463a9df0] (0+8/8) Accurately ripped
08 [dbe7cdeb|8a12e826] (0+8/8) Accurately ripped
09 [1f102424|c25bf377] (0+8/8) Accurately ripped
10 [ca259c43|48542104] (0+8/8) Accurately ripped
11 [b1bbc415|0ba13966] (0+8/8) Accurately ripped
12 [91ec04fa|4d5bd790] (0+8/8) Accurately ripped
13 [2ec34c1a|7f55a970] (0+8/8) Accurately ripped
14 [097ec17c|b881933c] (0+8/8) Accurately ripped

Track Peak [ CRC32 ] [W/O NULL] [ LOG ]
– 100,0 [1FFEE6DD] [EC86B581] CRC32
01 100,0 [AB624794] [8F7F50DD]
02 80,8 [4A4AB2A4] [1FE530E8]
03 89,5 [2EC021D3] [2FC68F48]
04 87,8 [F4C2791E] [5E035AA7]
05 90,4 [4ECF43E1] [CEB79274]
06 51,8 [05187075] [CDEBA89E]
07 68,4 [246CA5D0] [D4488794]
08 49,0 [DEB7D24A] [E9DD8313]
09 93,2 [01584194] [139DB69B]
10 87,9 [137693C4] [2888189A]
11 65,1 [33F1E1B4] [720B9CF0]
12 69,0 [580DEFA2] [9963E67F]
13 80,4 [46C3E771] [0A5A64E2]
14 87,3 [C0A4C0FC] [25131F3F]

Thanks to Dementio81

See also:

Dave Brubeck Quartet - Jazz At... Pacific (1954) [Reissue 1997]
The Dave Brubeck Quartet - Jaz...And Cool (1955) [Reissue 2001]
Dave Brubeck Quartet - Brubeck Time (1955) [Reissue 2009]
Dave Brubeck - Brubeck Plays Brubeck (1956) [Reissue 2009]
The Dave Brubeck Quartet - Dave Digs Disney (1957) [Reissue 1994]
The Dave Brubeck Quartet - Gone With The Wind (1959) [Reissue 1990]
Dave Brubeck Quartet - Near-Myth With Bill Smith (1961) [Reissue 1995]
Carmen McRae & Dave Brubeck - Take Five (1961) [Reissue 2009]
Dave Brubeck - The Real Ambassadors (1962) [Reissue 1994]
The Dave Brubeck Quartet - Jaz...of Japan (1964) [Reissue 2009]
Dave Brubeck - Jazz Impressions Of New York (1965) [Reissue 1990]
Dave Brubeck & Paul Desmon... Desmond (1982) [Reissue 1990]
The Dave Brubeck Quartet - Con...er Night (1982) [Reissue 2003]
Dave Brubeck Quartet Featuring Paul Desmond - Stardust (1983)
The Dave Brubeck Quartet - Reflections (1986)
The Dave Brubeck Quartet - Som...ll Come [Recorded 1965] (1993)
Dave Brubeck - Just You, Just Me (1994)
Dave Brubeck - Late Night Brubeck: Live from the Blue Note (1994)
Dave Brubeck - Young Lions & Old Tigers (1995)
Dave Brubeck - Live with the LSO (2001)
Dave Brubeck - Early Concepts [Recorded 1948-1952] (2003)
Dave Brubeck - For All Time (1959-1966) [5CD Box Set] (2004)
Dave Brubeck - Modern Jazz Archive [Recorded 1946-1982] (2004)
Dave Brubeck - Supreme Jazz [Recorded 1954-1956] (2006)
Dave Brubeck Quartet - Complete 1958 Berlin Concert (2008)
Dave Brubeck Quartet - The 1965 Canadian Concert (2008)

Carmen McRae - The Sound of Silence (1968) [Reissue 1991]