Tags
Language
Tags

Dave Brubeck - The Real Ambassadors (1962) [Reissue 1994] (Repost)

Posted By:
Dave Brubeck - The Real Ambassadors (1962) [Reissue 1994] (Repost)

Dave Brubeck - The Real Ambassadors (1962) [Reissue 1994]
EAC Rip | FLAC (image+.cue+log) - 359 MB | MP3 CBR 320 kbps (LAME 3.93) - 144 MB | Covers - 20 MB
Genre: Jazz, Vocal Jazz | RAR 3% Rec. | Label: Columbia/Legacy (CK 57663)

In 1961, Dave Brubeck put together a remarkable musical show. Using the talents of Louis Armstrong and his All-Stars, Carmen McRae, the innovative bop vocal group Lambert, Hendricks And Ross, and his own rhythm section, Brubeck and his wife, lyricist Iola, wrote a largely upbeat play full of anti-racism songs and tunes that celebrated human understanding. Although it had only one live performance (at the 1962 Monterey Jazz Festival), The Real Ambassadors was recorded for posterity and now, with its reissue on CD, the original 15 selections have been augmented by five more. It is important to listen to this music without prior expectations because Paul Desmond is nowhere to be found, Louis Armstrong does not play that much trumpet here, and Lambert, Hendricks And Ross essentially function as background singers. However Satch and Carmen McRae make for a very potent team, and there are many touching and surprising moments.
Tracklist:
01. Everybody's Comin'
02. Cultural Exchange
03. Good Reviews
04. Remember Who You Are
05. My One Bad Habit
06. Lonesome
07. Summer Song
08. King For A Day
09. Blow Satchmo
10. The Real Ambassadors
11. Nomad
12. In The Lurch
13. One Moment Worth Years
14. You Swing Baby (The Duke)
15. Summer Song
16. They Say I Look Like God
17. I Didn't Know Until You Told Me
18. Since Love Had Its Way
19. Easy As You Go
20. Swing Bells / Blow Satchmo / Finale

Total time: 01:01:18

Exact Audio Copy V0.99 prebeta 5 from 4. May 2009

EAC extraction logfile from 25. March 2010, 14:56

Dave Brubeck / The Real Ambassadors

Used drive : TSSTcorpDVD+-RW TS-U633A Adapter: 0 ID: 1

Read mode : Secure
Utilize accurate stream : Yes
Defeat audio cache : Yes
Make use of C2 pointers : No

Read offset correction : 6
Overread into Lead-In and Lead-Out : No
Fill up missing offset samples with silence : Yes
Delete leading and trailing silent blocks : No
Null samples used in CRC calculations : Yes
Used interface : Native Win32 interface for Win NT & 2000

Used output format : Internal WAV Routines
Sample format : 44.100 Hz; 16 Bit; Stereo


TOC of the extracted CD

Track | Start | Length | Start sector | End sector
––––––––––––––––––––––––––––-
1 | 0:00.00 | 1:51.05 | 0 | 8329
2 | 1:51.05 | 4:42.60 | 8330 | 29539
3 | 6:33.65 | 2:09.52 | 29540 | 39266
4 | 8:43.42 | 2:33.55 | 39267 | 50796
5 | 11:17.22 | 2:41.60 | 50797 | 62931
6 | 13:59.07 | 2:29.50 | 62932 | 74156
7 | 16:28.57 | 3:18.68 | 74157 | 89074
8 | 19:47.50 | 3:41.50 | 89075 | 105699
9 | 23:29.25 | 0:48.35 | 105700 | 109334
10 | 24:17.60 | 3:12.27 | 109335 | 123761
11 | 27:30.12 | 2:56.53 | 123762 | 137014
12 | 30:26.65 | 2:32.45 | 137015 | 148459
13 | 32:59.35 | 4:22.15 | 148460 | 168124
14 | 37:21.50 | 2:36.62 | 168125 | 179886
15 | 39:58.37 | 2:26.55 | 179887 | 190891
16 | 42:25.17 | 5:30.00 | 190892 | 215641
17 | 47:55.17 | 3:02.15 | 215642 | 229306
18 | 50:57.32 | 2:34.45 | 229307 | 240901
19 | 53:32.02 | 1:41.73 | 240902 | 248549
20 | 55:14.00 | 6:03.52 | 248550 | 275826


Range status and errors

Selected range

Filename C:\_Arc\EAC_Out\Dave Brubeck - The Real Ambassadors\Dave Brubeck - The Real Ambassadors.wav

Peak level 100.0 %
Range quality 100.0 %
Copy CRC 8313FAD3
Copy OK

No errors occurred


AccurateRip summary

Track 1 not present in database
Track 2 not present in database
Track 3 not present in database
Track 4 not present in database
Track 5 not present in database
Track 6 not present in database
Track 7 not present in database
Track 8 not present in database
Track 9 not present in database
Track 10 not present in database
Track 11 not present in database
Track 12 not present in database
Track 13 not present in database
Track 14 not present in database
Track 15 not present in database
Track 16 not present in database
Track 17 not present in database
Track 18 not present in database
Track 19 not present in database
Track 20 not present in database

None of the tracks are present in the AccurateRip database

End of status report

[CUETools log; Date: 19.07.2018 17:11:15; Version: 2.1.4]
[CTDB TOCID: Bcofk3oxvvVGIXpHEY6z2pF0jOk-] found.
Track | CTDB Status
1 | (8/8) Accurately ripped
2 | (8/8) Accurately ripped
3 | (8/8) Accurately ripped
4 | (8/8) Accurately ripped
5 | (8/8) Accurately ripped
6 | (8/8) Accurately ripped
7 | (8/8) Accurately ripped
8 | (8/8) Accurately ripped
9 | (8/8) Accurately ripped
10 | (8/8) Accurately ripped
11 | (8/8) Accurately ripped
12 | (8/8) Accurately ripped
13 | (8/8) Accurately ripped
14 | (8/8) Accurately ripped
15 | (8/8) Accurately ripped
16 | (8/8) Accurately ripped
17 | (8/8) Accurately ripped
18 | (8/8) Accurately ripped
19 | (8/8) Accurately ripped
20 | (8/8) Accurately ripped
[AccurateRip ID: 00299e4e-0267a1e9-1e0e5d14] found.
Track [ CRC | V2 ] Status
01 [8ac16b9d|1b7ee692] (03+02/14) Accurately ripped
02 [c2aa0cee|1cb793bc] (03+02/14) Accurately ripped
03 [941e985c|5583b9ed] (03+02/14) Accurately ripped
04 [b20a2dcc|84a85efa] (03+02/14) Accurately ripped
05 [4a13492e|eccab072] (03+02/14) Accurately ripped
06 [4af50a44|cfeb6846] (03+02/14) Accurately ripped
07 [112a4b76|92a159bc] (03+02/14) Accurately ripped
08 [53861630|2b0466d0] (03+02/14) Accurately ripped
09 [6c555b59|7b9cb3f6] (03+02/14) Accurately ripped
10 [4462dad3|50320c2f] (03+02/14) Accurately ripped
11 [0cb585bd|cfa22120] (03+02/14) Accurately ripped
12 [43084393|347399cd] (03+02/14) Accurately ripped
13 [fc8ab0a6|4c311ebc] (03+02/14) Accurately ripped
14 [36705e22|1aa320a2] (03+02/14) Accurately ripped
15 [1e7df38f|a278d2cd] (03+02/14) Accurately ripped
16 [2861ac5f|23e62892] (03+02/14) Accurately ripped
17 [617ce071|c361abe9] (03+02/14) Accurately ripped
18 [40e51818|d6a3ff7d] (03+02/14) Accurately ripped
19 [9676f540|f97bb8e2] (03+02/14) Accurately ripped
20 [c5a22c7e|d88d4fa4] (03+02/14) Accurately ripped
Offsetted by -142:
01 [e6e694e1] (02/14) Accurately ripped
02 [ca130b02] (02/14) Accurately ripped
03 [55cb686a] (02/14) Accurately ripped
04 [7678b732] (02/14) Accurately ripped
05 [f4d877aa] (02/14) Accurately ripped
06 [7d8be7ca] (02/14) Accurately ripped
07 [881ae91e] (02/14) Accurately ripped
08 [9eff1a4a] (02/14) Accurately ripped
09 [9490fceb] (02/14) Accurately ripped
10 [5499bd33] (02/14) Accurately ripped
11 [6cceea6f] (02/14) Accurately ripped
12 [96f3fab1] (02/14) Accurately ripped
13 [ad8e342a] (02/14) Accurately ripped
14 [0ff684da] (02/14) Accurately ripped
15 [9aa2a79d] (02/14) Accurately ripped
16 [20320877] (02/14) Accurately ripped
17 [31bc6ae7] (02/14) Accurately ripped
18 [1a7ec55c] (02/14) Accurately ripped
19 [c28aa46c] (02/14) Accurately ripped
20 [405df226] (02/14) Accurately ripped
Offsetted by 1021:
01 [36ec4f87] (00/14) No match (V2 was not tested)
02 [63eb6be0] (00/14) No match (V2 was not tested)
03 [496d831f] (00/14) No match (V2 was not tested)
04 [ee91a86b] (00/14) No match (V2 was not tested)
05 [327eb4a4] (00/14) No match (V2 was not tested)
06 [bec31d33] (00/14) No match (V2 was not tested)
07 [348fe51a] (00/14) No match (V2 was not tested)
08 [f5c40551] (00/14) No match (V2 was not tested)
09 [e44adaa6] (00/14) No match (V2 was not tested)
10 [ad8c82c3] (00/14) No match (V2 was not tested)
11 [2cac02da] (00/14) No match (V2 was not tested)
12 [e238c2fe] (00/14) No match (V2 was not tested)
13 [63566230] (00/14) No match (V2 was not tested)
14 [67ee816e] (00/14) No match (V2 was not tested)
15 [acb35852] (00/14) No match (V2 was not tested)
16 [a089571b] (00/14) No match (V2 was not tested)
17 [c1d810b8] (00/14) No match (V2 was not tested)
18 [56cc0602] (00/14) No match (V2 was not tested)
19 [60c1c36e] (00/14) No match (V2 was not tested)
20 [af1b2a22] (00/14) No match (V2 was not tested)

Track Peak [ CRC32 ] [W/O NULL] [ LOG ]
– 100,0 [8313FAD3] [BEE2FFF7] CRC32
01 90,6 [C20430F6] [58C164D7]
02 91,8 [17DF787A] [6D40D957]
03 97,1 [B0BA1594] [7255D5D4]
04 100,0 [C05DAE6E] [CD235C4D]
05 87,3 [88A901CE] [CBD8F2F2]
06 69,2 [55A633CB] [71327FE5]
07 74,7 [E0C58CFC] [78E87799]
08 100,0 [80F8C6D0] [DEFD8BC0]
09 79,5 [691AC69E] [E882105B]
10 79,8 [C28259DC] [BE5D3901]
11 64,1 [47EFF83D] [B9D23B17]
12 74,9 [C3F87930] [3211CF02]
13 70,6 [2C7D5519] [89110129]
14 65,6 [F35D6697] [E49069A3]
15 63,7 [1627693D] [57CB1E69]
16 60,8 [37D02C95] [E3850C97]
17 76,1 [703D92E7] [43F18B1E]
18 84,7 [C3F073E5] [E85FAA4C]
19 61,9 [7F159113] [91008A2A]
20 85,2 [2C1D7C45] [B43D29A9]

Thanks to barin99

See also: