Tags
Language
Tags

Dave Grusin - West Side Story (1997) {Encoded Music}

Posted By: tiburon
Dave Grusin - West Side Story (1997) {Encoded Music}

Dave Grusin Presents - West Side Story (1997) {Encoded Music}
EAC 0.95b4 | FLAC tracks level 8 | Cue+Log+M3U | Full Scans 300dpi | 360MB + 5% Recovery
MP3 CBR 320 Kbps | 138MB + 5% Recovery
Genre: Jazz, Big Band, Post-Bop

To celebrate the 40th anniversary of the opening of West Side Story on Broadway, Dave Grusin revived the score, giving its ten themes fresh arrangements that keep the original melodies in mind but add a stronger dose of jazz and Afro-Cuban rhythms to the music. For the most rewarding recording of this music since Stan Kenton's powerful renditions of the early 1960s, Grusin utilized an all-star big band with strings. Among the key soloists are trumpeter Arturo Sandoval, Bill Evans, Michael Brecker on tenor, baritonist Ronnie Cuber and flutist Dave Valentin (who is featured on a purposely cute rendition of "I Feel Pretty") plus the pianist/leader, who clearly loves the music. In addition, one song apiece features vocalists Jonathan Butler ("Maria"), Gloria Estefan and Jon Secada.
Track List
01. Prologue 5:01
02. Something's Coming 5:34
03. Jet Song 7:42
04. Maria (feat. Jonathan Butler) 4:24
05. Cool 4:48
06. Tonight (feat. Gloria Estefan) 4:05
07. I Feel Pretty 5:16
08. One Hand, One Heart 4:30
09. Somewhere (feat. Jon Secada) 4:26
10. America 8:20

musicians
Dave Grusin - synthesizer, piano, keyboards
Michael Brecker - tenor sax
Dave Weckl - drums
Arturo Sandoval - trumpet
Dave Valentin - flute
Jonathan Butler - vocals
Gloria Estefan - vocals
Bill Evans - tenor sax
Sammy Figueroa - percussion
John Patitucci - acoustic bass
Lee Ritenour - acoustic guitar
Ronnie Cuber - baritone sax
Jon Secada - vocals

Produced by Phil Ramone


EAC extraction logfile from 22. January 2007, 7:07 for CD
Dave Grusin / Dave Grusin Presents: West Side Story

Used drive : _NEC DVD_RW ND-3550A Adapter: 0 ID: 1
Read mode : Secure with NO C2, accurate stream, disable cache
Read offset correction : 48
Overread into Lead-In and Lead-Out : No

Used output format : C:\Program Files\FLAC\flac.exe (User Defined Encoder)
128 kBit/s
Additional command line options : -V -8 -T "artist=%a" -T "title=%t" -T "album=%g" -T "date=%y" -T "tracknumber=%n" -T "genre=%m" %s

Other options :
Fill up missing offset samples with silence : Yes
Delete leading and trailing silent blocks : No
Installed external ASPI interface


Track 1
Filename D:\music\rip\Dave Grusin - West Side Story (1997)[FLAC]\01 - Prologue (feat. Arturo Sandoval, Bill Evans, and Dave Weckl).wav

Pre-gap length 0:00:02.00

Peak level 99.8 %
Track quality 100.0 %
Test CRC E417C37C
Copy CRC E417C37C
Copy OK

Track 2
Filename D:\music\rip\Dave Grusin - West Side Story (1997)[FLAC]\02 - Something's Coming (feat. Michael Brecker).wav

Peak level 99.8 %
Track quality 99.9 %
Test CRC C5CC9237
Copy CRC C5CC9237
Copy OK

Track 3
Filename D:\music\rip\Dave Grusin - West Side Story (1997)[FLAC]\03 - The Jet Song (feat. Ronnie Cuber and George Young).wav

Pre-gap length 0:00:00.01

Peak level 99.8 %
Track quality 100.0 %
Test CRC ABD0E8C9
Copy CRC ABD0E8C9
Copy OK

Track 4
Filename D:\music\rip\Dave Grusin - West Side Story (1997)[FLAC]\04 - Maria (feat. Jonathan Butler).wav

Pre-gap length 0:00:01.94

Peak level 99.8 %
Track quality 100.0 %
Test CRC 123FB237
Copy CRC 123FB237
Copy OK

Track 5
Filename D:\music\rip\Dave Grusin - West Side Story (1997)[FLAC]\05 - Cool (feat. Lee Ritenour and John Patitucci).wav

Pre-gap length 0:00:01.52

Peak level 99.8 %
Track quality 100.0 %
Test CRC 412824C0
Copy CRC 412824C0
Copy OK

Track 6
Filename D:\music\rip\Dave Grusin - West Side Story (1997)[FLAC]\06 - Tonight (feat. Gloria Estefan, Michael Brecker, and Lee Ritenour)).wav

Pre-gap length 0:00:00.01

Peak level 99.8 %
Track quality 100.0 %
Test CRC 395EF90A
Copy CRC 395EF90A
Copy OK

Track 7
Filename D:\music\rip\Dave Grusin - West Side Story (1997)[FLAC]\07 - I Feel Pretty (feat. Dave Valentin).wav

Pre-gap length 0:00:01.25

Peak level 99.8 %
Track quality 100.0 %
Test CRC 93849D35
Copy CRC 93849D35
Copy OK

Track 8
Filename D:\music\rip\Dave Grusin - West Side Story (1997)[FLAC]\08 - One Hand, One Heart.wav

Pre-gap length 0:00:00.01

Peak level 99.8 %
Track quality 100.0 %
Test CRC 09CC34C5
Copy CRC 09CC34C5
Copy OK

Track 9
Filename D:\music\rip\Dave Grusin - West Side Story (1997)[FLAC]\09 - Somewhere (feat. Jon Secada).wav

Pre-gap length 0:00:02.01

Peak level 99.8 %
Track quality 100.0 %
Test CRC 648E9711
Copy CRC 648E9711
Copy OK

Track 10
Filename D:\music\rip\Dave Grusin - West Side Story (1997)[FLAC]\10 - America (feat. Bill Evans and Arturo Sandoval).wav

Pre-gap length 0:00:00.01

Peak level 99.8 %
Track quality 99.9 %
Test CRC 87685287
Copy CRC 87685287
Copy OK

No errors occured


End of status report


––––––––––––––––––––––––––––––––––––––––
Analyzed: Dave Grusin / Dave Grusin Presents: West Side Story
––––––––––––––––––––––––––––––––––––––––

DR Peak RMS Duration Track
––––––––––––––––––––––––––––––––––––––––
DR11 -0.01 dB -13.67 dB 5:02 01-Prologue (feat. Arturo Sandoval, Bill Evans, and Dave Weckl)
DR11 -0.01 dB -13.97 dB 5:34 02-Something's Coming (feat. Michael Brecker)
DR12 -0.01 dB -14.61 dB 7:44 03-The Jet Song (feat. Ronnie Cuber and George Young)
DR12 -0.01 dB -17.58 dB 4:26 04-Maria (feat. Jonathan Butler)
DR11 -0.01 dB -14.10 dB 4:47 05-Cool (feat. Lee Ritenour and John Patitucci)
DR12 -0.01 dB -13.61 dB 4:06 06-Tonight (feat. Gloria Estefan, Michael Brecker, and Lee Ritenour))
DR10 -0.01 dB -14.41 dB 5:15 07-I Feel Pretty (feat. Dave Valentin)
DR12 -0.01 dB -14.76 dB 4:32 08-One Hand, One Heart
DR9 -0.01 dB -13.35 dB 4:26 09-Somewhere (feat. Jon Secada)
DR11 -0.01 dB -13.47 dB 8:20 10-America (feat. Bill Evans and Arturo Sandoval)
––––––––––––––––––––––––––––––––––––––––

Number of tracks: 10
Official DR value: DR11

Samplerate: 44100 Hz
Channels: 2
Bits per sample: 16
Bitrate: 939 kbps
Codec: FLAC
================================================================================

Dave Grusin - West Side Story (1997) {Encoded Music}
Dave Grusin - West Side Story (1997) {Encoded Music}
Dave Grusin - West Side Story (1997) {Encoded Music}


Thanks to the original ripper