Subcategories
Tags
Language
Tags

Defunkt - Channel Zero (2016) {ESP Disk}

Posted By: tiburon
Defunkt - Channel Zero (2016) {ESP Disk}

Defunkt - Channel Zero (2016) {ESP Disk}
EAC 1.3 | FLAC tracks level 8 | Cue+Log+M3U | Full Scans 300dpi | 423MB + 5% Recovery
MP3 CBR 320 Kbps | 144MB + 5% Recovery
Genre: Jazz-Funk, Free Funk

Founded in 1978 by Trombonist/Vocalist Joseph Bowie (brother of Association for the Advancement of Creative Musicians and Art Ensemble of Chicago co-founder/trumpeter Lester Bowie), Defunkt has existed as somewhat of an anomaly, a Black band that initially gained notoriety while being active in New York’s No Wave Punk scene. Musical circles alongside noisy Punk legends like James Chance and The Contortions, DNA and Teenage Jesus & The Jerks while remaining steeped in the deep reservoirs of Jazz, Funk and the Avant Garde.
Track List
01. In the Good Times (7:16)
02. Make Them Dance (6:58)
03. Love You from Afar (11:22)
04. Ooh Baby (7:52)
05. The Eternal Triangle (7:36)
06. Defunkt (7:20)
07. Refuse to Love (8:03)
08. You Don’t Know – Nasty Excerpt (6:24)

musicians
Joseph Bowie - lead vocals, trombone, percussion
John Mulkerin - trumpet
Bill Bickford - guitar
Ronny Drayton - guitar
Kim Clarke - bass
Kenny Martin - drums

Produced by Joseph Bowie


Exact Audio Copy V1.3 from 2. September 2016

EAC extraction logfile from 28. October 2016, 22:14

Defunkt / Channel Zero

Used drive : ATAPI iHBS112 2 Adapter: 1 ID: 1

Read mode : Secure
Utilize accurate stream : Yes
Defeat audio cache : Yes
Make use of C2 pointers : No

Read offset correction : 6
Overread into Lead-In and Lead-Out : No
Fill up missing offset samples with silence : Yes
Delete leading and trailing silent blocks : No
Null samples used in CRC calculations : Yes
Used interface : Native Win32 interface for Win NT & 2000
Gap handling : Appended to previous track

Used output format : User Defined Encoder
Selected bitrate : 128 kBit/s
Quality : High
Add ID3 tag : No
Command line compressor : C:\Program Files (x86)\Exact Audio Copy\Flac\flac.exe
Additional command line options : -8 -V -T "ARTIST=%artist%" -T "TITLE=%title%" -T "ALBUM=%albumtitle%" -T "DATE=%year%" -T "TRACKNUMBER=%tracknr%" -T "GENRE=%genre%" -T "PERFORMER=%albuminterpret%" -T "COMPOSER=%composer%" -T "ALBUMARTIST=%albumartist%" -T "DISCNUMBER=%cdnumber%" -T "TOTALDISCS=%totalcds%" -T "TOTALTRACKS=%numtracks%" -T "COMMENT=EAC Secure Mode, Test & Copy, AccurateRip, FLAC -8" %source% -o %dest%


TOC of the extracted CD

Track | Start | Length | Start sector | End sector
––––––––––––––––––––––––––––-
1 | 0:00.00 | 7:16.21 | 0 | 32720
2 | 7:16.21 | 6:58.22 | 32721 | 64092
3 | 14:14.43 | 11:22.22 | 64093 | 115264
4 | 25:36.65 | 7:52.54 | 115265 | 150718
5 | 33:29.44 | 7:36.21 | 150719 | 184939
6 | 41:05.65 | 7:20.19 | 184940 | 217958
7 | 48:26.09 | 8:03.23 | 217959 | 254206
8 | 56:29.32 | 6:38.21 | 254207 | 284077


Track 1

Filename D:\DL\Defunkt - Channel Zero (2016) [FLAC]\01 - In the Good Times.wav

Pre-gap length 0:00:02.00

Peak level 98.2 %
Extraction speed 5.8 X
Track quality 100.0 %
Test CRC 1F77D6D2
Copy CRC 1F77D6D2
Track not present in AccurateRip database
Copy OK

Track 2

Filename D:\DL\Defunkt - Channel Zero (2016) [FLAC]\02 - Make Them Dance.wav

Peak level 98.2 %
Extraction speed 6.1 X
Track quality 99.9 %
Test CRC C007A3B7
Copy CRC C007A3B7
Track not present in AccurateRip database
Copy OK

Track 3

Filename D:\DL\Defunkt - Channel Zero (2016) [FLAC]\03 - Love You from Afar.wav

Peak level 97.1 %
Extraction speed 8.0 X
Track quality 100.0 %
Test CRC 73044501
Copy CRC 73044501
Track not present in AccurateRip database
Copy OK

Track 4

Filename D:\DL\Defunkt - Channel Zero (2016) [FLAC]\04 - Ooh Baby.wav

Peak level 85.9 %
Extraction speed 7.8 X
Track quality 99.9 %
Test CRC FE99BC6B
Copy CRC FE99BC6B
Track not present in AccurateRip database
Copy OK

Track 5

Filename D:\DL\Defunkt - Channel Zero (2016) [FLAC]\05 - Eternal Triangle.wav

Peak level 98.2 %
Extraction speed 9.3 X
Track quality 100.0 %
Test CRC 0CF599E3
Copy CRC 0CF599E3
Track not present in AccurateRip database
Copy OK

Track 6

Filename D:\DL\Defunkt - Channel Zero (2016) [FLAC]\06 - Defunkt.wav

Peak level 98.2 %
Extraction speed 9.8 X
Track quality 100.0 %
Test CRC FCC6DF8D
Copy CRC FCC6DF8D
Track not present in AccurateRip database
Copy OK

Track 7

Filename D:\DL\Defunkt - Channel Zero (2016) [FLAC]\07 - Refuse to Love.wav

Peak level 98.2 %
Extraction speed 9.6 X
Track quality 99.9 %
Test CRC C9B13B7A
Copy CRC C9B13B7A
Track not present in AccurateRip database
Copy OK

Track 8

Filename D:\DL\Defunkt - Channel Zero (2016) [FLAC]\08 - You Don't Know - nasty excerpt.wav

Peak level 78.4 %
Extraction speed 4.2 X
Track quality 99.7 %
Test CRC 0F4DE08B
Copy CRC 0F4DE08B
Track not present in AccurateRip database
Copy OK


None of the tracks are present in the AccurateRip database

No errors occurred

End of status report

–– CUETools DB Plugin V2.1.6

[CTDB TOCID: waglv9q_YRJLu_dg4Z.WfR9qZrY-] found
Submit result: waglv9q_YRJLu_dg4Z.WfR9qZrY- has been confirmed
Track | CTDB Status
1 | (2/2) Accurately ripped
2 | (2/2) Accurately ripped
3 | (2/2) Accurately ripped
4 | (2/2) Accurately ripped
5 | (2/2) Accurately ripped
6 | (2/2) Accurately ripped
7 | (2/2) Accurately ripped
8 | (2/2) Accurately ripped


==== Log checksum E9D349269033DE6F05F63E34C2F922BD207328EFD69D5377F131061917A1370D ====


––––––––––––––––––––––––––––––––––––––––
Analyzed: Defunkt / Channel Zero
––––––––––––––––––––––––––––––––––––––––

DR Peak RMS Duration Track
––––––––––––––––––––––––––––––––––––––––
DR12 -0.15 dB -13.08 dB 7:16 01-In the Good Times
DR10 -0.15 dB -11.58 dB 6:58 02-Make Them Dance
DR9 -0.25 dB -11.45 dB 11:22 03-Love You from Afar
DR11 -1.32 dB -13.65 dB 7:53 04-Ooh Baby
DR8 -0.15 dB -10.38 dB 7:36 05-Eternal Triangle
DR7 -0.15 dB -9.52 dB 7:20 06-Defunkt
DR8 -0.15 dB -11.16 dB 8:03 07-Refuse to Love
DR9 -2.11 dB -12.13 dB 6:38 08-You Don't Know - nasty excerpt
––––––––––––––––––––––––––––––––––––––––

Number of tracks: 8
Official DR value: DR9

Samplerate: 44100 Hz
Channels: 2
Bits per sample: 16
Bitrate: 908 kbps
Codec: FLAC
================================================================================

Defunkt - Channel Zero (2016) {ESP Disk}
Defunkt - Channel Zero (2016) {ESP Disk}


Thanks to the original ripper