Tags
Language
Tags
April 2024
Su Mo Tu We Th Fr Sa
31 1 2 3 4 5 6
7 8 9 10 11 12 13
14 15 16 17 18 19 20
21 22 23 24 25 26 27
28 29 30 1 2 3 4

Dexter Wansel ‎- Stargazer - Philadelphia International Records Anthology 1976-1980 (2016)

Posted By: JET 1
Dexter Wansel ‎- Stargazer - Philadelphia International Records Anthology 1976-1980 (2016)

Dexter Wansel ‎- Stargazer - Philadelphia International Records Anthology 1976-1980 (2016)
EAC Rip | FLAC (Tracks) +CUE, LOG | 1.05 GB | Covers Included
Genre: Soul | Label: Big Break Records | Catalog Number: CDBBRD0352

This comprehensive compilation includes every track Wansel recorded for PIR as a solo artist between 1976 and 1979 that featured on his 4 jazz-funk oriented albums for the label. Life On Mars (R&B #44), What The World Is Coming To (R&B #45), Voyager (R&B #37) and Time Is Slipping Away (R&B #58) allowed Wansel to show his myriad talents to the fullest and explore his deep interest in the cosmos. BBR

Exact Audio Copy V1.2 from 12. August 2016

EAC extraction logfile from 11. September 2016, 3:54

Dexter Wansel / Stargazer: The Philadelphia International Records Anthology 1976-1980

Used drive : GENERIC CDRCB05 Adapter: 1 ID: 1

Read mode : Secure
Utilize accurate stream : Yes
Defeat audio cache : Yes
Make use of C2 pointers : No

Read offset correction : 102
Overread into Lead-In and Lead-Out : No
Fill up missing offset samples with silence : Yes
Delete leading and trailing silent blocks : No
Null samples used in CRC calculations : Yes
Used interface : Native Win32 interface for Win NT & 2000
Gap handling : Appended to previous track

Used output format : User Defined Encoder
Selected bitrate : 1024 kBit/s
Quality : High
Add ID3 tag : Yes
Command line compressor : C:\Program Files (x86)\Exact Audio Copy\Flac\flac.exe
Additional command line options : -T "artist=%artist%" -T "title=%title%" -T "album=%albumtitle%" -T "date=%year%" -T "tracknumber=%tracknr%" -T "genre=%genre%" -5 %source%


TOC of the extracted CD

Track | Start | Length | Start sector | End sector
––––––––––––––––––––––––––––-
1 | 0:00.00 | 5:49.44 | 0 | 26218
2 | 5:49.44 | 4:54.21 | 26219 | 48289
3 | 10:43.65 | 4:08.05 | 48290 | 66894
4 | 14:51.70 | 4:57.35 | 66895 | 89204
5 | 19:49.30 | 5:34.21 | 89205 | 114275
6 | 25:23.51 | 5:44.63 | 114276 | 140138
7 | 31:08.39 | 5:03.10 | 140139 | 162873
8 | 36:11.49 | 4:30.33 | 162874 | 183156
9 | 40:42.07 | 5:36.27 | 183157 | 208383
10 | 46:18.34 | 6:34.12 | 208384 | 237945
11 | 52:52.46 | 4:47.03 | 237946 | 259473
12 | 57:39.49 | 3:58.55 | 259474 | 277378
13 | 61:38.29 | 3:20.06 | 277379 | 292384
14 | 64:58.35 | 4:40.48 | 292385 | 313432
15 | 69:39.08 | 3:57.08 | 313433 | 331215
16 | 73:36.16 | 3:58.52 | 331216 | 349117


Track 1

Filename K:\POST NEW\Dexter Wansel ‎- Stargazer - Philadelphia International Records Anthology 1976-1980 (2016)\CD1\01. LIFE ON MARS.wav

Pre-gap length 0:00:02.00

Peak level 95.5 %
Extraction speed 1.4 X
Track quality 99.9 %
Test CRC 251CECAE
Copy CRC 251CECAE
Track not present in AccurateRip database
Copy OK

Track 2

Filename K:\POST NEW\Dexter Wansel ‎- Stargazer - Philadelphia International Records Anthology 1976-1980 (2016)\CD1\02. SOLUTIONS.wav

Peak level 94.3 %
Extraction speed 1.7 X
Track quality 100.0 %
Test CRC 5C3D69BB
Copy CRC 5C3D69BB
Track not present in AccurateRip database
Copy OK

Track 3

Filename K:\POST NEW\Dexter Wansel ‎- Stargazer - Philadelphia International Records Anthology 1976-1980 (2016)\CD1\03. DISCO LIGHTS.wav

Peak level 89.1 %
Extraction speed 1.8 X
Track quality 100.0 %
Test CRC 99C4EB25
Copy CRC 99C4EB25
Track not present in AccurateRip database
Copy OK

Track 4

Filename K:\POST NEW\Dexter Wansel ‎- Stargazer - Philadelphia International Records Anthology 1976-1980 (2016)\CD1\04. IT’S BEEN COOL.wav

Peak level 95.5 %
Extraction speed 1.8 X
Track quality 99.9 %
Test CRC 333D20C7
Copy CRC 333D20C7
Track not present in AccurateRip database
Copy OK

Track 5

Filename K:\POST NEW\Dexter Wansel ‎- Stargazer - Philadelphia International Records Anthology 1976-1980 (2016)\CD1\05. ALL NIGHT LONG.wav

Peak level 95.5 %
Extraction speed 1.9 X
Track quality 99.9 %
Test CRC 50EC622D
Copy CRC 50EC622D
Track not present in AccurateRip database
Copy OK

Track 6

Filename K:\POST NEW\Dexter Wansel ‎- Stargazer - Philadelphia International Records Anthology 1976-1980 (2016)\CD1\06. I’LL NEVER FORGET (MY FAVOURITE DISCO) (12” Version).wav

Peak level 96.6 %
Extraction speed 2.3 X
Track quality 100.0 %
Test CRC B66C5D85
Copy CRC B66C5D85
Track not present in AccurateRip database
Copy OK

Track 7

Filename K:\POST NEW\Dexter Wansel ‎- Stargazer - Philadelphia International Records Anthology 1976-1980 (2016)\CD1\07. YOU CAN BE WHAT YOU WANNA BE.wav

Peak level 95.5 %
Extraction speed 2.1 X
Track quality 99.9 %
Test CRC FADBFD26
Copy CRC FADBFD26
Track not present in AccurateRip database
Copy OK

Track 8

Filename K:\POST NEW\Dexter Wansel ‎- Stargazer - Philadelphia International Records Anthology 1976-1980 (2016)\CD1\08. LET ME ROCK YOU (featuring The JONES GIRLS).wav

Peak level 95.5 %
Extraction speed 2.5 X
Track quality 100.0 %
Test CRC A6BDC6D4
Copy CRC A6BDC6D4
Track not present in AccurateRip database
Copy OK

Track 9

Filename K:\POST NEW\Dexter Wansel ‎- Stargazer - Philadelphia International Records Anthology 1976-1980 (2016)\CD1\09. DANCE WITH ME TONIGHT.wav

Peak level 95.5 %
Extraction speed 2.6 X
Track quality 100.0 %
Test CRC 2CD139EE
Copy CRC 2CD139EE
Track not present in AccurateRip database
Copy OK

Track 10

Filename K:\POST NEW\Dexter Wansel ‎- Stargazer - Philadelphia International Records Anthology 1976-1980 (2016)\CD1\10. I JUST WANT TO LOVE YOU.wav

Peak level 89.1 %
Extraction speed 2.8 X
Track quality 100.0 %
Test CRC EA471024
Copy CRC EA471024
Track not present in AccurateRip database
Copy OK

Track 11

Filename K:\POST NEW\Dexter Wansel ‎- Stargazer - Philadelphia International Records Anthology 1976-1980 (2016)\CD1\11. LATIN LOVE (LET ME KNOW).wav

Peak level 89.1 %
Extraction speed 2.8 X
Track quality 100.0 %
Test CRC C567E5A8
Copy CRC C567E5A8
Track not present in AccurateRip database
Copy OK

Track 12

Filename K:\POST NEW\Dexter Wansel ‎- Stargazer - Philadelphia International Records Anthology 1976-1980 (2016)\CD1\12. ODE INFINITUM.wav

Peak level 89.1 %
Extraction speed 2.5 X
Track quality 99.9 %
Test CRC 37BB74FF
Copy CRC 37BB74FF
Track not present in AccurateRip database
Copy OK

Track 13

Filename K:\POST NEW\Dexter Wansel ‎- Stargazer - Philadelphia International Records Anthology 1976-1980 (2016)\CD1\13. STARGAZER.wav

Peak level 95.5 %
Extraction speed 2.8 X
Track quality 100.0 %
Test CRC F9CA8257
Copy CRC F9CA8257
Track not present in AccurateRip database
Copy OK

Track 14

Filename K:\POST NEW\Dexter Wansel ‎- Stargazer - Philadelphia International Records Anthology 1976-1980 (2016)\CD1\14. ONE FOR THE ROAD.wav

Peak level 95.5 %
Extraction speed 3.0 X
Track quality 100.0 %
Test CRC AD541A9B
Copy CRC AD541A9B
Track not present in AccurateRip database
Copy OK

Track 15

Filename K:\POST NEW\Dexter Wansel ‎- Stargazer - Philadelphia International Records Anthology 1976-1980 (2016)\CD1\15. GOING BACK TO KINGSTON TOWN.wav

Peak level 95.5 %
Extraction speed 2.3 X
Track quality 99.9 %
Test CRC F776E92D
Copy CRC F776E92D
Track not present in AccurateRip database
Copy OK

Track 16

Filename K:\POST NEW\Dexter Wansel ‎- Stargazer - Philadelphia International Records Anthology 1976-1980 (2016)\CD1\16. FUNK ATTACK.wav

Peak level 95.5 %
Extraction speed 2.7 X
Track quality 99.9 %
Test CRC 31109C1E
Copy CRC 31109C1E
Track not present in AccurateRip database
Copy OK


None of the tracks are present in the AccurateRip database

No errors occurred

End of status report

–– CUETools DB Plugin V2.1.6

[CTDB TOCID: LYsqkmPPgtw0keT7AT21gwh12NA-] found
Submit result: LYsqkmPPgtw0keT7AT21gwh12NA- has been confirmed
Track | CTDB Status
1 | (1/1) Accurately ripped
2 | (1/1) Accurately ripped
3 | (1/1) Accurately ripped
4 | (1/1) Accurately ripped
5 | (1/1) Accurately ripped
6 | (1/1) Accurately ripped
7 | (1/1) Accurately ripped
8 | (1/1) Accurately ripped
9 | (1/1) Accurately ripped
10 | (1/1) Accurately ripped
11 | (1/1) Accurately ripped
12 | (1/1) Accurately ripped
13 | (1/1) Accurately ripped
14 | (1/1) Accurately ripped
15 | (1/1) Accurately ripped
16 | (1/1) Accurately ripped


Exact Audio Copy V1.2 from 12. August 2016

EAC extraction logfile from 11. September 2016, 6:22

Dexter Wansel / Stargazer: The Philadelphia International Records Anthology 1976-1980

Used drive : GENERIC CDRCB05 Adapter: 1 ID: 1

Read mode : Secure
Utilize accurate stream : Yes
Defeat audio cache : Yes
Make use of C2 pointers : No

Read offset correction : 102
Overread into Lead-In and Lead-Out : No
Fill up missing offset samples with silence : Yes
Delete leading and trailing silent blocks : No
Null samples used in CRC calculations : Yes
Used interface : Native Win32 interface for Win NT & 2000
Gap handling : Appended to previous track

Used output format : User Defined Encoder
Selected bitrate : 1024 kBit/s
Quality : High
Add ID3 tag : Yes
Command line compressor : C:\Program Files (x86)\Exact Audio Copy\Flac\flac.exe
Additional command line options : -T "artist=%artist%" -T "title=%title%" -T "album=%albumtitle%" -T "date=%year%" -T "tracknumber=%tracknr%" -T "genre=%genre%" -5 %source%


TOC of the extracted CD

Track | Start | Length | Start sector | End sector
––––––––––––––––––––––––––––-
1 | 0:00.00 | 1:19.34 | 0 | 5958
2 | 1:19.34 | 5:41.68 | 5959 | 31601
3 | 7:01.27 | 4:53.04 | 31602 | 53580
4 | 11:54.31 | 5:00.21 | 53581 | 76101
5 | 16:54.52 | 3:35.73 | 76102 | 92299
6 | 20:30.50 | 3:12.40 | 92300 | 106739
7 | 23:43.15 | 6:18.24 | 106740 | 135113
8 | 30:01.39 | 8:11.72 | 135114 | 172010
9 | 38:13.36 | 4:21.07 | 172011 | 191592
10 | 42:34.43 | 6:05.17 | 191593 | 218984
11 | 48:39.60 | 4:52.29 | 218985 | 240913
12 | 53:32.14 | 4:46.68 | 240914 | 262431
13 | 58:19.07 | 3:41.11 | 262432 | 279017
14 | 62:00.18 | 5:29.34 | 279018 | 303726
15 | 67:29.52 | 4:21.73 | 303727 | 323374
16 | 71:51.50 | 4:35.02 | 323375 | 344001


Track 1

Filename K:\POST NEW\Dexter Wansel ‎- Stargazer - Philadelphia International Records Anthology 1976-1980 (2016)\CD2\01. PRELUDE #1.wav

Pre-gap length 0:00:02.00

Peak level 62.5 %
Extraction speed 1.1 X
Track quality 100.0 %
Test CRC AA92A82C
Copy CRC AA92A82C
Track not present in AccurateRip database
Copy OK

Track 2

Filename K:\POST NEW\Dexter Wansel ‎- Stargazer - Philadelphia International Records Anthology 1976-1980 (2016)\CD2\02. THE SWEETEST PAIN (featuring TERRI WELLS).wav

Peak level 95.5 %
Extraction speed 1.6 X
Track quality 100.0 %
Test CRC BBE8508C
Copy CRC BBE8508C
Track not present in AccurateRip database
Copy OK

Track 3

Filename K:\POST NEW\Dexter Wansel ‎- Stargazer - Philadelphia International Records Anthology 1976-1980 (2016)\CD2\03. HOLDIN’ ON.wav

Peak level 95.5 %
Extraction speed 1.7 X
Track quality 100.0 %
Test CRC EE91C591
Copy CRC EE91C591
Track not present in AccurateRip database
Copy OK

Track 4

Filename K:\POST NEW\Dexter Wansel ‎- Stargazer - Philadelphia International Records Anthology 1976-1980 (2016)\CD2\04. ONE MILLION MILES FROM THE GROUND.wav

Pre-gap length 0:00:01.21

Peak level 89.1 %
Extraction speed 1.9 X
Track quality 100.0 %
Test CRC CEE3ACA3
Copy CRC CEE3ACA3
Track not present in AccurateRip database
Copy OK

Track 5

Filename K:\POST NEW\Dexter Wansel ‎- Stargazer - Philadelphia International Records Anthology 1976-1980 (2016)\CD2\05. I’M IN LOVE.wav

Peak level 95.5 %
Extraction speed 1.9 X
Track quality 100.0 %
Test CRC 9068BB28
Copy CRC 9068BB28
Track not present in AccurateRip database
Copy OK

Track 6

Filename K:\POST NEW\Dexter Wansel ‎- Stargazer - Philadelphia International Records Anthology 1976-1980 (2016)\CD2\06. TIME IS SLIPPING AWAY.wav

Pre-gap length 0:00:00.47

Peak level 95.5 %
Extraction speed 1.7 X
Track quality 99.9 %
Test CRC EA225586
Copy CRC EA225586
Track not present in AccurateRip database
Copy OK

Track 7

Filename K:\POST NEW\Dexter Wansel ‎- Stargazer - Philadelphia International Records Anthology 1976-1980 (2016)\CD2\07. WHAT THE WORLD IS COMING TO.wav

Peak level 92.8 %
Extraction speed 2.3 X
Track quality 100.0 %
Test CRC 94E332FE
Copy CRC 94E332FE
Track not present in AccurateRip database
Copy OK

Track 8

Filename K:\POST NEW\Dexter Wansel ‎- Stargazer - Philadelphia International Records Anthology 1976-1980 (2016)\CD2\08. VOYAGER.wav

Peak level 94.5 %
Extraction speed 2.5 X
Track quality 100.0 %
Test CRC 7AF809D1
Copy CRC 7AF809D1
Track not present in AccurateRip database
Copy OK

Track 9

Filename K:\POST NEW\Dexter Wansel ‎- Stargazer - Philadelphia International Records Anthology 1976-1980 (2016)\CD2\09. A PROPHET NAMED K.G..wav

Peak level 94.9 %
Extraction speed 2.5 X
Track quality 100.0 %
Test CRC 6DC6B1D8
Copy CRC 6DC6B1D8
Track not present in AccurateRip database
Copy OK

Track 10

Filename K:\POST NEW\Dexter Wansel ‎- Stargazer - Philadelphia International Records Anthology 1976-1980 (2016)\CD2\10. FIRST LIGHT OF THE MORNING.wav

Peak level 95.5 %
Extraction speed 2.7 X
Track quality 100.0 %
Test CRC B7C83330
Copy CRC B7C83330
Track not present in AccurateRip database
Copy OK

Track 11

Filename K:\POST NEW\Dexter Wansel ‎- Stargazer - Philadelphia International Records Anthology 1976-1980 (2016)\CD2\11. THEME FROM THE PLANETS.wav

Pre-gap length 0:00:00.38

Peak level 95.5 %
Extraction speed 2.7 X
Track quality 100.0 %
Test CRC 40888A16
Copy CRC 40888A16
Track not present in AccurateRip database
Copy OK

Track 12

Filename K:\POST NEW\Dexter Wansel ‎- Stargazer - Philadelphia International Records Anthology 1976-1980 (2016)\CD2\12. DREAMS OF TOMORROW (featuring JEAN CARN).wav

Peak level 95.3 %
Extraction speed 2.8 X
Track quality 100.0 %
Test CRC AE4AC79A
Copy CRC AE4AC79A
Track not present in AccurateRip database
Copy OK

Track 13

Filename K:\POST NEW\Dexter Wansel ‎- Stargazer - Philadelphia International Records Anthology 1976-1980 (2016)\CD2\13. RINGS OF SATURN.wav

Peak level 92.9 %
Extraction speed 2.8 X
Track quality 100.0 %
Test CRC 3B0402BA
Copy CRC 3B0402BA
Track not present in AccurateRip database
Copy OK

Track 14

Filename K:\POST NEW\Dexter Wansel ‎- Stargazer - Philadelphia International Records Anthology 1976-1980 (2016)\CD2\14. TIME IS THE TEACHER.wav

Peak level 95.5 %
Extraction speed 3.0 X
Track quality 100.0 %
Test CRC 2549132E
Copy CRC 2549132E
Track not present in AccurateRip database
Copy OK

Track 15

Filename K:\POST NEW\Dexter Wansel ‎- Stargazer - Philadelphia International Records Anthology 1976-1980 (2016)\CD2\15. TOGETHER ONCE AGAIN (featuring TERRI WELLS).wav

Peak level 92.0 %
Extraction speed 3.0 X
Track quality 100.0 %
Test CRC 1DBD3BE4
Copy CRC 1DBD3BE4
Track not present in AccurateRip database
Copy OK

Track 16

Filename K:\POST NEW\Dexter Wansel ‎- Stargazer - Philadelphia International Records Anthology 1976-1980 (2016)\CD2\16. NEW BEGINNING (featuring HERB SMITH).wav

Peak level 88.9 %
Extraction speed 3.1 X
Track quality 100.0 %
Test CRC 4EEC0424
Copy CRC 4EEC0424
Track not present in AccurateRip database
Copy OK


None of the tracks are present in the AccurateRip database

No errors occurred

End of status report

–– CUETools DB Plugin V2.1.6

[CTDB TOCID: YI0nnvmH.Ada6dsoKoAZtQAP64c-] found
Submit result: YI0nnvmH.Ada6dsoKoAZtQAP64c- has been confirmed
Track | CTDB Status
1 | (1/1) Accurately ripped
2 | (1/1) Accurately ripped
3 | (1/1) Accurately ripped
4 | (1/1) Accurately ripped
5 | (1/1) Accurately ripped
6 | (1/1) Accurately ripped
7 | (1/1) Accurately ripped
8 | (1/1) Accurately ripped
9 | (1/1) Accurately ripped
10 | (1/1) Accurately ripped
11 | (1/1) Accurately ripped
12 | (1/1) Accurately ripped
13 | (1/1) Accurately ripped
14 | (1/1) Accurately ripped
15 | (1/1) Accurately ripped
16 | (1/1) Accurately ripped


Tracklist:
DISC ONE
1. LIFE ON MARS
2. SOLUTIONS
3. DISCO LIGHTS
4. IT’S BEEN COOL
5. ALL NIGHT LONG
6. I’LL NEVER FORGET (MY FAVOURITE DISCO) (12” Version)
7. YOU CAN BE WHAT YOU WANNA BE
8. LET ME ROCK YOU (featuring The JONES GIRLS)
9. DANCE WITH ME TONIGHT
10. I JUST WANT TO LOVE YOU
11. LATIN LOVE (LET ME KNOW)
12. ODE INFINITUM
13. STARGAZER
14. ONE FOR THE ROAD
15. GOING BACK TO KINGSTON TOWN
16. FUNK ATTACK

DISC TWO
1. PRELUDE #1
2. THE SWEETEST PAIN (featuring TERRI WELLS)
3. HOLDIN’ ON
4. ONE MILLION MILES FROM THE GROUND
5. I’M IN LOVE
6. TIME IS SLIPPING AWAY
7. WHAT THE WORLD IS COMING TO
8. VOYAGER
9. A PROPHET NAMED K.G.
10. FIRST LIGHT OF THE MORNING
11. THEME FROM THE PLANETS
12. DREAMS OF TOMORROW (featuring JEAN CARN)
13. RINGS OF SATURN
14. TIME IS THE TEACHER
15. TOGETHER ONCE AGAIN (featuring TERRI WELLS)
16. NEW BEGINNING (featuring HERB SMITH)