Tags
Language
Tags

Diana Panton - To Brazil With Love (2011)

Posted By: tirexiss
Diana Panton - To Brazil With Love (2011)

Diana Panton - To Brazil With Love (2011)
EAC | FLAC (tracks+.cue, log) | Covers Included | 01:01:45 | 408 MB
Genre: Vocal Jazz, Bossa Nova | Label: Koch Music | Catalog: AUD753168014

Diana's release, to Brazil with love (2011), is a tribute to the samba and bossa nova traditions of Brazil. The album features the most adventurous instrumentation to date. Maninho Costa and Silas Silva add Brazilian rhythms on drums and percussion, while Kiki Misumi on cello and Bill McBirnie on flute add colour and texture. Don and Reg are still the mainstay of the trio and provide delightful accompaniment and soloing throughout. The album appeared on a number of Best of 2011 lists, including those of Japan's Jazz Critique Magazine, Tim Perlich, JAZZ.FM's hosts Jaymz Bee and John Devenish. The album also ranked #1 for eight weeks on the jazz sales chart in Greater China and Singapore. All three of Diana's most recent albums appeared simultaneously on the Top Ten jazz sales chart for 12 weeks in Taiwan and Hong Kong. The album was nominated for a JUNO, a Canadian Independent Music Award and an American Independent Music Award.

Diana Panton - To Brazil With Love (2011)

Track List:

01. Samba Saravah 4:00
02. This Happy Madness 4:05
03. The Telephone Song 1:55
04. Manha de Carnaval 5:23
05. So Nice 3:29
06. Is It Really You? 4:21
07. The Night Has A Thousand Eyes 4:00
08. Daus Mon Ile 5:28
09. Felicidade 4:41
10. Tu Sais Je Vais T'aimen 4:21
11. Dreamer 3:41
12. And I Love Him 4:44
13. Fuis Comme L'Oiseau 4:40
14. Que Reste Toil de Nos Amours? 6:52

Exact Audio Copy V1.0 beta 3 from 29. August 2011

EAC extraction logfile from 6. June 2012, 16:10

Diana Panton / To Brazil With Love

Used drive : TSSTcorpCDDVDW SH-S223C Adapter: 3 ID: 1

Read mode : Secure
Utilize accurate stream : Yes
Defeat audio cache : Yes
Make use of C2 pointers : No

Read offset correction : 697
Overread into Lead-In and Lead-Out : No
Fill up missing offset samples with silence : Yes
Delete leading and trailing silent blocks : No
Null samples used in CRC calculations : Yes
Used interface : Native Win32 interface for Win NT & 2000
Gap handling : Appended to previous track

Used output format : User Defined Encoder
Selected bitrate : 1024 kBit/s
Quality : High
Add ID3 tag : No
Command line compressor : C:\Program Files (x86)\Exact Audio Copy\Flac\flac.exe
Additional command line options : -8 -V -T "ARTIST=%artist%" -T "TITLE=%title%" -T "ALBUM=%albumtitle%" -T "DATE=%year%" -T "TRACKNUMBER=%tracknr%" -T "GENRE=%genre%" -T "PERFORMER=%albuminterpret%" -T "COMPOSER=%composer%" %haslyrics%–tag-from-file=LYRICS="%lyricsfile%"%haslyrics% -T "ALBUMARTIST=%albumartist%" -T "DISCNUMBER=%cdnumber%" -T "TOTALDISCS=%totalcds%" -T "TOTALTRACKS=%numtracks%" -T "COMMENT=%comment%" %source% -o %dest%


TOC of the extracted CD

Track | Start | Length | Start sector | End sector
––––––––––––––––––––––––––––-
1 | 0:00.00 | 4:00.42 | 0 | 18041
2 | 4:00.42 | 4:05.00 | 18042 | 36416
3 | 8:05.42 | 1:55.05 | 36417 | 45046
4 | 10:00.47 | 5:23.71 | 45047 | 69342
5 | 15:24.43 | 3:29.37 | 69343 | 85054
6 | 18:54.05 | 4:21.00 | 85055 | 104629
7 | 23:15.05 | 4:00.70 | 104630 | 122699
8 | 27:16.00 | 5:28.13 | 122700 | 147312
9 | 32:44.13 | 4:41.51 | 147313 | 168438
10 | 37:25.64 | 4:21.47 | 168439 | 188060
11 | 41:47.36 | 3:40.73 | 188061 | 204633
12 | 45:28.34 | 4:43.73 | 204634 | 225931
13 | 50:12.32 | 4:40.26 | 225932 | 246957
14 | 54:52.58 | 6:52.52 | 246958 | 277909


Track 1

Filename D:\musa\Diana Panton - To Brazil With Love (2011)\01 - Samba Saravah.wav

Pre-gap length 0:00:02.00

Peak level 100.0 %
Extraction speed 2.0 X
Track quality 100.0 %
Test CRC 3A7C0171
Copy CRC 3A7C0171
Accurately ripped (confidence 1) [EEFA4277] (AR v2)
Copy OK

Track 2

Filename D:\musa\Diana Panton - To Brazil With Love (2011)\02 - This Happy Madness.wav

Peak level 100.0 %
Extraction speed 1.9 X
Track quality 99.9 %
Test CRC C68DB0AB
Copy CRC C68DB0AB
Accurately ripped (confidence 1) [3D5E25E4] (AR v2)
Copy OK

Track 3

Filename D:\musa\Diana Panton - To Brazil With Love (2011)\03 - The Telephone Song.wav

Peak level 100.0 %
Extraction speed 2.0 X
Track quality 100.0 %
Test CRC F8BAA4C3
Copy CRC F8BAA4C3
Accurately ripped (confidence 1) [4DAF5512] (AR v2)
Copy OK

Track 4

Filename D:\musa\Diana Panton - To Brazil With Love (2011)\04 - Manha De Carnaval.wav

Pre-gap length 0:00:02.54

Peak level 91.4 %
Extraction speed 2.6 X
Track quality 100.0 %
Test CRC 3C11E480
Copy CRC 3C11E480
Accurately ripped (confidence 1) [ED895962] (AR v2)
Copy OK

Track 5

Filename D:\musa\Diana Panton - To Brazil With Love (2011)\05 - So Nice.wav

Peak level 100.0 %
Extraction speed 2.1 X
Track quality 99.9 %
Test CRC E96B4DBE
Copy CRC E96B4DBE
Accurately ripped (confidence 1) [ECF42935] (AR v2)
Copy OK

Track 6

Filename D:\musa\Diana Panton - To Brazil With Love (2011)\06 - Is It Really You.wav

Peak level 100.0 %
Extraction speed 2.8 X
Track quality 100.0 %
Test CRC 87F2EF10
Copy CRC 87F2EF10
Accurately ripped (confidence 1) [FDF067E9] (AR v2)
Copy OK

Track 7

Filename D:\musa\Diana Panton - To Brazil With Love (2011)\07 - The Night Has A Thousand Eyes.wav

Peak level 99.9 %
Extraction speed 2.9 X
Track quality 100.0 %
Test CRC DB21CAA2
Copy CRC DB21CAA2
Accurately ripped (confidence 1) [ED22F991] (AR v2)
Copy OK

Track 8

Filename D:\musa\Diana Panton - To Brazil With Love (2011)\08 - Dans Mon Ile.wav

Peak level 99.9 %
Extraction speed 3.2 X
Track quality 100.0 %
Test CRC 6EBE03B5
Copy CRC 6EBE03B5
Accurately ripped (confidence 1) [415F6BE4] (AR v2)
Copy OK

Track 9

Filename D:\musa\Diana Panton - To Brazil With Love (2011)\09 - Felicidade.wav

Pre-gap length 0:00:01.49

Peak level 99.9 %
Extraction speed 3.3 X
Track quality 100.0 %
Test CRC 8130FE9D
Copy CRC 8130FE9D
Accurately ripped (confidence 1) [425888BD] (AR v2)
Copy OK

Track 10

Filename D:\musa\Diana Panton - To Brazil With Love (2011)\10 - Tu Sais Je Vais T´aimen.wav

Peak level 96.5 %
Extraction speed 2.6 X
Track quality 99.9 %
Test CRC F852504D
Copy CRC F852504D
Accurately ripped (confidence 1) [F7FF20FF] (AR v2)
Copy OK

Track 11

Filename D:\musa\Diana Panton - To Brazil With Love (2011)\11 - Dreamer.wav

Peak level 100.0 %
Extraction speed 3.4 X
Track quality 100.0 %
Test CRC FEA87F2B
Copy CRC FEA87F2B
Accurately ripped (confidence 1) [BF9C4545] (AR v2)
Copy OK

Track 12

Filename D:\musa\Diana Panton - To Brazil With Love (2011)\12 - And I Love Him.wav

Peak level 99.8 %
Extraction speed 3.6 X
Track quality 100.0 %
Test CRC 3DF8F408
Copy CRC 3DF8F408
Accurately ripped (confidence 1) [A6F30E5B] (AR v2)
Copy OK

Track 13

Filename D:\musa\Diana Panton - To Brazil With Love (2011)\13 - Fais Comme L´oiseau.wav

Peak level 100.0 %
Extraction speed 3.7 X
Track quality 100.0 %
Test CRC 48C3C8F6
Copy CRC 48C3C8F6
Accurately ripped (confidence 1) [32ECE1EF] (AR v2)
Copy OK

Track 14

Filename D:\musa\Diana Panton - To Brazil With Love (2011)\14 - Que Reste-T-Il De Nos Amours.wav

Pre-gap length 0:00:03.04

Peak level 100.0 %
Extraction speed 3.3 X
Track quality 99.9 %
Test CRC F81C9B4D
Copy CRC F81C9B4D
Accurately ripped (confidence 1) [8CFD6E2A] (AR v2)
Copy OK


All tracks accurately ripped

No errors occurred

End of status report

==== Log checksum 8D14F4DBA9BB669493222E121AC1791DD944EFADED9A5AEA954A4972CF82F074 ====

Thanks to the Original ripper (unknown)!

Download: