Tags
Language
Tags

Diana Ross - Diamond Diana: The Legacy Collection (2017)

Posted By: BlondStyle
Diana Ross - Diamond Diana: The Legacy Collection (2017)

Diana Ross - Diamond Diana: The Legacy Collection (2017)
R&B, Soul, Pop-Soul, Disco | EAC Rip | FLAC, Img+CUE+LOG+Scans (TIF) | 54:46 | 437,26 Mb
Label: Motown/UMe (USA) | Cat.# B0027681-02 | Released: 2017-11-17
Diana Ross - Diamond Diana: The Legacy Collection (2017)

The release of "Diamond Diana" was synchronized with the unveiling of Ross' like-named fragrance, as well as the 2017 American Music Awards, during which the pop-soul legend was honored with a Lifetime Achievement Award. Motown-centric Ross compilations ranging from OK to indispensable have been produced regularly since the early '70s, and this one falls closer to the lower end, as a brief overview angling for a casual listener's impulse purchase, not as a definitive anthology. "You Can't Hurry Love" is the lone Supremes selection. Otherwise, the emphasis is on solo work, including the #1 R&B hits "Ain't No Mountain High Enough," "Love Hangover," "Upside Down," and the Lionel Richie duet "Endless Love." There's an obligatory dance remix in the form of Eric Kupper's update of "Ain't No Mountain High Enough."
~Review by Andy Kellman

Diana Ross - Diamond Diana: The Legacy Collection (2017)

Diana Ross - Diamond Diana: The Legacy Collection (2017)




Release of this CD: 2017, November, 17 [CD Motown/UMe (USA), Cat.# B0027681-02, UPC: 602567126850]
A Motown Records release
©℗ 2017 UMG Recordings, Inc.
Printed/Made in U.S.A.

Note: Compilation, Remastered.

Credits:

Executive Producer] – Diana Ross
Mastered By – Phil Nicolo


Tracklist:

01. I'm Coming Out (03:56)
02. More Today Than Yesterday (02:52)
03. The Boss (03:51)
04. It's My House (04:33)
05. Endless Love (Duet with Lionel Richie) (04:26)
06. Upside Down (03:37)
07. You Can't Hurry Love (with The Supremes) (02:48)
08. Touch Me In The Morning (03:53)
09. Love Hangover (03:49)
10. Take Me Higher (04:18)
11. It's My Turn (03:56)
12. Why Do Fools Fall In Love (02:53)
13. Ain't No Mountain High Enough (03:35)
14. Reach Out And Touch (Somebody's Hand) (03:11)
15. Ain't No Mountain High Enough (The ANMHE 'Diamond Diana' Remix) (03:06)

Exact Audio Copy V1.3 from 2. September 2016

EAC extraction logfile from 17. December 2018, 4:27

Diana Ross / Diamond Diana: The Legacy Collection

Used drive : Memorex 52MAXX 3252AJ1 Adapter: 1 ID: 1

Read mode : Secure
Utilize accurate stream : Yes
Defeat audio cache : Yes
Make use of C2 pointers : Yes

Read offset correction : 6
Overread into Lead-In and Lead-Out : No
Fill up missing offset samples with silence : Yes
Delete leading and trailing silent blocks : No
Null samples used in CRC calculations : Yes
Used interface : Native Win32 interface for Win NT & 2000

Used output format : User Defined Encoder
Selected bitrate : 896 kBit/s
Quality : Low
Add ID3 tag : Yes
Command line compressor : C:\Program Files (x86)\Exact Audio Copy\FLAC\FLAC.EXE
Additional command line options : %ishigh%-V -p -l 12 -b 4096 -m -e -r 8%ishigh%%islow%-5%islow% –replay-gain -T "ARTIST=%artist%" -T "ALBUM=%albumtitle%" -T "TITLE=%title%" -T "DATE=%year%" -T "TRACKNUMBER=%tracknr%" -T "GENRE=%genre%" -T "ENSEMBLE=%albuminterpret%" -T "ALBUMARTIST=%albumartist%" -T "COMPOSER=%albumcomposer%" -T "DISCNUMBER=%cdnumber%" -T "TOTALDISCS=%totalcds%" -T "TOTALTRACKS=%numtracks%" -T "SOURCEMEDIA=CD" -T "COMMENT=%comment%" %hascover%-T "PICTURE=%coverfile%"%hascover% %source%


TOC of the extracted CD

Track | Start | Length | Start sector | End sector
––––––––––––––––––––––––––––-
1 | 0:00.00 | 3:56.19 | 0 | 17718
2 | 3:56.19 | 2:51.45 | 17719 | 30588
3 | 6:47.64 | 3:51.03 | 30589 | 47916
4 | 10:38.67 | 4:32.70 | 47917 | 68386
5 | 15:11.62 | 4:26.34 | 68387 | 88370
6 | 19:38.21 | 3:37.32 | 88371 | 104677
7 | 23:15.53 | 2:47.70 | 104678 | 117272
8 | 26:03.48 | 3:53.08 | 117273 | 134755
9 | 29:56.56 | 3:49.28 | 134756 | 151958
10 | 33:46.09 | 4:17.73 | 151959 | 171306
11 | 38:04.07 | 3:55.73 | 171307 | 189004
12 | 42:00.05 | 2:53.17 | 189005 | 201996
13 | 44:53.22 | 3:35.15 | 201997 | 218136
14 | 48:28.37 | 3:10.62 | 218137 | 232448
15 | 51:39.24 | 3:06.20 | 232449 | 246418


Range status and errors

Selected range

Filename C:\Users\M@ce\Music\Archives\Rips\Diana Ross - Diamond Diana- The Legacy Collection.wav

Peak level 99.9 %
Extraction speed 3.6 X
Range quality 100.0 %
Test CRC 66943415
Copy CRC 66943415
Copy OK

No errors occurred


AccurateRip summary

Track 1 accurately ripped (confidence 6) [59AA0A5C] (AR v2)
Track 2 accurately ripped (confidence 6) [5910834E] (AR v2)
Track 3 accurately ripped (confidence 6) [78B35F8B] (AR v2)
Track 4 accurately ripped (confidence 6) [3DDCF49A] (AR v2)
Track 5 accurately ripped (confidence 6) [BD3DD62E] (AR v2)
Track 6 accurately ripped (confidence 6) [F39E6174] (AR v2)
Track 7 accurately ripped (confidence 6) [CAC3F53A] (AR v2)
Track 8 accurately ripped (confidence 6) [146AFCE5] (AR v2)
Track 9 accurately ripped (confidence 6) [5E8387BC] (AR v2)
Track 10 accurately ripped (confidence 6) [D57C72C4] (AR v2)
Track 11 accurately ripped (confidence 6) [D95D1BD9] (AR v2)
Track 12 accurately ripped (confidence 6) [7FAB4933] (AR v2)
Track 13 accurately ripped (confidence 6) [7CAF7FC0] (AR v2)
Track 14 accurately ripped (confidence 6) [FF3EEDDD] (AR v2)
Track 15 accurately ripped (confidence 6) [2A8888A0] (AR v2)

All tracks accurately ripped

End of status report

–– CUETools DB Plugin V2.1.6

[CTDB TOCID: 0PAKnGFV6sYC26iK1K8zCJcVnzU-] found
Submit result: 0PAKnGFV6sYC26iK1K8zCJcVnzU- has been confirmed
Track | CTDB Status
1 | (26/26) Accurately ripped
2 | (26/26) Accurately ripped
3 | (26/26) Accurately ripped
4 | (26/26) Accurately ripped
5 | (26/26) Accurately ripped
6 | (26/26) Accurately ripped
7 | (26/26) Accurately ripped
8 | (26/26) Accurately ripped
9 | (26/26) Accurately ripped
10 | (26/26) Accurately ripped
11 | (26/26) Accurately ripped
12 | (26/26) Accurately ripped
13 | (26/26) Accurately ripped
14 | (26/26) Accurately ripped
15 | (26/26) Accurately ripped


==== Log checksum 1BA4BCD7E5AB92EDAC76AA0B8F45DDD8304EA3383D13174CC422FA68E06DEAC5 ====

––––––––––––––––––––––––––––––––––––––––
Analyzed: Diana Ross / Diamond Diana: The Legacy Collection
––––––––––––––––––––––––––––––––––––––––

DR Peak RMS Duration Track
––––––––––––––––––––––––––––––––––––––––
DR8 0.00 dB -9.38 dB 3:56 01-I'm Coming Out
DR9 0.00 dB -10.37 dB 2:52 02-More Today Than Yesterday
DR8 0.00 dB -10.00 dB 3:51 03-The Boss
DR8 0.00 dB -9.67 dB 4:33 04-It's My House
DR7 0.00 dB -10.15 dB 4:26 05- Endless Love with Lionel Richie
DR9 0.00 dB -9.76 dB 3:37 06-Upside Down
DR8 0.00 dB -9.25 dB 2:48 07-You Can't Hurry Love with The Supremes
DR8 0.00 dB -9.86 dB 3:53 08-Touch Me In The Morning
DR9 0.00 dB -10.49 dB 3:49 09-Love Hangover
DR7 0.00 dB -8.35 dB 4:18 10-Take Me Higher
DR7 0.00 dB -9.97 dB 3:56 11-It's My Turn
DR7 0.00 dB -8.28 dB 2:53 12-Why Do Fools Fall In Love
DR7 0.00 dB -9.46 dB 3:35 13-Ain't No Mountain High Enough
DR8 0.00 dB -10.25 dB 3:11 14-Reach Out And Touch (Somebody's Hand)
DR5 0.00 dB -6.47 dB 3:06 15-Ain't No Mountain High Enough-The Anmhe 'Diamond Diana' Remix
––––––––––––––––––––––––––––––––––––––––

Number of tracks: 15
Official DR value: DR8

Samplerate: 44100 Hz
Channels: 2
Bits per sample: 16
Bitrate: 989 kbps
Codec: FLAC
================================================================================

Thanks to my friend, M@ce

See also:
The Supremes:
The Supremes - Meet The Supremes (1962) [1992, Reissue]
The Supremes - Where Did Our Love Go (1964) [1986, Reissue]
The Supremes - We Remember Sam Cooke (1965) [2001, Reissue]
Diana Ross & The Supremes ...upremes (1965) [1986, Reissue]
The Supremes - More Hits By Th...Digital Download 24bit/192kHz]
The Supremes - The Supremes A'...) [2017, 2CD Expanded Edition]
The Supremes - The Best Of 20t...tmas Collection (2003) [Japan]
Diana Ross solo:
Diana Ross - Ain't No Mountain High Enough (1970) [1986, Reissue]
Diana Ross - Diana Ross (1970)...tered & Revisited Edition]
Diana Ross - Diana! The Original TV Sound Track (1971) [1991, Reissue]
Diana Ross - Everything Is Eve...stered & Expanded Edition]
Diana Ross - Last Time I Saw H...007, Limited Expanded Edition]
Diana Ross & Marvin Gaye -...(1973) [2014, Japanese SHM-CD]
Diana Ross - Diana Ross' Greatest Hits (1976) [1991, Reissue]
Diana Ross - Baby It's Me (1977) [2014, Japanese SHM-CD]
Diana Ross - The Boss (1979) [1991, Reissue]
Diana Ross - Diana's Duets (1981) [1992, Reissue]
Diana Ross - Why Do Fools Fall In Love (1981) [2005, Japan]
Diana Ross - Why Do Fools Fall...stered & Expanded Edition]
Diana Ross - Silk Electric (19...stered & Expanded Edition]
Diana Ross - Ross (1983) [2005, Japan]
Diana Ross - Ross (1983) [2014, Remastered & Expanded Edition]
Diana Ross - Swept Away (1984) [2005, Japan]
Diana Ross - Red Hot Rhythm And Blues (1987) [2005, Japan]
Diana Ross - Endless Love (1992)
Diana Ross - The Motown Anthology [2CD] (2001)
Diana Ross - Almighty Presents...Remix Collection) [3CD] (2009)


@>~Welcome To My Blog~<@

password: BlondStyle