Tags
Language
Tags

Diego Fasolis, Concerto Koln - Leonardo Vinci: Artaserse (2012)

Posted By: ArlegZ
Diego Fasolis, Concerto Koln - Leonardo Vinci: Artaserse (2012)

Diego Fasolis, Concerto Köln - Leonardo Vinci: Artaserse (2012)
EAC | FLAC | Image (Cue & Log) ~ 1.05 Gb | Total time: 67:26+65:46+54:36 | Scans included
Classical | Label: Virgin | # 5099960286925 | Recorded: 2011

No less than five brilliant countertenors – including Max Emanuel Cencic and Philippe Jaroussky – join conductor Diego Fasolis and Concerto Köln for Artaserse by Leonardo Vinci (1690-1730). In early 18th century Italy, the Neapolitan-born composer was one of the brightest stars in opera, and Artaserse is considered his masterpiece.
This recording of Artaserse by Leonardo Vinci (1690-1730) – born in Naples and, during his short life, celebrated as one of Italy’s leading composers of opera – represents the fourth Virgin Classics collaboration between countertenor Max Emanuel Cencic and conductor Diego Fasolis. It follows an album of Handel arias, Handel’s opera Faramondo and, in 2011, Vivaldi’s opera Farnace – “The performance fairly crackles, with accomplished singing by the flamboyant countertenor Max Emanuel Cencic in the virtuoso title role,” said the Telegraph in the UK.
In the words of musicologist Frédéric Delaméa, Artaserse, composed to a libretto by the great Metastasio that was also set by such figures as Gluck, Hasse, Galuppi, JC Bach, Myslivicek and (in English) Arne, “is a key work of baroque opera and the genius of Vinci is still too little known. This Virgin Classics recording, offering vocal and orchestral forces of exceptional quality, allows us to rediscover a figure who, in the course of his brief career, was one of the brightest stars of dramma per musica.” The status of Vinci as a composer, and of Artaserse as his masterpiece, is reflected in the observations of the French scholar and traveller Charles de Brosses, who, 10 years after Vinci’s death from poisoning, wrote: “Vinci is the Lully of Italy: true, simple, natural, expressive, writing in the most beautiful, uncontrived way for the voice … Artaserse has a reputation as his finest work, and one of Metastasio’s finest too … It is the most famous Italian opera.”
The opera, a story of the Persian emperor Artaxerxes, was first performed in 1730 at the Teatro delle Dame in Rome. At the time, a papal decree banned women from appearing on the stages of the city’s theatres, so the entire cast was male, with the female roles sung by castrati. This recording rises to the challenge of single-sex casting with a spectacular line-up of fine countertenors from around the world: Croatian-born Cencic, his frequent sparring partner, the Frenchman Philippe Jaroussky, Franco Fagioli (from Argentina), Valer Barna-Sabadus (from Romania) and Yuriy Mynenko (from Ukraine). Joining them from Germany are a lone tenor, Daniel Behle, and the brilliant Concerto Köln, a leading ensemble in historically informed performance.
–Forum Opéra, France

Performer:
Artaserse - Philippe Jaroussky
Mandane - Max Emanuel Cencic
Artabano - Daniel Behle
Arbace - Franco Fagioli
Semira - Valer Barna-Sabadus
Megabise - Yuriy Mynenko
Coro della Radiotelevisione svizzera
Concerto Köln
Conductor - Diego Fasolis

Track List:
CD1:
01. Sinfonia: I. Allegro
02. II. Grave
03. III. Minuetto
04. Atto I. Recitativo: Addio. Sentimi Arbace (Arbace, Mandane)
05. Aria: Conservati fedele (Mandane)
06. Recitativo: Figlio, Arbace. Signor (Artabano, Arbace)
07. Aria: Fra cento affani (Arbace)
08. Recitativo: Coraggio o miei pensieri (Artabano, Artaserse)
09. Aria: Su le sponde del torbido lete (Artabano)"
10. Recitativo: Qual vittima si svena (Artaserse, Megabise)
11. Aria: Per pietà, bell'idol mio (Artaserse)
12. Recitativo: Gran cose io temo (Semira, Megabise)
13. Aria: Sogna il guerrier le schiere (Megabise)
14. Recitativo: Voi della Persia (Semira)
15. Aria: Bramar di perdere troppo affetto (Semira)
16. Recitativo: Ah, Mandane… Artaserse (Artaserse, Mandane)
17. Recitativo: Artaserse, respira (Semira, Artaserse, Mandane, Artabano)
18. Recitativo: Arbace è il reo (Megabise, Artasrse, Semira, Arbace, Artabano)
19. Aria: Deh respirar lasciatemi (Artaserse)
20. Recitativo: E innocente dovrai tanti oltraggi soffrir (Arbace, Megabise, Semira)
21. Aria: Non ti son padre (Artabano)
22. Recitativo: Ma per qual fallo mai (Arbace)
23. Aria: Torna innocente e poi (Semira)
24. Recitativo: Mio ben, mia vita (Arbace, Mandane)
25. Aria: Dimmi che un empio sei (Madane)
26. Recitativo accompagnato: No che non ha la sorte (Arbace)
27. Aria: Vo solcando un mar crudele (Arbace)
CD2:
01. Atto II. Recitativo: Dal carcere o custodi (Artaserse, Artabano)
02. Aria: Rendimi il caro amico (Artaserse)
03. Recitativo: Son quasi in porto (Artabano, Arbace)
04. Aria: Mi scacci sdegnato! (Arbace)
05. Recitativo: I tuoi deboli affetti (Artabano, Megabise)
06. Aria: Amalo e se al tuo sguardo (Artabano)
07. Recitativo: Ascolta o Megabise (Semira, Megabise)
08. Aria: Non temer ch'io mai ti dica (Megabise)
09. Recitativo: Qual serie di sventure (Semira, Mandane)
10. Aria: Se d'un amor tiranno (Mandane)
11. Recitativo: A qual di tanti mali (Semira)
12. Aria: Se del fiume altera l'onda (Semira)
13. Recitativo: Mio re,chiedono a gara (Megabise, Artaserse)
14. Recitativo: Tanto in odio alla Persia (Arbace, Artaserse, Artabano, Mandane)
15. Aria: Per quel paterno amplesso (Arbace)
16. Recitativo: A prezzo del mio sangue (Artabano, Mandane)
17. Aria: Va tra le selve ircane (Mandane)
18. Recitativo: Quanto, amata Semira (Artaserse, Semira)
19. Aria: Per quell'affetto (Semira)
20. Recitativo: Dell'ingrata Semira (Artaserse, Artabano)
21. Aria: Non conosco in tal momento (Artaserse)
22. Recitativo: Son pur solo una volta (Artabano)
23. Aria: Così stupisce e cade (Artabano)
CD3:
01. Atto III. Arioso: Perché tarda è mai la morte (Arbace)
02. Recitativo: Arbace. Oh dei, che miro! (Artaserse, Arbace)
03. ria: L'onda dal mar divisa (Arbace)
04. Recitativo: Quella fronte sicura e quel sembiante (Artaserse)
05. Aria: Nuvoletta opposta al sole (Artaserse)
06. Recitativo: Figlio, Arbace, ove sei? (Artabano, Megabise)
07. Aria: Ardito ti renda (Megabise)
08. Recitativo: Trovaste avversi dei (Artabano)
09. Aria: Figlio se più non vivi (Artabano)
10. Recitativo: Alfin potrai consolarti Mandane (Semira, Mandane)
11. Aria: Mi credi spietata? (Mandane)
12. Recitativo: Forsennata, che feci! (Semira)
13. Aria: Non è ver che sia contento (Semira)
14. Recitativo: Né pur qui la ritrovo (Arbace, Mandane)
15. Duetto: Tu vuoi ch'io viva o cara (Arbace, Mandane)
16. Recitativo: A voi popoli io m'offro (Artaserse, Artabano)
17. Recitativo accompagnato: Lucido dio per cui l'april fiorisce (Artaserse)
18. Recitativo: Al riparo signor - Ferma o germano (Semira, Artaserse, Artabano)
19. Recitativo: Ecco Arbace, o monarca, a' piedi tuoi (Arbace, Artaserse, Mandane, Artabano)
20. Recitativo accompagnato: Lucido dio per cui l'april fiorisce (Arbace, Artabano)
21. Recitativo: Ferma; è veleno (Artabano, Artaserse, Arbace, Mandane, Semira)
22. Coro: Giusto re, la Persia adora


Exact Audio Copy V1.5 from 20. February 2020

EAC extraction logfile from 28. May 2020, 11:47

Diego Fasolis, Concerto Köln / Vinci - Artaserse CD1

Used drive : PIONEER DVD-RW DVR-218L Adapter: 1 ID: 1

Read mode : Secure
Utilize accurate stream : Yes
Defeat audio cache : Yes
Make use of C2 pointers : No

Read offset correction : 6
Overread into Lead-In and Lead-Out : No
Fill up missing offset samples with silence : Yes
Delete leading and trailing silent blocks : No
Null samples used in CRC calculations : Yes
Used interface : Native Win32 interface for Win NT & 2000

Used output format : User Defined Encoder
Selected bitrate : 128 kBit/s
Quality : High
Add ID3 tag : No
Command line compressor : C:\Program Files\Exact Audio Copy\Flac\flac.exe
Additional command line options : -V -8 -T "Date=%year%" -T "Genre=%genre%" %source%


TOC of the extracted CD

Track | Start | Length | Start sector | End sector
––––––––––––––––––––––––––––-
1 | 0:00.00 | 1:54.58 | 0 | 8607
2 | 1:54.58 | 1:58.45 | 8608 | 17502
3 | 3:53.28 | 1:02.64 | 17503 | 22216
4 | 4:56.17 | 4:20.41 | 22217 | 41757
5 | 9:16.58 | 1:57.73 | 41758 | 50605
6 | 11:14.56 | 0:57.39 | 50606 | 54919
7 | 12:12.20 | 3:32.55 | 54920 | 70874
8 | 15:45.00 | 3:06.06 | 70875 | 84830
9 | 18:51.06 | 2:44.19 | 84831 | 97149
10 | 21:35.25 | 1:56.57 | 97150 | 105906
11 | 23:32.07 | 4:29.32 | 105907 | 126113
12 | 28:01.39 | 2:15.43 | 126114 | 136281
13 | 30:17.07 | 2:40.65 | 136282 | 148346
14 | 32:57.72 | 0:36.28 | 148347 | 151074
15 | 33:34.25 | 4:08.41 | 151075 | 169715
16 | 37:42.66 | 1:46.09 | 169716 | 177674
17 | 39:29.00 | 3:13.05 | 177675 | 192154
18 | 42:42.05 | 1:18.04 | 192155 | 198008
19 | 44:00.09 | 3:50.34 | 198009 | 215292
20 | 47:50.43 | 1:02.04 | 215293 | 219946
21 | 48:52.47 | 2:20.60 | 219947 | 230506
22 | 51:13.32 | 0:20.62 | 230507 | 232068
23 | 51:34.19 | 4:19.59 | 232069 | 251552
24 | 55:54.03 | 0:54.16 | 251553 | 255618
25 | 56:48.19 | 2:31.35 | 255619 | 266978
26 | 59:19.54 | 1:17.08 | 266979 | 272761
27 | 60:36.62 | 6:51.67 | 272762 | 303653


Range status and errors

Selected range

Filename C:\ArlegZ\Vinci - Artaserse CD1.wav

Peak level 98.8 %
Extraction speed 1.8 X
Range quality 99.9 %
Test CRC 20D49438
Copy CRC 20D49438
Copy OK

No errors occurred


AccurateRip summary

Track 1 accurately ripped (confidence 49) [D5E5C996] (AR v2)
Track 2 accurately ripped (confidence 49) [9AE986C7] (AR v2)
Track 3 accurately ripped (confidence 49) [1E2DA378] (AR v2)
Track 4 accurately ripped (confidence 49) [39DD7583] (AR v2)
Track 5 accurately ripped (confidence 49) [649903E1] (AR v2)
Track 6 accurately ripped (confidence 49) [920E3C31] (AR v2)
Track 7 accurately ripped (confidence 49) [3B51D53F] (AR v2)
Track 8 accurately ripped (confidence 49) [7D9976AB] (AR v2)
Track 9 accurately ripped (confidence 49) [4EA3B63E] (AR v2)
Track 10 accurately ripped (confidence 49) [4F1588DC] (AR v2)
Track 11 accurately ripped (confidence 49) [662BF67A] (AR v2)
Track 12 accurately ripped (confidence 49) [CA82AA57] (AR v2)
Track 13 accurately ripped (confidence 49) [B0A56760] (AR v2)
Track 14 accurately ripped (confidence 49) [5CD13F76] (AR v2)
Track 15 accurately ripped (confidence 49) [06151346] (AR v2)
Track 16 accurately ripped (confidence 49) [B95DAF95] (AR v2)
Track 17 accurately ripped (confidence 49) [690E0B32] (AR v2)
Track 18 accurately ripped (confidence 49) [2C13E6EF] (AR v2)
Track 19 accurately ripped (confidence 49) [3722BEF2] (AR v2)
Track 20 accurately ripped (confidence 49) [D8DA0F1B] (AR v2)
Track 21 accurately ripped (confidence 49) [C0A7197B] (AR v2)
Track 22 accurately ripped (confidence 49) [5A761A10] (AR v2)
Track 23 accurately ripped (confidence 49) [3D5D03CA] (AR v2)
Track 24 accurately ripped (confidence 49) [8717DB6A] (AR v2)
Track 25 accurately ripped (confidence 49) [592656DD] (AR v2)
Track 26 accurately ripped (confidence 49) [427AC6DF] (AR v2)
Track 27 accurately ripped (confidence 49) [939E4EF7] (AR v2)

All tracks accurately ripped

End of status report

–– CUETools DB Plugin V2.1.6

[CTDB TOCID: z9qk_4X1acPWersDgRmFN81rty0-] found
Submit result: z9qk_4X1acPWersDgRmFN81rty0- has been confirmed
Track | CTDB Status
1 | (82/82) Accurately ripped
2 | (82/82) Accurately ripped
3 | (82/82) Accurately ripped
4 | (81/82) Accurately ripped
5 | (82/82) Accurately ripped
6 | (82/82) Accurately ripped
7 | (82/82) Accurately ripped
8 | (81/82) Accurately ripped
9 | (81/82) Accurately ripped
10 | (82/82) Accurately ripped
11 | (82/82) Accurately ripped
12 | (82/82) Accurately ripped
13 | (82/82) Accurately ripped
14 | (82/82) Accurately ripped
15 | (82/82) Accurately ripped
16 | (82/82) Accurately ripped
17 | (82/82) Accurately ripped
18 | (82/82) Accurately ripped
19 | (81/82) Accurately ripped
20 | (82/82) Accurately ripped
21 | (82/82) Accurately ripped
22 | (82/82) Accurately ripped
23 | (82/82) Accurately ripped
24 | (82/82) Accurately ripped
25 | (82/82) Accurately ripped
26 | (82/82) Accurately ripped
27 | (82/82) Accurately ripped


==== Log checksum 9E1F7BA9A0C3D2396B19FC4CE8103BCA5F4C53C935D1C30FA352FF1EE282DB3B ====


Exact Audio Copy V1.5 from 20. February 2020

EAC extraction logfile from 28. May 2020, 13:00

Diego Fasolis, Concerto Köln / Vinci - Artaserse CD2

Used drive : PIONEER DVD-RW DVR-218L Adapter: 1 ID: 1

Read mode : Secure
Utilize accurate stream : Yes
Defeat audio cache : Yes
Make use of C2 pointers : No

Read offset correction : 6
Overread into Lead-In and Lead-Out : No
Fill up missing offset samples with silence : Yes
Delete leading and trailing silent blocks : No
Null samples used in CRC calculations : Yes
Used interface : Native Win32 interface for Win NT & 2000

Used output format : User Defined Encoder
Selected bitrate : 128 kBit/s
Quality : High
Add ID3 tag : No
Command line compressor : C:\Program Files\Exact Audio Copy\Flac\flac.exe
Additional command line options : -V -8 -T "Date=%year%" -T "Genre=%genre%" %source%


TOC of the extracted CD

Track | Start | Length | Start sector | End sector
––––––––––––––––––––––––––––-
1 | 0:00.00 | 1:11.09 | 0 | 5333
2 | 1:11.09 | 3:38.59 | 5334 | 21742
3 | 4:49.68 | 2:05.46 | 21743 | 31163
4 | 6:55.39 | 6:02.53 | 31164 | 58366
5 | 12:58.17 | 2:29.55 | 58367 | 69596
6 | 15:27.72 | 3:28.07 | 69597 | 85203
7 | 18:56.04 | 1:31.26 | 85204 | 92054
8 | 20:27.30 | 4:06.63 | 92055 | 110567
9 | 24:34.18 | 1:55.57 | 110568 | 119249
10 | 26:30.00 | 6:32.00 | 119250 | 148649
11 | 33:02.00 | 0:35.18 | 148650 | 151292
12 | 33:37.18 | 3:44.36 | 151293 | 168128
13 | 37:21.54 | 2:43.01 | 168129 | 180354
14 | 40:04.55 | 3:08.06 | 180355 | 194460
15 | 43:12.61 | 5:03.36 | 194461 | 217221
16 | 48:16.22 | 0:48.41 | 217222 | 220862
17 | 49:04.63 | 2:31.51 | 220863 | 232238
18 | 51:36.39 | 0:19.23 | 232239 | 233686
19 | 51:55.62 | 5:05.70 | 233687 | 256631
20 | 57:01.57 | 0:49.63 | 256632 | 260369
21 | 57:51.45 | 3:50.53 | 260370 | 277672
22 | 61:42.23 | 0:23.43 | 277673 | 279440
23 | 62:05.66 | 3:43.17 | 279441 | 296182


Range status and errors

Selected range

Filename C:\ArlegZ\Vinci - Artaserse CD2.wav

Peak level 98.8 %
Extraction speed 1.9 X
Range quality 100.0 %
Test CRC C1DA2F83
Copy CRC C1DA2F83
Copy OK

No errors occurred


AccurateRip summary

Track 1 accurately ripped (confidence 46) [FC1AFD8F] (AR v2)
Track 2 accurately ripped (confidence 46) [155B8B2E] (AR v2)
Track 3 accurately ripped (confidence 46) [5D948A13] (AR v2)
Track 4 accurately ripped (confidence 46) [9E3E0437] (AR v2)
Track 5 accurately ripped (confidence 46) [4E865950] (AR v2)
Track 6 accurately ripped (confidence 46) [2FB9E017] (AR v2)
Track 7 accurately ripped (confidence 45) [04164665] (AR v2)
Track 8 accurately ripped (confidence 46) [D80855AB] (AR v2)
Track 9 accurately ripped (confidence 46) [58A23243] (AR v2)
Track 10 accurately ripped (confidence 46) [A544DF0A] (AR v2)
Track 11 accurately ripped (confidence 46) [2753DBD0] (AR v2)
Track 12 accurately ripped (confidence 46) [CA2511A7] (AR v2)
Track 13 accurately ripped (confidence 46) [8EC815B4] (AR v2)
Track 14 accurately ripped (confidence 46) [5C5778CF] (AR v2)
Track 15 accurately ripped (confidence 46) [EC5A7F06] (AR v2)
Track 16 accurately ripped (confidence 46) [1C74DC61] (AR v2)
Track 17 accurately ripped (confidence 46) [F5D63C0D] (AR v2)
Track 18 accurately ripped (confidence 46) [17C6AD5B] (AR v2)
Track 19 accurately ripped (confidence 46) [E909EBCF] (AR v2)
Track 20 accurately ripped (confidence 46) [75B2ADF5] (AR v2)
Track 21 accurately ripped (confidence 46) [8F9DE4F5] (AR v2)
Track 22 accurately ripped (confidence 46) [632DE4F3] (AR v2)
Track 23 accurately ripped (confidence 46) [E403B3E8] (AR v2)

All tracks accurately ripped

End of status report

–– CUETools DB Plugin V2.1.6

[CTDB TOCID: gjkiWvIaGAMEfJqE4vsVCNopP20-] found
Submit result: gjkiWvIaGAMEfJqE4vsVCNopP20- has been confirmed
Track | CTDB Status
1 | (83/84) Accurately ripped
2 | (83/84) Accurately ripped
3 | (83/84) Accurately ripped
4 | (83/84) Accurately ripped
5 | (83/84) Accurately ripped
6 | (83/84) Accurately ripped
7 | (83/84) Accurately ripped
8 | (83/84) Accurately ripped
9 | (83/84) Accurately ripped
10 | (83/84) Accurately ripped
11 | (83/84) Accurately ripped
12 | (83/84) Accurately ripped
13 | (83/84) Accurately ripped
14 | (83/84) Accurately ripped
15 | (83/84) Accurately ripped
16 | (83/84) Accurately ripped
17 | (83/84) Accurately ripped
18 | (83/84) Accurately ripped
19 | (83/84) Accurately ripped
20 | (83/84) Accurately ripped
21 | (83/84) Accurately ripped
22 | (83/84) Accurately ripped
23 | (82/84) Accurately ripped


==== Log checksum 4AB5EB442B0E068E632591DA9B977DC06A26EC14DFF7E9F4F6EB4A42080CA44A ====


Exact Audio Copy V1.5 from 20. February 2020

EAC extraction logfile from 28. May 2020, 14:03

Diego Fasolis, Concerto Köln / Vinci - Artaserse CD3

Used drive : PIONEER DVD-RW DVR-218L Adapter: 1 ID: 1

Read mode : Secure
Utilize accurate stream : Yes
Defeat audio cache : Yes
Make use of C2 pointers : No

Read offset correction : 6
Overread into Lead-In and Lead-Out : No
Fill up missing offset samples with silence : Yes
Delete leading and trailing silent blocks : No
Null samples used in CRC calculations : Yes
Used interface : Native Win32 interface for Win NT & 2000

Used output format : User Defined Encoder
Selected bitrate : 128 kBit/s
Quality : High
Add ID3 tag : No
Command line compressor : C:\Program Files\Exact Audio Copy\Flac\flac.exe
Additional command line options : -V -8 -T "Date=%year%" -T "Genre=%genre%" %source%


TOC of the extracted CD

Track | Start | Length | Start sector | End sector
––––––––––––––––––––––––––––-
1 | 0:00.00 | 2:52.03 | 0 | 12902
2 | 2:52.03 | 1:44.04 | 12903 | 20706
3 | 4:36.07 | 5:32.38 | 20707 | 45644
4 | 10:08.45 | 0:22.46 | 45645 | 47340
5 | 10:31.16 | 2:43.01 | 47341 | 59566
6 | 13:14.17 | 1:29.45 | 59567 | 66286
7 | 14:43.62 | 3:11.21 | 66287 | 80632
8 | 17:55.08 | 0:30.68 | 80633 | 82950
9 | 18:26.01 | 4:44.72 | 82951 | 104322
10 | 23:10.73 | 1:03.45 | 104323 | 109092
11 | 24:14.43 | 5:33.65 | 109093 | 134132
12 | 29:48.33 | 0:24.59 | 134133 | 135991
13 | 30:13.17 | 4:45.34 | 135992 | 157400
14 | 34:58.51 | 1:49.52 | 157401 | 165627
15 | 36:48.28 | 6:44.48 | 165628 | 195975
16 | 43:33.01 | 1:11.22 | 195976 | 201322
17 | 44:44.23 | 1:00.11 | 201323 | 205833
18 | 45:44.34 | 1:20.38 | 205834 | 211871
19 | 47:04.72 | 1:39.43 | 211872 | 219339
20 | 48:44.40 | 0:33.17 | 219340 | 221831
21 | 49:17.57 | 3:57.49 | 221832 | 239655
22 | 53:15.31 | 1:23.63 | 239656 | 245943


Range status and errors

Selected range

Filename C:\ArlegZ\Vinci - Artaserse CD3.wav

Peak level 98.8 %
Extraction speed 1.8 X
Range quality 100.0 %
Test CRC 486971B3
Copy CRC 486971B3
Copy OK

No errors occurred


AccurateRip summary

Track 1 accurately ripped (confidence 46) [8F50FF2D] (AR v2)
Track 2 accurately ripped (confidence 46) [1B99AD44] (AR v2)
Track 3 accurately ripped (confidence 45) [100A2A9D] (AR v2)
Track 4 accurately ripped (confidence 46) [6CD957A2] (AR v2)
Track 5 accurately ripped (confidence 46) [7E3A8EE8] (AR v2)
Track 6 accurately ripped (confidence 46) [22CE4A39] (AR v2)
Track 7 accurately ripped (confidence 45) [62431E23] (AR v2)
Track 8 accurately ripped (confidence 46) [0F69488B] (AR v2)
Track 9 accurately ripped (confidence 46) [45D77006] (AR v2)
Track 10 accurately ripped (confidence 46) [2939395D] (AR v2)
Track 11 accurately ripped (confidence 46) [F7AA0E23] (AR v2)
Track 12 accurately ripped (confidence 46) [4EAF0048] (AR v2)
Track 13 accurately ripped (confidence 46) [336CF493] (AR v2)
Track 14 accurately ripped (confidence 46) [20191AC3] (AR v2)
Track 15 accurately ripped (confidence 46) [C5DC2985] (AR v2)
Track 16 accurately ripped (confidence 46) [15D408B8] (AR v2)
Track 17 accurately ripped (confidence 46) [050003FD] (AR v2)
Track 18 accurately ripped (confidence 45) [1DA7E005] (AR v2)
Track 19 accurately ripped (confidence 46) [559E3F11] (AR v2)
Track 20 accurately ripped (confidence 46) [8698EB88] (AR v2)
Track 21 accurately ripped (confidence 46) [A10DD122] (AR v2)
Track 22 accurately ripped (confidence 46) [B95CE3F5] (AR v2)

All tracks accurately ripped

End of status report

–– CUETools DB Plugin V2.1.6

[CTDB TOCID: ixwh.7fjcrIfxWAL.XbX0yqwr5w-] found
Submit result: ixwh.7fjcrIfxWAL.XbX0yqwr5w- has been confirmed
Track | CTDB Status
1 | (84/85) Accurately ripped
2 | (84/85) Accurately ripped
3 | (84/85) Accurately ripped
4 | (84/85) Accurately ripped
5 | (84/85) Accurately ripped
6 | (84/85) Accurately ripped
7 | (84/85) Accurately ripped
8 | (84/85) Accurately ripped
9 | (84/85) Accurately ripped
10 | (84/85) Accurately ripped
11 | (84/85) Accurately ripped
12 | (84/85) Accurately ripped
13 | (84/85) Accurately ripped
14 | (84/85) Accurately ripped
15 | (84/85) Accurately ripped
16 | (84/85) Accurately ripped
17 | (84/85) Accurately ripped
18 | (84/85) Accurately ripped
19 | (84/85) Accurately ripped
20 | (84/85) Accurately ripped
21 | (83/85) Accurately ripped
22 | (84/85) Accurately ripped


==== Log checksum 4095BE51207825446E6EC9B10F5569CE0B570AA0BCE9625E627967D3ACBB15A2 ====

Diego Fasolis, Concerto Koln - Leonardo Vinci: Artaserse (2012)