Tags
Language
Tags

Diego Fasolis, I Barocchisti, Coro della Radiotelevisione svizzera - Gluck: Orfeo ed Euridice (2018)

Posted By: ArlegZ
Diego Fasolis, I Barocchisti, Coro della Radiotelevisione svizzera - Gluck: Orfeo ed Euridice (2018)

Diego Fasolis, I Barocchisti, Coro della Radiotelevisione svizzera - Gluck: Orfeo ed Euridice (2018)
EAC | FLAC | Image (Cue & Log) ~ 420 Mb | Total time: 77:38 | Scans included
Classical | Label: Erato | 0190295660239 | Recorded: 2016-2017

Star countertenor Philippe Jaroussky continues his exploration of operatic settings of the Orpheus myth with the most famous of the many operas inspired by the story of the Greek poet who searches for his dead wife in the Underworld: Gluck's Orfeo ed Euridice. It contains one of the world's best-loved operatic arias, Orfeo's restrained, but moving lament, 'Che farò senza Euridice'.
Conducted by Diego Fasolis, his is the world premiere recording of a version of the opera that was performed at the Royal Palace in Naples in 1774, 12 years after Orfeo ed Euridice was staged in Vienna as the first of Gluck's 'reform operas'. In these works Gluck emphasised simplicity of form and directness of expression, consciously rejecting the extravagances of opera seria, which dominated the early 18th century and was typified by convoluted plots and extended showpiece arias.

Performer:
Orfeo - Philippe Jaroussky
Euridice - Amanda Forsythe
Amore - Emőke Baráth
Coro della Radiotelevisione svizzera
I Barocchisti
Conductor - Diego Fasolis

Track List:
01. Sinfonia: Allegro con moto
02. Scena prima. Nº1: Coro: Ah! se intorno a quest'urna funesta
03. Nº2: Recitativo accompagnato: Basta, basta, o compagni!
04. Nº3: Ballo: Tempo di Minuè
05. Nº4: Coro e Ballo: Ah! se intorno a quest'urna funesta (bis)
06. Nº5: Aria e recitativo: Chiamo il mio ben così… Euridice, Euridice, ombra cara, ove sei?… Cerco il mio ben così… Euridice! Euridice! Ah, questo nome… Piango il mio ben così
07. Nº6: Recitativo accompagnato: Numi, barbari Numi!
08. Scena seconda. Nº7: Recitativo accompagnato: T'assiste Amore
09. Nº8: Aria: Gli sguardi trattieni… Sai pur che talora
10. Nº9: Recitativo accompagnato: Che disse? Che ascoltai?
11. Scena terza. Nº10: Ballo di Furie e Spettri: Maestoso - Poco largo - Coro: Chi mai dell'Erebo - Ballo: Allegro ma non troppo - Coro: Chi mai dell'Erebo (bis) -
12. Aria: Deh! placatevi con me
13. Scena quarta. Nº11: Coro: Misero giovine!
14. Nº12: Aria: Mille pene
15. Nº13: Coro: Ah, quale incognito
16. Nº14: Aria: Men tiranne
17. Nº15: Coro: Ah, quale incognito (bis)
18. Scena quinta. Nº16: Ballo d'eroi ed eroine negli Elisi: Andantino
19. Nº17: Aria: Che puro ciel!… Euridice dov'è?
20. Nº18: Coro: Vieni a' regni del riposo
21. Nº19: Ballo: Andante
22. Nº20: Recitativo accompagnato: Anime avventurose
23. Nº21: Coro: Torna, o bella, al tuo consorte
24. Scena sesta. Nº22: Recitativo accompagnato: Vieni, segui i miei passi - Recitativo secco: Ti venni fin negli Elisi a ricercar - Recitativo accompagnato: Ch'io taccia!
25. Nº23: Duetto (del signor Egidio Lasnel): Vieni, appaga il tuo consorte… Grande, o Numi
26. Nº24: Recitativo accompagnato: Qual vita è questa mai
27. Nº25: Aria: Senza un addio?… Tu sospiri… ti confondi… Per pietà del mio dolore… Ah! Crudel
28. Recitativo accompagnato: Più frenarmi non posso
29. Nº26: Aria: Che farò senza Euridice
30. Nº27: Recitativo accompagnato: Ma finisca, e per sempre
31. Recitativo secco: Orfeo, che fai?
32. Scena settima. Nº28: Coro: Trionfi Amore!


Exact Audio Copy V1.3 from 2. September 2016

EAC extraction logfile from 6. April 2020, 13:05

Diego Fasolis, I Barocchisti, Coro della Radiotelevisione svizzera / Gluck - Orfeo ed Euridice

Used drive : PIONEER DVD-RW DVR-218L Adapter: 1 ID: 1

Read mode : Secure
Utilize accurate stream : Yes
Defeat audio cache : Yes
Make use of C2 pointers : No

Read offset correction : 6
Overread into Lead-In and Lead-Out : No
Fill up missing offset samples with silence : Yes
Delete leading and trailing silent blocks : No
Null samples used in CRC calculations : Yes
Used interface : Native Win32 interface for Win NT & 2000

Used output format : User Defined Encoder
Selected bitrate : 128 kBit/s
Quality : High
Add ID3 tag : No
Command line compressor : C:\Program Files\Exact Audio Copy\FLAC\FLAC.EXE
Additional command line options : -V -8 -T "Date=%year%" -T "Genre=%genre%" %source%


TOC of the extracted CD

Track | Start | Length | Start sector | End sector
––––––––––––––––––––––––––––-
1 | 0:00.00 | 3:04.47 | 0 | 13846
2 | 3:04.47 | 2:46.33 | 13847 | 26329
3 | 5:51.05 | 0:44.04 | 26330 | 29633
4 | 6:35.09 | 2:43.34 | 29634 | 41892
5 | 9:18.43 | 2:11.19 | 41893 | 51736
6 | 11:29.62 | 4:56.28 | 51737 | 73964
7 | 16:26.15 | 0:56.26 | 73965 | 78190
8 | 17:22.41 | 1:57.60 | 78191 | 87025
9 | 19:20.26 | 2:57.56 | 87026 | 100356
10 | 22:18.07 | 2:11.24 | 100357 | 110205
11 | 24:29.31 | 2:58.16 | 110206 | 123571
12 | 27:27.47 | 2:34.34 | 123572 | 135155
13 | 30:02.06 | 0:58.46 | 135156 | 139551
14 | 31:00.52 | 1:04.47 | 139552 | 144398
15 | 32:05.24 | 0:41.45 | 144399 | 147518
16 | 32:46.69 | 0:39.60 | 147519 | 150503
17 | 33:26.54 | 1:13.03 | 150504 | 155981
18 | 34:39.57 | 1:58.69 | 155982 | 164900
19 | 36:38.51 | 4:40.31 | 164901 | 185931
20 | 41:19.07 | 1:38.26 | 185932 | 193307
21 | 42:57.33 | 2:20.26 | 193308 | 203833
22 | 45:17.59 | 0:44.66 | 203834 | 207199
23 | 46:02.50 | 1:39.30 | 207200 | 214654
24 | 47:42.05 | 5:16.56 | 214655 | 238410
25 | 52:58.61 | 4:59.21 | 238411 | 260856
26 | 57:58.07 | 2:29.59 | 260857 | 272090
27 | 60:27.66 | 5:07.21 | 272091 | 295136
28 | 65:35.12 | 2:56.11 | 295137 | 308347
29 | 68:31.23 | 3:47.63 | 308348 | 325435
30 | 72:19.11 | 1:08.23 | 325436 | 330558
31 | 73:27.34 | 1:51.44 | 330559 | 338927
32 | 75:19.03 | 2:19.01 | 338928 | 349353


Range status and errors

Selected range

Filename C:\ArlegZ\Diego Fasolis - Gluck - Orfeo ed Euridice.wav

Peak level 99.0 %
Extraction speed 2.1 X
Range quality 100.0 %
Test CRC 0FB7363B
Copy CRC 0FB7363B
Copy OK

No errors occurred


AccurateRip summary

Track 1 accurately ripped (confidence 10) [185C692D] (AR v2)
Track 2 accurately ripped (confidence 10) [B7E688FB] (AR v2)
Track 3 accurately ripped (confidence 10) [788AF922] (AR v2)
Track 4 accurately ripped (confidence 10) [9E931CBC] (AR v2)
Track 5 accurately ripped (confidence 10) [D5B0EA47] (AR v2)
Track 6 accurately ripped (confidence 10) [128AF2E3] (AR v2)
Track 7 accurately ripped (confidence 10) [417535CD] (AR v2)
Track 8 accurately ripped (confidence 10) [1A8FE47F] (AR v2)
Track 9 accurately ripped (confidence 10) [FB8F2185] (AR v2)
Track 10 accurately ripped (confidence 10) [A026617E] (AR v2)
Track 11 accurately ripped (confidence 10) [A779E4FA] (AR v2)
Track 12 accurately ripped (confidence 10) [6DBF02E3] (AR v2)
Track 13 accurately ripped (confidence 10) [17B26505] (AR v2)
Track 14 accurately ripped (confidence 10) [A359E7A7] (AR v2)
Track 15 accurately ripped (confidence 10) [706C3487] (AR v2)
Track 16 accurately ripped (confidence 10) [2883182B] (AR v2)
Track 17 accurately ripped (confidence 10) [11110C88] (AR v2)
Track 18 accurately ripped (confidence 10) [F6BF44E6] (AR v2)
Track 19 accurately ripped (confidence 10) [890F1729] (AR v2)
Track 20 accurately ripped (confidence 10) [B8CF3624] (AR v2)
Track 21 accurately ripped (confidence 10) [911B0EA5] (AR v2)
Track 22 accurately ripped (confidence 10) [2F828D68] (AR v2)
Track 23 accurately ripped (confidence 10) [08B82AEA] (AR v2)
Track 24 accurately ripped (confidence 10) [D048CCD9] (AR v2)
Track 25 accurately ripped (confidence 10) [BE0E5288] (AR v2)
Track 26 accurately ripped (confidence 10) [40BBA6E5] (AR v2)
Track 27 accurately ripped (confidence 10) [8BCD1899] (AR v2)
Track 28 accurately ripped (confidence 10) [A9215714] (AR v2)
Track 29 accurately ripped (confidence 10) [288EAED8] (AR v2)
Track 30 accurately ripped (confidence 10) [5F8BC6C3] (AR v2)
Track 31 accurately ripped (confidence 10) [83EC3BA8] (AR v2)
Track 32 accurately ripped (confidence 10) [65604D4F] (AR v2)

All tracks accurately ripped

End of status report

==== Log checksum CB3F4F6A76A2E939C02A96CEBE0A2F3973645531B0BCB3A1708C892755721338 ====

Diego Fasolis, I Barocchisti, Coro della Radiotelevisione svizzera - Gluck: Orfeo ed Euridice (2018)

Thanks to the original releaser