Tags
Language
Tags

Dizzy Gillespie - The Cool World (1964) [Reissue 2008]

Posted By: gribovar
Dizzy Gillespie - The Cool World (1964) [Reissue 2008]

Dizzy Gillespie - The Cool World (1964) [Reissue 2008]
EAC Rip | FLAC (tracks+.cue+log) - 248 MB | MP3 CBR 320 kbps (LAME 3.93) - 95 MB | Covers included
Genre: Jazz, Bop, Hard Bop, Soundtrack | RAR 3% Rec. | Label: Verve (B0011228-02)

Finally available again after a 30-plus year absence from American shelves is the soundtrack to Shirley Clarke's gritty but brilliant 1964 film, Cool World, about young people growing up in Harlem. The score was written and arranged by pianist Mal Waldron but was performed and recorded by Dizzy Gillespie's quintet of the time. This set is one of Diz's best records of the 1960s (which is saying something), and one of the best jazz film scores period. Diz's band at the time included James Moody on tenor and flute, a young Kenny Barron on piano, bassist Chris White, and Rudy Collins on drums. The 11 cues that range between two and five minutes are deeply rooted in the language of hard bop and blues with some excellent, if brief, modal touches by Waldron. The opening theme, the set's longest cut, sets out all the tropes the quintet will visit over and again; lean, tough, expressive blues. Barron's piano sets out a fast, hard swinging groove that sets a pace for the cut time, skittering snare, and frenetic bassline; they urge the two horn players to wail the head and they do. The three solos are as intense and popping as anything on Blue Note at the time, and offer a portal into the rest of the set. The blues articulation of every cue here is on purpose because, if anything, Cool World is a film drenched in them. Waldron's sense of economy in picking both impressionistic and expressionist avenues for blues to speak through jazz in an inspired quintet like this is remarkable - the temptation would be to excess at every turn, especially given Waldron's gift for sophisticated harmonies and spacy lyrical concerns. There is little that is subtle about this music, but there is nothing overblown about it either. Check the happy-go-lucky flow of "Enter Priest," which signals the arrival onscreen of Duke's (main character) mentor: though he is an underworld figure and a gang leader, his outward appearance to Duke, and his first impression of him, is one of freedom and admiration. The free-flowing cut-time rim shot from Collins and the breezy, open horn section underscores this; Duke's eyes are wide and happy because he thinks he's found a way out of his predicament. On "Duke's Awakening," Waldron deviates - momentarily - from the blues/hard bop lexicon. He uses a minor-key modal theme in the intro before unfolding a slow blues. Waldron follows this with a stunning hard bebop cue called "Duke on the Run," that echoes back to the '40s in its unrelenting action and pace - though Moody's solo is a deeply soulful one. There is also the wonderfully lilting "Coney Island," (where the main character escorts his Bonnie, his love interest, to the seashore, it's her first time seeing the ocean despite having grown up in Harlem). The open octave spill between saxophone and muted trumpeter are the character's voice, and the drums and bassline become the sea and sand - the only place the pair is free is on the shore. Moody solos on flute to outline just how different this moment is than either character has known before. Ultimately, the soundtrack to Cool World is an enormous success artistically, standing head and shoulders over virtually every other such effort of the period, and a welcome addition to the Gillespie catalog, offering a very keen and muscular view of his 1964 band. Previously available only as a very expensive import, this disc is a must for anyone interested in '60s Gillespie and in hard bop jazz in general.
Tracklist:
01. Theme From "The Cool World"
02. The Pushers
03. Enter, Priest
04. Duke's Awakening
05. Duke On The Run
06. Street Music
07. Bonnie's Blues
08. Coney Island
09. Duke's Fantasy
10. Coolie
11. Dukes's Last Soliloquy

Total time: 39:22

Exact Audio Copy V1.0 beta 3 from 29. August 2011

EAC extraction logfile from 19. August 2012, 20:49

Dizzy Gillespie / The Cool World

Used drive : TSSTcorpCDDVDW SH-S203N Adapter: 3 ID: 1

Read mode : Secure
Utilize accurate stream : Yes
Defeat audio cache : Yes
Make use of C2 pointers : No

Read offset correction : 6
Overread into Lead-In and Lead-Out : No
Fill up missing offset samples with silence : Yes
Delete leading and trailing silent blocks : No
Null samples used in CRC calculations : Yes
Used interface : Native Win32 interface for Win NT & 2000
Gap handling : Appended to previous track

Used output format : User Defined Encoder
Selected bitrate : 1024 kBit/s
Quality : High
Add ID3 tag : No
Command line compressor : C:\Program Files (x86)\Exact Audio Copy\Flac\flac.exe
Additional command line options : -8 -V -T "ARTIST=%artist%" -T "TITLE=%title%" -T "ALBUM=%albumtitle%" -T "DATE=%year%" -T "TRACKNUMBER=%tracknr%" -T "GENRE=%genre%" -T "PERFORMER=%albuminterpret%" -T "COMPOSER=%composer%" %haslyrics%–tag-from-file=LYRICS="%lyricsfile%"%haslyrics% -T "ALBUMARTIST=%albumartist%" -T "DISCNUMBER=%cdnumber%" -T "TOTALDISCS=%totalcds%" -T "TOTALTRACKS=%numtracks%" -T "COMMENT=%comment%" %source% -o %dest%


TOC of the extracted CD

Track | Start | Length | Start sector | End sector
––––––––––––––––––––––––––––-
1 | 0:00.00 | 5:17.33 | 0 | 23807
2 | 5:17.33 | 2:34.17 | 23808 | 35374
3 | 7:51.50 | 4:11.29 | 35375 | 54228
4 | 12:03.04 | 2:43.47 | 54229 | 66500
5 | 14:46.51 | 5:16.22 | 66501 | 90222
6 | 20:02.73 | 2:34.55 | 90223 | 101827
7 | 22:37.53 | 4:00.74 | 101828 | 119901
8 | 26:38.52 | 3:43.56 | 119902 | 136682
9 | 30:22.33 | 2:16.37 | 136683 | 146919
10 | 32:38.70 | 3:39.05 | 146920 | 163349
11 | 36:18.00 | 3:04.42 | 163350 | 177191


Track 1

Filename C:\EAC Rips\Dizzy Gillespie - The Cool World (1964) [FLAC]\01 Theme From The Cool World.wav

Pre-gap length 0:00:02.00

Peak level 100.0 %
Extraction speed 2.2 X
Track quality 100.0 %
Test CRC 44021DF5
Copy CRC 44021DF5
Accurately ripped (confidence 3) [69B5A16B] (AR v2)
Copy OK

Track 2

Filename C:\EAC Rips\Dizzy Gillespie - The Cool World (1964) [FLAC]\02 The Pushers.wav

Peak level 99.7 %
Extraction speed 1.9 X
Track quality 100.0 %
Test CRC 7A7FE042
Copy CRC 7A7FE042
Accurately ripped (confidence 3) [922263DA] (AR v2)
Copy OK

Track 3

Filename C:\EAC Rips\Dizzy Gillespie - The Cool World (1964) [FLAC]\03 Enter, Priest.wav

Peak level 98.6 %
Extraction speed 2.1 X
Track quality 100.0 %
Test CRC DAA16DF6
Copy CRC DAA16DF6
Accurately ripped (confidence 3) [099DF662] (AR v2)
Copy OK

Track 4

Filename C:\EAC Rips\Dizzy Gillespie - The Cool World (1964) [FLAC]\04 Duke's Awakening.wav

Peak level 77.4 %
Extraction speed 2.0 X
Track quality 100.0 %
Test CRC 4A406D25
Copy CRC 4A406D25
Accurately ripped (confidence 3) [4367750E] (AR v2)
Copy OK

Track 5

Filename C:\EAC Rips\Dizzy Gillespie - The Cool World (1964) [FLAC]\05 Duke On The Run.wav

Peak level 98.0 %
Extraction speed 2.2 X
Track quality 100.0 %
Test CRC 6BB78050
Copy CRC 6BB78050
Accurately ripped (confidence 3) [E175A659] (AR v2)
Copy OK

Track 6

Filename C:\EAC Rips\Dizzy Gillespie - The Cool World (1964) [FLAC]\06 Street Music.wav

Peak level 92.6 %
Extraction speed 1.9 X
Track quality 100.0 %
Test CRC D6F2B07F
Copy CRC D6F2B07F
Accurately ripped (confidence 3) [E711EA9B] (AR v2)
Copy OK

Track 7

Filename C:\EAC Rips\Dizzy Gillespie - The Cool World (1964) [FLAC]\07 Bonnie's Blues.wav

Peak level 71.5 %
Extraction speed 1.8 X
Track quality 99.9 %
Test CRC 01F6DB67
Copy CRC 01F6DB67
Accurately ripped (confidence 3) [6DC4D596] (AR v2)
Copy OK

Track 8

Filename C:\EAC Rips\Dizzy Gillespie - The Cool World (1964) [FLAC]\08 Coney Island.wav

Peak level 77.7 %
Extraction speed 1.8 X
Track quality 99.9 %
Test CRC 9B123E14
Copy CRC 9B123E14
Accurately ripped (confidence 3) [B12451D9] (AR v2)
Copy OK

Track 9

Filename C:\EAC Rips\Dizzy Gillespie - The Cool World (1964) [FLAC]\09 Duke's Fantasy.wav

Peak level 100.0 %
Extraction speed 1.9 X
Track quality 100.0 %
Test CRC D058F1CC
Copy CRC D058F1CC
Accurately ripped (confidence 3) [E901DEF3] (AR v2)
Copy OK

Track 10

Filename C:\EAC Rips\Dizzy Gillespie - The Cool World (1964) [FLAC]\10 Coolie.wav

Peak level 97.6 %
Extraction speed 2.1 X
Track quality 100.0 %
Test CRC A9DE71C9
Copy CRC A9DE71C9
Accurately ripped (confidence 3) [CF243B4C] (AR v2)
Copy OK

Track 11

Filename C:\EAC Rips\Dizzy Gillespie - The Cool World (1964) [FLAC]\11 Dukes's Last Soliloquy.wav

Peak level 97.7 %
Extraction speed 2.0 X
Track quality 100.0 %
Test CRC C43C0E85
Copy CRC C43C0E85
Accurately ripped (confidence 3) [B522D7CA] (AR v2)
Copy OK


All tracks accurately ripped

No errors occurred

End of status report

–– CUETools DB Plugin V2.1.3

[CTDB TOCID: a3jW3AZA_XfnF8NgAizM_LpzTr8-] found, Submit result: already submitted
[4297eba1] (4/4) Accurately ripped


==== Log checksum EE0AAB1BCB320FB6F443341C566B40798ABD35DE38584D8B3530E6A9DDCF3555 ====

[CUETools log; Date: 31.05.2021 17:33:22; Version: 2.1.4]
[CTDB TOCID: a3jW3AZA_XfnF8NgAizM_LpzTr8-] found.
Track | CTDB Status
1 | (24/24) Accurately ripped
2 | (24/24) Accurately ripped
3 | (24/24) Accurately ripped
4 | (24/24) Accurately ripped
5 | (24/24) Accurately ripped
6 | (24/24) Accurately ripped
7 | (24/24) Accurately ripped
8 | (24/24) Accurately ripped
9 | (24/24) Accurately ripped
10 | (24/24) Accurately ripped
11 | (24/24) Accurately ripped
[AccurateRip ID: 0011076b-00918dc6-8d093a0b] found.
Track [ CRC | V2 ] Status
01 [099e84db|69b5a16b] (02+19/21) Accurately ripped
02 [c349231c|922263da] (02+20/22) Accurately ripped
03 [9c7ddfd6|099df662] (02+20/22) Accurately ripped
04 [0be0715f|4367750e] (02+20/22) Accurately ripped
05 [1aceecef|e175a659] (02+19/21) Accurately ripped
06 [d9c02f83|e711ea9b] (02+19/21) Accurately ripped
07 [180e7dea|6dc4d596] (02+20/22) Accurately ripped
08 [95205daa|b12451d9] (02+20/22) Accurately ripped
09 [bad6b501|e901def3] (02+19/21) Accurately ripped
10 [a5eaec28|cf243b4c] (02+20/22) Accurately ripped
11 [b8696f43|b522d7ca] (02+19/21) Accurately ripped

Track Peak [ CRC32 ] [W/O NULL] [ LOG ]
– 100,0 [935560C7] [A5C881E1]
01 100,0 [44021DF5] [3E558E90] CRC32
02 99,7 [7A7FE042] [C64C9C32] CRC32
03 98,6 [DAA16DF6] [29701E68] CRC32
04 77,4 [4A406D25] [02534829] CRC32
05 98,0 [6BB78050] [37F0233E] CRC32
06 92,6 [D6F2B07F] [0F2ED05E] CRC32
07 71,5 [01F6DB67] [170EC4AB] CRC32
08 77,7 [9B123E14] [2D5C8D7C] CRC32
09 100,0 [D058F1CC] [75D3E56A] CRC32
10 97,6 [A9DE71C9] [1D125D7A] CRC32
11 97,7 [C43C0E85] [5C36B0AA] CRC32

Thanks to the original releaser