Tags
Language
Tags

Django Reinhardt - 1934-1935 (1993)

Posted By: gribovar
Django Reinhardt - 1934-1935 (1993)

Django Reinhardt - 1934-1935 (1993)
EAC Rip | FLAC (tracks+.cue+log) - 292 MB | MP3 CBR 320 kbps (LAME 3.93) - 167 MB | Covers (9 MB) included
Genre: Gypsy Jazz, Swing | RAR 3% Rec. | Label: Classics Records (CLASSICS 703)

This first installment in Classics' multi-volume Reinhardt series is a fine place to start your Django collection. Recorded between 1934-1935, the 23 tracks include many of first sides from the Quintet of the Hot Club of France, which Reinhardt formed with frequent cohort and violinist Stephane Grappelli. Cut for the French Ultraphone label, the material includes such top-notch QHCF sides as "I Saw Stars," "I'm Confessin'," and "Dinah." There's also a few numbers Reinhardt cut with the Michel Warlop Orchestra before teaming up with QHCF. And while JSP's Reinhardt discs often beat out many of the Classics titles for sound quality, this early offering ranks as one that stands up just fine.
Tracklist:
01. Presentation Stomp
02. Blue Interlude
03. Tiger Rag
04. After You've Gone
05. Confessin'
06. I Saw Stars
07. Confessin'
08. From Now On
09. I Saw Stars
10. Blank Panther Stomp
11. Okay, Toots
12. When My Ship Comes In
13. My Carolina Hideaway
14. Dinah
15. Tiger Rag
16. Lady Be Good
17. I Saw Stars
18. Hands Across the Table
19. We Were So Young
20. From You
21. Darling, je vous aime beaucoup
22. Miss Otis Regrets (She's Unable to Lunch Today)
23. Waltzing with a Dream

Total time: 01:07:15

Exact Audio Copy V1.0 beta 3 from 29. August 2011

EAC extraction logfile from 27. February 2012, 22:37

Django Reinhardt / Django Reinhardt 1934-1935

Used drive : Optiarc DVD RW AD-7260S Adapter: 3 ID: 0

Read mode : Secure
Utilize accurate stream : Yes
Defeat audio cache : Yes
Make use of C2 pointers : No

Read offset correction : 48
Overread into Lead-In and Lead-Out : No
Fill up missing offset samples with silence : Yes
Delete leading and trailing silent blocks : No
Null samples used in CRC calculations : Yes
Used interface : Native Win32 interface for Win NT & 2000
Gap handling : Appended to previous track

Used output format : User Defined Encoder
Selected bitrate : 1024 kBit/s
Quality : High
Add ID3 tag : No
Command line compressor : C:\Program Files (x86)\Exact Audio Copy\Flac\flac.exe
Additional command line options : -8 -V -T "ARTIST=%artist%" -T "TITLE=%title%" -T "ALBUM=%albumtitle%" -T "DATE=%year%" -T "TRACKNUMBER=%tracknr%" -T "GENRE=%genre%" -T "PERFORMER=%albuminterpret%" -T "COMPOSER=%composer%" -T "ALBUMARTIST=%albumartist%" -T "DISCNUMBER=%cdnumber%" -T "TOTALDISCS=%totalcds%" -T "TOTALTRACKS=%numtracks%" -T "COMMENT=%comment%" %source% -o %dest%


TOC of the extracted CD

Track | Start | Length | Start sector | End sector
––––––––––––––––––––––––––––-
1 | 0:00.32 | 3:05.10 | 32 | 13916
2 | 3:05.42 | 3:19.25 | 13917 | 28866
3 | 6:24.67 | 2:15.65 | 28867 | 39056
4 | 8:40.57 | 2:14.63 | 39057 | 49169
5 | 10:55.45 | 2:39.30 | 49170 | 61124
6 | 13:35.00 | 2:44.27 | 61125 | 73451
7 | 16:19.27 | 2:50.00 | 73452 | 86201
8 | 19:09.27 | 3:20.00 | 86202 | 101201
9 | 22:29.27 | 3:20.33 | 101202 | 116234
10 | 25:49.60 | 2:52.65 | 116235 | 129199
11 | 28:42.50 | 2:46.72 | 129200 | 141721
12 | 31:29.47 | 3:07.33 | 141722 | 155779
13 | 34:37.05 | 2:38.50 | 155780 | 167679
14 | 37:15.55 | 2:36.47 | 167680 | 179426
15 | 39:52.27 | 2:35.45 | 179427 | 191096
16 | 42:27.72 | 2:53.23 | 191097 | 204094
17 | 45:21.20 | 2:32.40 | 204095 | 215534
18 | 47:53.60 | 3:16.25 | 215535 | 230259
19 | 51:10.10 | 3:25.35 | 230260 | 245669
20 | 54:35.45 | 2:55.07 | 245670 | 258801
21 | 57:30.52 | 3:19.53 | 258802 | 273779
22 | 60:50.30 | 3:06.15 | 273780 | 287744
23 | 63:56.45 | 3:18.62 | 287745 | 302656


Track 1

Filename C:\Rips\01 - Presentation Stomp.wav

Pre-gap length 0:00:02.42

Peak level 91.0 %
Extraction speed 2.3 X
Track quality 100.0 %
Test CRC 92394455
Copy CRC 92394455
Accurately ripped (confidence 3) [ED94651C] (AR v1)
Copy OK

Track 2

Filename C:\Rips\02 - Blue Interlude.wav

Pre-gap length 0:00:01.20

Peak level 75.1 %
Extraction speed 2.5 X
Track quality 100.0 %
Test CRC 6E663A46
Copy CRC 6E663A46
Accurately ripped (confidence 3) [60B74C60] (AR v1)
Copy OK

Track 3

Filename C:\Rips\03 - Tiger Rag.wav

Pre-gap length 0:00:01.00

Peak level 81.0 %
Extraction speed 2.5 X
Track quality 100.0 %
Test CRC 7F88A36B
Copy CRC 7F88A36B
Accurately ripped (confidence 3) [479A8297] (AR v1)
Copy OK

Track 4

Filename C:\Rips\04 - After You've Gone.wav

Peak level 81.9 %
Extraction speed 2.6 X
Track quality 100.0 %
Test CRC 48E16C07
Copy CRC 48E16C07
Accurately ripped (confidence 3) [37860AE6] (AR v1)
Copy OK

Track 5

Filename C:\Rips\05 - Confessin'.wav

Pre-gap length 0:00:01.73

Peak level 93.3 %
Extraction speed 2.9 X
Track quality 100.0 %
Test CRC 276423FB
Copy CRC 276423FB
Accurately ripped (confidence 3) [5C0D0E84] (AR v1)
Copy OK

Track 6

Filename C:\Rips\06 - I Saw Stars.wav

Pre-gap length 0:00:01.80

Peak level 81.3 %
Extraction speed 2.5 X
Track quality 99.9 %
Test CRC 8CF95999
Copy CRC 8CF95999
Accurately ripped (confidence 3) [B0411922] (AR v1)
Copy OK

Track 7

Filename C:\Rips\07 - Confessin'.wav

Pre-gap length 0:00:01.66

Peak level 95.5 %
Extraction speed 2.6 X
Track quality 99.9 %
Test CRC DEF5A9D1
Copy CRC DEF5A9D1
Accurately ripped (confidence 3) [B4263A4F] (AR v1)
Copy OK

Track 8

Filename C:\Rips\08 - From Now On.wav

Pre-gap length 0:00:01.66

Peak level 87.2 %
Extraction speed 3.3 X
Track quality 100.0 %
Test CRC D0B172AD
Copy CRC D0B172AD
Accurately ripped (confidence 3) [75C236BF] (AR v1)
Copy OK

Track 9

Filename C:\Rips\09 - I Saw Stars.wav

Pre-gap length 0:00:01.66

Peak level 84.6 %
Extraction speed 3.5 X
Track quality 100.0 %
Test CRC F50D4F68
Copy CRC F50D4F68
Accurately ripped (confidence 3) [C600F4DA] (AR v1)
Copy OK

Track 10

Filename C:\Rips\10 - Blank Panther Stomp.wav

Pre-gap length 0:00:01.66

Peak level 99.4 %
Extraction speed 3.5 X
Track quality 100.0 %
Test CRC DF1CC0D7
Copy CRC DF1CC0D7
Accurately ripped (confidence 3) [7DBF32B4] (AR v1)
Copy OK

Track 11

Filename C:\Rips\11 - Okay, Toots.wav

Pre-gap length 0:00:01.66

Peak level 84.2 %
Extraction speed 3.1 X
Track quality 99.9 %
Test CRC F77A6EC1
Copy CRC F77A6EC1
Accurately ripped (confidence 3) [1A68D8E6] (AR v1)
Copy OK

Track 12

Filename C:\Rips\12 - When My Ship Comes In.wav

Pre-gap length 0:00:01.66

Peak level 70.6 %
Extraction speed 3.8 X
Track quality 100.0 %
Test CRC 91715607
Copy CRC 91715607
Accurately ripped (confidence 3) [B7C2E0B0] (AR v1)
Copy OK

Track 13

Filename C:\Rips\13 - My Carolina Hideaway.wav

Pre-gap length 0:00:01.20

Peak level 70.7 %
Extraction speed 3.2 X
Track quality 99.9 %
Test CRC CDB37739
Copy CRC CDB37739
Accurately ripped (confidence 3) [12F27499] (AR v1)
Copy OK

Track 14

Filename C:\Rips\14 - Dinah.wav

Pre-gap length 0:00:01.66

Peak level 82.9 %
Extraction speed 3.9 X
Track quality 100.0 %
Test CRC A251C2B4
Copy CRC A251C2B4
Accurately ripped (confidence 3) [38C7D2DE] (AR v1)
Copy OK

Track 15

Filename C:\Rips\15 - Tiger Rag.wav

Pre-gap length 0:00:01.66

Peak level 91.0 %
Extraction speed 3.9 X
Track quality 100.0 %
Test CRC D26FFA71
Copy CRC D26FFA71
Accurately ripped (confidence 3) [46584218] (AR v1)
Copy OK

Track 16

Filename C:\Rips\16 - Lady Be Good.wav

Pre-gap length 0:00:01.66

Peak level 87.6 %
Extraction speed 3.5 X
Track quality 99.9 %
Test CRC E21CA7E3
Copy CRC E21CA7E3
Accurately ripped (confidence 3) [188CAB45] (AR v1)
Copy OK

Track 17

Filename C:\Rips\17 - I Saw Stars.wav

Pre-gap length 0:00:01.66

Peak level 96.2 %
Extraction speed 4.2 X
Track quality 100.0 %
Test CRC F8F26AAB
Copy CRC F8F26AAB
Accurately ripped (confidence 3) [17A5410C] (AR v1)
Copy OK

Track 18

Filename C:\Rips\18 - Hands Across the Table.wav

Pre-gap length 0:00:01.66

Peak level 73.1 %
Extraction speed 4.5 X
Track quality 100.0 %
Test CRC 8C2A73D4
Copy CRC 8C2A73D4
Accurately ripped (confidence 3) [B93BB67B] (AR v1)
Copy OK

Track 19

Filename C:\Rips\19 - We Were So Young.wav

Pre-gap length 0:00:01.66

Peak level 57.5 %
Extraction speed 4.6 X
Track quality 100.0 %
Test CRC 5241D50F
Copy CRC 5241D50F
Accurately ripped (confidence 3) [AB676FCE] (AR v1)
Copy OK

Track 20

Filename C:\Rips\20 - From You.wav

Pre-gap length 0:00:01.66

Peak level 82.8 %
Extraction speed 4.6 X
Track quality 100.0 %
Test CRC A6213EF7
Copy CRC A6213EF7
Accurately ripped (confidence 3) [E4E84876] (AR v1)
Copy OK

Track 21

Filename C:\Rips\21 - Darling, je vous aime beaucoup.wav

Pre-gap length 0:00:01.66

Peak level 53.7 %
Extraction speed 4.7 X
Track quality 100.0 %
Test CRC BC8AECE4
Copy CRC BC8AECE4
Accurately ripped (confidence 3) [6E70531F] (AR v1)
Copy OK

Track 22

Filename C:\Rips\22 - Miss Otis Regrets (She's Unable To Lunch Today).wav

Pre-gap length 0:00:01.66

Peak level 88.6 %
Extraction speed 4.8 X
Track quality 100.0 %
Test CRC F1AF6BB8
Copy CRC F1AF6BB8
Accurately ripped (confidence 3) [CE445A10] (AR v1)
Copy OK

Track 23

Filename C:\Rips\23 - Waltzing With A Dream.wav

Pre-gap length 0:00:01.66

Peak level 59.7 %
Extraction speed 5.0 X
Track quality 100.0 %
Test CRC 45F3F097
Copy CRC 45F3F097
Accurately ripped (confidence 3) [43865CEF] (AR v1)
Copy OK


All tracks accurately ripped

No errors occurred

End of status report

==== Log checksum E855DC94C8E5A5D153012A19C6552A5A1165B3ABC32A410CDE8162B5C0A0B35E ====

[CUETools log; Date: 26.02.2021 22:18:48; Version: 2.1.4]
Pregap length 00:00:32.
[CTDB TOCID: Wsc1p_YIy3jc6m6EzxCHxXETTyg-] found.
Track | CTDB Status
1 | (9/9) Accurately ripped
2 | (9/9) Accurately ripped
3 | (9/9) Accurately ripped
4 | (9/9) Accurately ripped
5 | (9/9) Accurately ripped
6 | (9/9) Accurately ripped
7 | (9/9) Accurately ripped
8 | (9/9) Accurately ripped
9 | (9/9) Accurately ripped
10 | (9/9) Accurately ripped
11 | (9/9) Accurately ripped
12 | (9/9) Accurately ripped
13 | (9/9) Accurately ripped
14 | (9/9) Accurately ripped
15 | (9/9) Accurately ripped
16 | (9/9) Accurately ripped
17 | (9/9) Accurately ripped
18 | (9/9) Accurately ripped
19 | (9/9) Accurately ripped
20 | (9/9) Accurately ripped
21 | (9/9) Accurately ripped
22 | (9/9) Accurately ripped
23 | (9/9) Accurately ripped
[AccurateRip ID: 003635c5-038a15de-5d0fc317] found.
Track [ CRC | V2 ] Status
01 [ed94651c|5a43843f] (3+3/6) Accurately ripped
02 [60b74c60|98205f3e] (3+3/6) Accurately ripped
03 [479a8297|6c4f5a2c] (3+3/6) Accurately ripped
04 [37860ae6|2cc935a9] (3+3/6) Accurately ripped
05 [5c0d0e84|221b5e31] (3+3/6) Accurately ripped
06 [b0411922|a49385f3] (3+3/6) Accurately ripped
07 [b4263a4f|62c55c17] (3+3/6) Accurately ripped
08 [75c236bf|9db76daf] (3+3/6) Accurately ripped
09 [c600f4da|0ff343ae] (3+3/6) Accurately ripped
10 [7dbf32b4|bee19e5a] (3+3/6) Accurately ripped
11 [1a68d8e6|eb68c620] (3+3/6) Accurately ripped
12 [b7c2e0b0|126d93f4] (3+3/6) Accurately ripped
13 [12f27499|52af203a] (3+3/6) Accurately ripped
14 [38c7d2de|300b4889] (3+3/6) Accurately ripped
15 [46584218|a253db09] (3+3/6) Accurately ripped
16 [188cab45|9f3e9b55] (3+3/6) Accurately ripped
17 [17a5410c|2f617cf1] (3+3/6) Accurately ripped
18 [b93bb67b|85526706] (3+3/6) Accurately ripped
19 [ab676fce|b0011e87] (3+3/6) Accurately ripped
20 [e4e84876|8fbcf2db] (3+3/6) Accurately ripped
21 [6e70531f|7a90c962] (3+3/6) Accurately ripped
22 [ce445a10|71e918ac] (3+3/6) Accurately ripped
23 [43865cef|ec0e7c7f] (3+3/6) Accurately ripped

Track Peak [ CRC32 ] [W/O NULL] [ LOG ]
– 99,4 [8698058C] [812F1966]
01 91,0 [92394455] [3DE6593A] CRC32
02 75,1 [6E663A46] [3B47854E] CRC32
03 81,0 [7F88A36B] [5DE55157] CRC32
04 81,9 [48E16C07] [AB784A4C] CRC32
05 93,3 [276423FB] [2DC95D19] CRC32
06 81,3 [8CF95999] [64F06188] CRC32
07 95,5 [DEF5A9D1] [26A6AFAD] CRC32
08 87,2 [D0B172AD] [141938BB] CRC32
09 84,6 [F50D4F68] [CDB85F14] CRC32
10 99,4 [DF1CC0D7] [07E04E0C] CRC32
11 84,2 [F77A6EC1] [EE0CFC51] CRC32
12 70,6 [91715607] [1D86EC8E] CRC32
13 70,7 [CDB37739] [1FF5E65E] CRC32
14 82,9 [A251C2B4] [981FBAE1] CRC32
15 91,0 [D26FFA71] [121F0481] CRC32
16 87,6 [E21CA7E3] [7CB77B54] CRC32
17 96,2 [F8F26AAB] [F388DB0D] CRC32
18 73,1 [8C2A73D4] [96EFFAEE] CRC32
19 57,5 [5241D50F] [59A07C7A] CRC32
20 82,8 [A6213EF7] [0AA9C655] CRC32
21 53,7 [BC8AECE4] [B61B6B4E] CRC32
22 88,6 [F1AF6BB8] [BA60D3A4] CRC32
23 59,6 [45F3F097] [77ADB9A7] CRC32

Thanks to the original releaser

See also: